<?xml version="1.0" standalone="no"?>
<!DOCTYPE svg PUBLIC "-//W3C//DTD SVG 1.1//EN" "http://www.w3.org/Graphics/SVG/1.1/DTD/svg11.dtd" >
<svg xmlns="http://www.w3.org/2000/svg" xmlns:xlink="http://www.w3.org/1999/xlink" version="1.1">
<metadata>
Created by FontForge 20200511 at Thu Jan 23 22:42:53 2020
 By convertio
Copyright 2020 The Inter Project Authors (https://github.com/rsms/inter)
</metadata>
<defs>
<font id="Inter-Medium" horiz-adv-x="0" >
  <font-face 
    font-family="Inter Medium"
    font-weight="500"
    font-stretch="normal"
    units-per-em="2816"
    panose-1="2 11 5 2 3 0 0 0 0 4"
    ascent="2252"
    descent="-564"
    x-height="1536"
    cap-height="2048"
    bbox="-2131 -900 7274 3072"
    underline-thickness="192"
    underline-position="-560"
    unicode-range="U+0020-1F852"
  />
<missing-glyph horiz-adv-x="2852" 
d="M262 -640v512h2328v-512h-2328zM262 1472v512h2328v-512h-2328zM262 2176v512h2328v-512h-2328zM262 64v512h2328v-512h-2328zM262 768v512h2328v-512h-2328z" />
    <glyph glyph-name="uni24B6" unicode="A&#x20dd;" horiz-adv-x="3912" 
d="M1368 0h-328l737 2048h357l737 -2048h-328l-579 1676h-16zM1423 802h1064v-260h-1064v260zM1956 -900q-319 0 -607.5 97t-529 273.5t-417 417t-273.5 529t-97 607.5t97 607.5t273.5 529t417 417t529 273.5t607.5 97t607.5 -97t529 -273.5t417 -417t273.5 -529t97 -607.5
t-97 -607.5t-273.5 -529t-417 -417t-529 -273.5t-607.5 -97zM1956 -650q278 0 528.5 84.5t460 238t363.5 363t238 460.5t84 528q0 278 -84 529t-238 460t-363.5 363t-460 238t-528.5 84t-529 -84t-460.5 -238t-363 -363t-238 -460t-84.5 -529q0 -277 84.5 -528t238 -460.5
t363 -363t460.5 -238t529 -84.5z" />
    <glyph glyph-name="uni24B7" unicode="B&#x20dd;" horiz-adv-x="3912" 
d="M1296 0v2048h750q218 0 361 -71.5t214 -193t71 -273.5q0 -128 -47 -215.5t-125.5 -140t-172.5 -76.5v-20q102 -5 199.5 -65.5t161.5 -171.5t64 -270q0 -157 -73.5 -281.5t-226.5 -197t-391 -72.5h-785zM1605 265h446q222 0 318 86t96 215q0 97 -49 178t-139.5 129
t-214.5 48h-457v-656zM1605 1162h414q104 0 187.5 40t133 112.5t49.5 171.5q0 127 -89 213t-273 86h-422v-623zM1956 -900q-319 0 -607.5 97t-529 273.5t-417 417t-273.5 529t-97 607.5t97 607.5t273.5 529t417 417t529 273.5t607.5 97t607.5 -97t529 -273.5t417 -417
t273.5 -529t97 -607.5t-97 -607.5t-273.5 -529t-417 -417t-529 -273.5t-607.5 -97zM1956 -650q278 0 528.5 84.5t460 238t363.5 363t238 460.5t84 528q0 278 -84 529t-238 460t-363.5 363t-460 238t-528.5 84t-529 -84t-460.5 -238t-363 -363t-238 -460t-84.5 -529
q0 -277 84.5 -528t238 -460.5t363 -363t460.5 -238t529 -84.5z" />
    <glyph glyph-name="uni24B8" unicode="C&#x20dd;" horiz-adv-x="3912" 
d="M2840 1382h-312q-18 100 -67 176t-120 129t-158.5 80t-185.5 27q-177 0 -316.5 -89t-220 -261t-80.5 -420q0 -250 80.5 -422t220.5 -260t315 -88q97 0 184.5 26.5t158.5 78.5t120.5 127.5t68.5 173.5l312 -1q-25 -151 -96.5 -277.5t-183 -218t-254.5 -141.5t-312 -50
q-266 0 -474 126.5t-327.5 362.5t-119.5 563q0 328 120 563.5t328 362t473 126.5q163 0 304.5 -46.5t254.5 -136t187 -218t100 -293.5zM1956 -900q-319 0 -607.5 97t-529 273.5t-417 417t-273.5 529t-97 607.5t97 607.5t273.5 529t417 417t529 273.5t607.5 97t607.5 -97
t529 -273.5t417 -417t273.5 -529t97 -607.5t-97 -607.5t-273.5 -529t-417 -417t-529 -273.5t-607.5 -97zM1956 -650q278 0 528.5 84.5t460 238t363.5 363t238 460.5t84 528q0 278 -84 529t-238 460t-363.5 363t-460 238t-528.5 84t-529 -84t-460.5 -238t-363 -363t-238 -460
t-84.5 -529q0 -277 84.5 -528t238 -460.5t363 -363t460.5 -238t529 -84.5z" />
    <glyph glyph-name="uni24B9" unicode="D&#x20dd;" horiz-adv-x="3912" 
d="M1950 0h-663v2048h684q301 0 517 -122.5t331.5 -351t115.5 -547.5q0 -320 -116.5 -550t-336.5 -353.5t-532 -123.5zM1596 270h337q234 0 389 88.5t232 257t77 411.5q0 241 -76.5 409t-227.5 255t-375 87h-356v-1508zM1956 -900q-319 0 -607.5 97t-529 273.5t-417 417
t-273.5 529t-97 607.5t97 607.5t273.5 529t417 417t529 273.5t607.5 97t607.5 -97t529 -273.5t417 -417t273.5 -529t97 -607.5t-97 -607.5t-273.5 -529t-417 -417t-529 -273.5t-607.5 -97zM1956 -650q278 0 528.5 84.5t460 238t363.5 363t238 460.5t84 528q0 278 -84 529
t-238 460t-363.5 363t-460 238t-528.5 84t-529 -84t-460.5 -238t-363 -363t-238 -460t-84.5 -529q0 -277 84.5 -528t238 -460.5t363 -363t460.5 -238t529 -84.5z" />
    <glyph glyph-name="uni24BA" unicode="E&#x20dd;" horiz-adv-x="3912" 
d="M1308 0v2048h1284v-266h-975v-624h908v-265h-908v-627h987v-266h-1296zM1956 -900q-319 0 -607.5 97t-529 273.5t-417 417t-273.5 529t-97 607.5t97 607.5t273.5 529t417 417t529 273.5t607.5 97t607.5 -97t529 -273.5t417 -417t273.5 -529t97 -607.5t-97 -607.5
t-273.5 -529t-417 -417t-529 -273.5t-607.5 -97zM1956 -650q278 0 528.5 84.5t460 238t363.5 363t238 460.5t84 528q0 278 -84 529t-238 460t-363.5 363t-460 238t-528.5 84t-529 -84t-460.5 -238t-363 -363t-238 -460t-84.5 -529q0 -277 84.5 -528t238 -460.5t363 -363
t460.5 -238t529 -84.5z" />
    <glyph glyph-name="uni24BB" unicode="F&#x20dd;" horiz-adv-x="3912" 
d="M1321 0v2048h1270v-266h-961v-624h870v-265h-870v-893h-309zM1956 -900q-319 0 -607.5 97t-529 273.5t-417 417t-273.5 529t-97 607.5t97 607.5t273.5 529t417 417t529 273.5t607.5 97t607.5 -97t529 -273.5t417 -417t273.5 -529t97 -607.5t-97 -607.5t-273.5 -529
t-417 -417t-529 -273.5t-607.5 -97zM1956 -650q278 0 528.5 84.5t460 238t363.5 363t238 460.5t84 528q0 278 -84 529t-238 460t-363.5 363t-460 238t-528.5 84t-529 -84t-460.5 -238t-363 -363t-238 -460t-84.5 -529q0 -277 84.5 -528t238 -460.5t363 -363t460.5 -238
t529 -84.5z" />
    <glyph glyph-name="uni24BC" unicode="G&#x20dd;" horiz-adv-x="3912" 
d="M2516 1401q-29 91 -77.5 163.5t-115.5 124t-152.5 78.5t-187.5 27q-173 0 -312 -89t-219.5 -260.5t-80.5 -419.5q0 -249 81 -421t222 -261t321 -89q167 0 291.5 68t193 192.5t68.5 293.5l80 -15h-586v255h805v-233q0 -258 -109.5 -447.5t-302 -292.5t-440.5 -103
q-278 0 -487.5 128t-326.5 363.5t-117 559.5q0 245 68 440t191.5 331.5t291 209t366.5 72.5q166 0 309.5 -49t256 -139t186.5 -213.5t100 -273.5h-317zM1956 -900q-319 0 -607.5 97t-529 273.5t-417 417t-273.5 529t-97 607.5t97 607.5t273.5 529t417 417t529 273.5
t607.5 97t607.5 -97t529 -273.5t417 -417t273.5 -529t97 -607.5t-97 -607.5t-273.5 -529t-417 -417t-529 -273.5t-607.5 -97zM1956 -650q278 0 528.5 84.5t460 238t363.5 363t238 460.5t84 528q0 278 -84 529t-238 460t-363.5 363t-460 238t-528.5 84t-529 -84t-460.5 -238
t-363 -363t-238 -460t-84.5 -529q0 -277 84.5 -528t238 -460.5t363 -363t460.5 -238t529 -84.5z" />
    <glyph glyph-name="uni24BD" unicode="H&#x20dd;" horiz-adv-x="3912" 
d="M1133 0v2048h309v-890h1021v890h310v-2048h-310v893h-1021v-893h-309zM1956 -900q-319 0 -607.5 97t-529 273.5t-417 417t-273.5 529t-97 607.5t97 607.5t273.5 529t417 417t529 273.5t607.5 97t607.5 -97t529 -273.5t417 -417t273.5 -529t97 -607.5t-97 -607.5
t-273.5 -529t-417 -417t-529 -273.5t-607.5 -97zM1956 -650q278 0 528.5 84.5t460 238t363.5 363t238 460.5t84 528q0 278 -84 529t-238 460t-363.5 363t-460 238t-528.5 84t-529 -84t-460.5 -238t-363 -363t-238 -460t-84.5 -529q0 -277 84.5 -528t238 -460.5t363 -363
t460.5 -238t529 -84.5z" />
    <glyph glyph-name="uni24BE" unicode="I&#x20dd;" horiz-adv-x="3912" 
d="M2110 2048v-2048h-309v2048h309zM1956 -900q-319 0 -607.5 97t-529 273.5t-417 417t-273.5 529t-97 607.5t97 607.5t273.5 529t417 417t529 273.5t607.5 97t607.5 -97t529 -273.5t417 -417t273.5 -529t97 -607.5t-97 -607.5t-273.5 -529t-417 -417t-529 -273.5
t-607.5 -97zM1956 -650q278 0 528.5 84.5t460 238t363.5 363t238 460.5t84 528q0 278 -84 529t-238 460t-363.5 363t-460 238t-528.5 84t-529 -84t-460.5 -238t-363 -363t-238 -460t-84.5 -529q0 -277 84.5 -528t238 -460.5t363 -363t460.5 -238t529 -84.5z" />
    <glyph glyph-name="uni24BF" unicode="J&#x20dd;" horiz-adv-x="3912" 
d="M2191 2048h308v-1452q0 -197 -77.5 -337t-217.5 -213.5t-328 -73.5q-173 0 -310.5 63t-217 183.5t-79.5 293.5h307q0 -85 39.5 -147t109 -96.5t159.5 -34.5q98 0 166.5 41.5t104.5 122.5t36 198v1452zM1956 -900q-319 0 -607.5 97t-529 273.5t-417 417t-273.5 529
t-97 607.5t97 607.5t273.5 529t417 417t529 273.5t607.5 97t607.5 -97t529 -273.5t417 -417t273.5 -529t97 -607.5t-97 -607.5t-273.5 -529t-417 -417t-529 -273.5t-607.5 -97zM1956 -650q278 0 528.5 84.5t460 238t363.5 363t238 460.5t84 528q0 278 -84 529t-238 460
t-363.5 363t-460 238t-528.5 84t-529 -84t-460.5 -238t-363 -363t-238 -460t-84.5 -529q0 -277 84.5 -528t238 -460.5t363 -363t460.5 -238t529 -84.5z" />
    <glyph glyph-name="uni24C0" unicode="K&#x20dd;" horiz-adv-x="3912" 
d="M1249 0v2048h309v-978h25l859 978h389l-826 -922l829 -1126h-372l-662 915l-242 -278v-637h-309zM1956 -900q-319 0 -607.5 97t-529 273.5t-417 417t-273.5 529t-97 607.5t97 607.5t273.5 529t417 417t529 273.5t607.5 97t607.5 -97t529 -273.5t417 -417t273.5 -529
t97 -607.5t-97 -607.5t-273.5 -529t-417 -417t-529 -273.5t-607.5 -97zM1956 -650q278 0 528.5 84.5t460 238t363.5 363t238 460.5t84 528q0 278 -84 529t-238 460t-363.5 363t-460 238t-528.5 84t-529 -84t-460.5 -238t-363 -363t-238 -460t-84.5 -529q0 -277 84.5 -528
t238 -460.5t363 -363t460.5 -238t529 -84.5z" />
    <glyph glyph-name="uni24C1" unicode="L&#x20dd;" horiz-adv-x="3912" 
d="M1394 0v2048h309v-1782h928v-266h-1237zM1956 -900q-319 0 -607.5 97t-529 273.5t-417 417t-273.5 529t-97 607.5t97 607.5t273.5 529t417 417t529 273.5t607.5 97t607.5 -97t529 -273.5t417 -417t273.5 -529t97 -607.5t-97 -607.5t-273.5 -529t-417 -417t-529 -273.5
t-607.5 -97zM1956 -650q278 0 528.5 84.5t460 238t363.5 363t238 460.5t84 528q0 278 -84 529t-238 460t-363.5 363t-460 238t-528.5 84t-529 -84t-460.5 -238t-363 -363t-238 -460t-84.5 -529q0 -277 84.5 -528t238 -460.5t363 -363t460.5 -238t529 -84.5z" />
    <glyph glyph-name="uni24C2" unicode="M&#x20dd;" horiz-adv-x="3912" 
d="M917 2048h375l652 -1592h24l652 1592h375v-2048h-294v1482h-19l-604 -1479h-244l-604 1480h-19v-1483h-294v2048zM1956 -900q-319 0 -607.5 97t-529 273.5t-417 417t-273.5 529t-97 607.5t97 607.5t273.5 529t417 417t529 273.5t607.5 97t607.5 -97t529 -273.5t417 -417
t273.5 -529t97 -607.5t-97 -607.5t-273.5 -529t-417 -417t-529 -273.5t-607.5 -97zM1956 -650q278 0 528.5 84.5t460 238t363.5 363t238 460.5t84 528q0 278 -84 529t-238 460t-363.5 363t-460 238t-528.5 84t-529 -84t-460.5 -238t-363 -363t-238 -460t-84.5 -529
q0 -277 84.5 -528t238 -460.5t363 -363t460.5 -238t529 -84.5z" />
    <glyph glyph-name="uni24C3" unicode="N&#x20dd;" horiz-adv-x="3912" 
d="M2782 2048v-2048h-284l-1041 1502h-19v-1502h-309v2048h286l1042 -1504h19v1504h306zM1956 -900q-319 0 -607.5 97t-529 273.5t-417 417t-273.5 529t-97 607.5t97 607.5t273.5 529t417 417t529 273.5t607.5 97t607.5 -97t529 -273.5t417 -417t273.5 -529t97 -607.5
t-97 -607.5t-273.5 -529t-417 -417t-529 -273.5t-607.5 -97zM1956 -650q278 0 528.5 84.5t460 238t363.5 363t238 460.5t84 528q0 278 -84 529t-238 460t-363.5 363t-460 238t-528.5 84t-529 -84t-460.5 -238t-363 -363t-238 -460t-84.5 -529q0 -277 84.5 -528t238 -460.5
t363 -363t460.5 -238t529 -84.5z" />
    <glyph glyph-name="uni24C4" unicode="O&#x20dd;" horiz-adv-x="3912" 
d="M2878 1024q0 -328 -120 -563.5t-328.5 -362t-473.5 -126.5q-266 0 -474.5 126.5t-328.5 362.5t-120 563q0 328 120 563.5t328.5 362t474.5 126.5q265 0 473.5 -126.5t328.5 -362t120 -563.5zM2572 1024q0 250 -80.5 421.5t-220 260t-315.5 88.5q-177 0 -316 -88.5
t-219.5 -260t-80.5 -421.5t80.5 -421.5t219.5 -260t316 -88.5q176 0 315.5 88.5t220 260t80.5 421.5zM1956 -900q-319 0 -607.5 97t-529 273.5t-417 417t-273.5 529t-97 607.5t97 607.5t273.5 529t417 417t529 273.5t607.5 97t607.5 -97t529 -273.5t417 -417t273.5 -529
t97 -607.5t-97 -607.5t-273.5 -529t-417 -417t-529 -273.5t-607.5 -97zM1956 -650q278 0 528.5 84.5t460 238t363.5 363t238 460.5t84 528q0 278 -84 529t-238 460t-363.5 363t-460 238t-528.5 84t-529 -84t-460.5 -238t-363 -363t-238 -460t-84.5 -529q0 -277 84.5 -528
t238 -460.5t363 -363t460.5 -238t529 -84.5z" />
    <glyph glyph-name="uni24C5" unicode="P&#x20dd;" horiz-adv-x="3912" 
d="M1333 0v2048h730q239 0 396 -87t235 -237.5t78 -338.5q0 -189 -78.5 -339.5t-236 -238t-395.5 -87.5h-502v262h474q151 0 245 52.5t138 143.5t44 207t-44 206t-138.5 141t-248.5 51h-388v-1783h-309zM1956 -900q-319 0 -607.5 97t-529 273.5t-417 417t-273.5 529
t-97 607.5t97 607.5t273.5 529t417 417t529 273.5t607.5 97t607.5 -97t529 -273.5t417 -417t273.5 -529t97 -607.5t-97 -607.5t-273.5 -529t-417 -417t-529 -273.5t-607.5 -97zM1956 -650q278 0 528.5 84.5t460 238t363.5 363t238 460.5t84 528q0 278 -84 529t-238 460
t-363.5 363t-460 238t-528.5 84t-529 -84t-460.5 -238t-363 -363t-238 -460t-84.5 -529q0 -277 84.5 -528t238 -460.5t363 -363t460.5 -238t529 -84.5z" />
    <glyph glyph-name="uni24C6" unicode="Q&#x20dd;" horiz-adv-x="3912" 
d="M1852 664h304l214 -279l101 -124l341 -445h-316l-228 297l-78 108zM2878 1024q0 -328 -120 -563.5t-328.5 -362t-473.5 -126.5q-266 0 -474.5 126.5t-328.5 362.5t-120 563q0 328 120 563.5t328.5 362t474.5 126.5q265 0 473.5 -126.5t328.5 -362t120 -563.5zM2572 1024
q0 250 -80.5 421.5t-220 260t-315.5 88.5q-177 0 -316 -88.5t-219.5 -260t-80.5 -421.5t80.5 -421.5t219.5 -260t316 -88.5q176 0 315.5 88.5t220 260t80.5 421.5zM1956 -900q-319 0 -607.5 97t-529 273.5t-417 417t-273.5 529t-97 607.5t97 607.5t273.5 529t417 417
t529 273.5t607.5 97t607.5 -97t529 -273.5t417 -417t273.5 -529t97 -607.5t-97 -607.5t-273.5 -529t-417 -417t-529 -273.5t-607.5 -97zM1956 -650q278 0 528.5 84.5t460 238t363.5 363t238 460.5t84 528q0 278 -84 529t-238 460t-363.5 363t-460 238t-528.5 84t-529 -84
t-460.5 -238t-363 -363t-238 -460t-84.5 -529q0 -277 84.5 -528t238 -460.5t363 -363t460.5 -238t529 -84.5z" />
    <glyph glyph-name="uni24C7" unicode="R&#x20dd;" horiz-adv-x="3912" 
d="M1262 0v2048h730q238 0 395.5 -82t235.5 -226.5t78 -333.5q0 -188 -78.5 -330.5t-236 -221.5t-395.5 -79h-553v266h525q150 0 244.5 43t138.5 125t44 197q0 116 -44.5 201t-139 130.5t-247.5 45.5h-388v-1783h-309zM2273 924l506 -924h-352l-496 924h342zM1956 -900
q-319 0 -607.5 97t-529 273.5t-417 417t-273.5 529t-97 607.5t97 607.5t273.5 529t417 417t529 273.5t607.5 97t607.5 -97t529 -273.5t417 -417t273.5 -529t97 -607.5t-97 -607.5t-273.5 -529t-417 -417t-529 -273.5t-607.5 -97zM1956 -650q278 0 528.5 84.5t460 238
t363.5 363t238 460.5t84 528q0 278 -84 529t-238 460t-363.5 363t-460 238t-528.5 84t-529 -84t-460.5 -238t-363 -363t-238 -460t-84.5 -529q0 -277 84.5 -528t238 -460.5t363 -363t460.5 -238t529 -84.5z" />
    <glyph glyph-name="uni24C8" unicode="S&#x20dd;" horiz-adv-x="3912" 
d="M2392 1510q-16 142 -132 220.5t-292 78.5q-126 0 -218 -39.5t-142.5 -108t-50.5 -155.5q0 -73 34.5 -126t91 -88.5t121.5 -59t125 -38.5l200 -52q98 -24 201 -65t191 -108t142.5 -166t54.5 -237q0 -174 -89.5 -309t-259 -213t-409.5 -78q-230 0 -398 73t-263 207.5
t-105 319.5h310q9 -111 72.5 -184.5t163 -109t218.5 -35.5q131 0 233.5 41.5t161.5 116t59 174.5q0 91 -51.5 149t-139 96t-197.5 67l-242 66q-246 67 -389.5 197t-143.5 344q0 177 96 309t260 205.5t370 73.5q208 0 367.5 -73t251.5 -200.5t96 -292.5h-298zM1956 -900
q-319 0 -607.5 97t-529 273.5t-417 417t-273.5 529t-97 607.5t97 607.5t273.5 529t417 417t529 273.5t607.5 97t607.5 -97t529 -273.5t417 -417t273.5 -529t97 -607.5t-97 -607.5t-273.5 -529t-417 -417t-529 -273.5t-607.5 -97zM1956 -650q278 0 528.5 84.5t460 238
t363.5 363t238 460.5t84 528q0 278 -84 529t-238 460t-363.5 363t-460 238t-528.5 84t-529 -84t-460.5 -238t-363 -363t-238 -460t-84.5 -529q0 -277 84.5 -528t238 -460.5t363 -363t460.5 -238t529 -84.5z" />
    <glyph glyph-name="uni24C9" unicode="T&#x20dd;" horiz-adv-x="3912" 
d="M1164 1782v266h1585v-266h-639v-1782h-308v1782h-638zM1956 -900q-319 0 -607.5 97t-529 273.5t-417 417t-273.5 529t-97 607.5t97 607.5t273.5 529t417 417t529 273.5t607.5 97t607.5 -97t529 -273.5t417 -417t273.5 -529t97 -607.5t-97 -607.5t-273.5 -529t-417 -417
t-529 -273.5t-607.5 -97zM1956 -650q278 0 528.5 84.5t460 238t363.5 363t238 460.5t84 528q0 278 -84 529t-238 460t-363.5 363t-460 238t-528.5 84t-529 -84t-460.5 -238t-363 -363t-238 -460t-84.5 -529q0 -277 84.5 -528t238 -460.5t363 -363t460.5 -238t529 -84.5z" />
    <glyph glyph-name="uni24CA" unicode="U&#x20dd;" horiz-adv-x="3912" 
d="M2460 2048h310v-1347q0 -215 -101 -380.5t-284 -260t-429 -94.5q-245 0 -428 94.5t-284 260t-101 380.5v1347h309v-1322q0 -139 61.5 -247t174.5 -169.5t268 -61.5q156 0 269.5 61.5t174 169.5t60.5 247v1322zM1956 -900q-319 0 -607.5 97t-529 273.5t-417 417
t-273.5 529t-97 607.5t97 607.5t273.5 529t417 417t529 273.5t607.5 97t607.5 -97t529 -273.5t417 -417t273.5 -529t97 -607.5t-97 -607.5t-273.5 -529t-417 -417t-529 -273.5t-607.5 -97zM1956 -650q278 0 528.5 84.5t460 238t363.5 363t238 460.5t84 528q0 278 -84 529
t-238 460t-363.5 363t-460 238t-528.5 84t-529 -84t-460.5 -238t-363 -363t-238 -460t-84.5 -529q0 -277 84.5 -528t238 -460.5t363 -363t460.5 -238t529 -84.5z" />
    <glyph glyph-name="uni24CB" unicode="V&#x20dd;" horiz-adv-x="3912" 
d="M1374 2048l570 -1668h23l570 1668h334l-737 -2048h-357l-737 2048h334zM1956 -900q-319 0 -607.5 97t-529 273.5t-417 417t-273.5 529t-97 607.5t97 607.5t273.5 529t417 417t529 273.5t607.5 97t607.5 -97t529 -273.5t417 -417t273.5 -529t97 -607.5t-97 -607.5
t-273.5 -529t-417 -417t-529 -273.5t-607.5 -97zM1956 -650q278 0 528.5 84.5t460 238t363.5 363t238 460.5t84 528q0 278 -84 529t-238 460t-363.5 363t-460 238t-528.5 84t-529 -84t-460.5 -238t-363 -363t-238 -460t-84.5 -529q0 -277 84.5 -528t238 -460.5t363 -363
t460.5 -238t529 -84.5z" />
    <glyph glyph-name="uni24CC" unicode="W&#x20dd;" horiz-adv-x="3912" 
d="M1205 0l-568 2048h325l399 -1586h19l415 1586h322l415 -1587h19l398 1587h326l-569 -2048h-311l-431 1534h-16l-431 -1534h-312zM1956 -900q-319 0 -607.5 97t-529 273.5t-417 417t-273.5 529t-97 607.5t97 607.5t273.5 529t417 417t529 273.5t607.5 97t607.5 -97
t529 -273.5t417 -417t273.5 -529t97 -607.5t-97 -607.5t-273.5 -529t-417 -417t-529 -273.5t-607.5 -97zM1956 -650q278 0 528.5 84.5t460 238t363.5 363t238 460.5t84 528q0 278 -84 529t-238 460t-363.5 363t-460 238t-528.5 84t-529 -84t-460.5 -238t-363 -363t-238 -460
t-84.5 -529q0 -277 84.5 -528t238 -460.5t363 -363t460.5 -238t529 -84.5z" />
    <glyph glyph-name="uni24CD" unicode="X&#x20dd;" horiz-adv-x="3912" 
d="M1458 2048l490 -801h16l490 801h358l-638 -1024l642 -1024h-360l-492 790h-16l-492 -790h-360l653 1024l-649 1024h358zM1956 -900q-319 0 -607.5 97t-529 273.5t-417 417t-273.5 529t-97 607.5t97 607.5t273.5 529t417 417t529 273.5t607.5 97t607.5 -97t529 -273.5
t417 -417t273.5 -529t97 -607.5t-97 -607.5t-273.5 -529t-417 -417t-529 -273.5t-607.5 -97zM1956 -650q278 0 528.5 84.5t460 238t363.5 363t238 460.5t84 528q0 278 -84 529t-238 460t-363.5 363t-460 238t-528.5 84t-529 -84t-460.5 -238t-363 -363t-238 -460t-84.5 -529
q0 -277 84.5 -528t238 -460.5t363 -363t460.5 -238t529 -84.5z" />
    <glyph glyph-name="uni24CE" unicode="Y&#x20dd;" horiz-adv-x="3912" 
d="M1059 2048h351l535 -931h22l535 931h351l-743 -1244v-804h-308v804zM1956 -900q-319 0 -607.5 97t-529 273.5t-417 417t-273.5 529t-97 607.5t97 607.5t273.5 529t417 417t529 273.5t607.5 97t607.5 -97t529 -273.5t417 -417t273.5 -529t97 -607.5t-97 -607.5
t-273.5 -529t-417 -417t-529 -273.5t-607.5 -97zM1956 -650q278 0 528.5 84.5t460 238t363.5 363t238 460.5t84 528q0 278 -84 529t-238 460t-363.5 363t-460 238t-528.5 84t-529 -84t-460.5 -238t-363 -363t-238 -460t-84.5 -529q0 -277 84.5 -528t238 -460.5t363 -363
t460.5 -238t529 -84.5z" />
    <glyph glyph-name="uni24CF" unicode="Z&#x20dd;" horiz-adv-x="3912" 
d="M1228 0v206l1077 1576h-1086v266h1464v-206l-1077 -1576h1086v-266h-1464zM1956 -900q-319 0 -607.5 97t-529 273.5t-417 417t-273.5 529t-97 607.5t97 607.5t273.5 529t417 417t529 273.5t607.5 97t607.5 -97t529 -273.5t417 -417t273.5 -529t97 -607.5t-97 -607.5
t-273.5 -529t-417 -417t-529 -273.5t-607.5 -97zM1956 -650q278 0 528.5 84.5t460 238t363.5 363t238 460.5t84 528q0 278 -84 529t-238 460t-363.5 363t-460 238t-528.5 84t-529 -84t-460.5 -238t-363 -363t-238 -460t-84.5 -529q0 -277 84.5 -528t238 -460.5t363 -363
t460.5 -238t529 -84.5z" />
    <glyph glyph-name="uni24EA" unicode="&#x30;&#x20dd;" horiz-adv-x="3912" 
d="M1956 -34q-237 1 -405 125t-257 361t-89 571q0 333 89.5 569t258 360t403.5 124t403 -124.5t257.5 -360t89.5 -568.5q0 -335 -89 -571.5t-257 -361t-404 -124.5zM1956 233q208 0 325.5 203t117.5 587q0 255 -53.5 431.5t-153 268t-236.5 91.5q-207 0 -325 -204t-119 -587
q0 -256 53.5 -432.5t152.5 -267t238 -90.5zM1956 -900q-319 0 -607.5 97t-529 273.5t-417 417t-273.5 529t-97 607.5t97 607.5t273.5 529t417 417t529 273.5t607.5 97t607.5 -97t529 -273.5t417 -417t273.5 -529t97 -607.5t-97 -607.5t-273.5 -529t-417 -417t-529 -273.5
t-607.5 -97zM1956 -650q278 0 528.5 84.5t460 238t363.5 363t238 460.5t84 528q0 278 -84 529t-238 460t-363.5 363t-460 238t-528.5 84t-529 -84t-460.5 -238t-363 -363t-238 -460t-84.5 -529q0 -277 84.5 -528t238 -460.5t363 -363t460.5 -238t529 -84.5z" />
    <glyph glyph-name="uni2460" unicode="&#x31;&#x20dd;" horiz-adv-x="3912" 
d="M2162 2048v-2048h-310v1738h-12l-490 -320v296l511 334h301zM1956 -900q-319 0 -607.5 97t-529 273.5t-417 417t-273.5 529t-97 607.5t97 607.5t273.5 529t417 417t529 273.5t607.5 97t607.5 -97t529 -273.5t417 -417t273.5 -529t97 -607.5t-97 -607.5t-273.5 -529
t-417 -417t-529 -273.5t-607.5 -97zM1956 -650q278 0 528.5 84.5t460 238t363.5 363t238 460.5t84 528q0 278 -84 529t-238 460t-363.5 363t-460 238t-528.5 84t-529 -84t-460.5 -238t-363 -363t-238 -460t-84.5 -529q0 -277 84.5 -528t238 -460.5t363 -363t460.5 -238
t529 -84.5z" />
    <glyph glyph-name="uni2461" unicode="&#x32;&#x20dd;" horiz-adv-x="3912" 
d="M1286 0v224l693 718q111 117 183.5 205.5t108.5 168.5t36 170q0 102 -48 176.5t-131 115t-187 40.5q-110 0 -192 -45t-126 -127t-44 -192h-295q0 187 86 327t236 217.5t341 77.5q193 0 340.5 -76.5t230.5 -208t83 -296.5q0 -114 -42.5 -223t-147.5 -242.5t-292 -323.5
l-407 -426v-15h922v-265h-1348zM1956 -900q-319 0 -607.5 97t-529 273.5t-417 417t-273.5 529t-97 607.5t97 607.5t273.5 529t417 417t529 273.5t607.5 97t607.5 -97t529 -273.5t417 -417t273.5 -529t97 -607.5t-97 -607.5t-273.5 -529t-417 -417t-529 -273.5t-607.5 -97z
M1956 -650q278 0 528.5 84.5t460 238t363.5 363t238 460.5t84 528q0 278 -84 529t-238 460t-363.5 363t-460 238t-528.5 84t-529 -84t-460.5 -238t-363 -363t-238 -460t-84.5 -529q0 -277 84.5 -528t238 -460.5t363 -363t460.5 -238t529 -84.5z" />
    <glyph glyph-name="uni2462" unicode="&#x33;&#x20dd;" horiz-adv-x="3912" 
d="M1955 -28q-206 0 -367.5 71t-255 197.5t-100.5 293.5h314q6 -91 61.5 -157.5t145.5 -102.5t200 -36q121 0 214.5 42t146.5 117.5t53 174.5q0 103 -52.5 181.5t-153 123.5t-242.5 45h-173v252h173q114 0 200.5 41t135.5 114.5t49 172.5q0 95 -42.5 165.5t-120 110.5
t-182.5 40q-100 0 -186.5 -36.5t-140.5 -104t-58 -161.5h-299q5 166 98.5 292t247.5 197t342 71q197 0 340.5 -76.5t222 -203.5t77.5 -278q1 -172 -95.5 -292t-256.5 -161v-16q204 -31 316.5 -162t111.5 -325q1 -169 -93.5 -303t-257.5 -210.5t-373 -76.5zM1956 -900
q-319 0 -607.5 97t-529 273.5t-417 417t-273.5 529t-97 607.5t97 607.5t273.5 529t417 417t529 273.5t607.5 97t607.5 -97t529 -273.5t417 -417t273.5 -529t97 -607.5t-97 -607.5t-273.5 -529t-417 -417t-529 -273.5t-607.5 -97zM1956 -650q278 0 528.5 84.5t460 238
t363.5 363t238 460.5t84 528q0 278 -84 529t-238 460t-363.5 363t-460 238t-528.5 84t-529 -84t-460.5 -238t-363 -363t-238 -460t-84.5 -529q0 -277 84.5 -528t238 -460.5t363 -363t460.5 -238t529 -84.5z" />
    <glyph glyph-name="uni2463" unicode="&#x34;&#x20dd;" horiz-adv-x="3912" 
d="M1071 400v250l885 1398h197v-368h-125l-633 -1002v-16h1213v-262h-1537zM2042 0v476l2 114v1458h293v-2048h-295zM1956 -900q-319 0 -607.5 97t-529 273.5t-417 417t-273.5 529t-97 607.5t97 607.5t273.5 529t417 417t529 273.5t607.5 97t607.5 -97t529 -273.5t417 -417
t273.5 -529t97 -607.5t-97 -607.5t-273.5 -529t-417 -417t-529 -273.5t-607.5 -97zM1956 -650q278 0 528.5 84.5t460 238t363.5 363t238 460.5t84 528q0 278 -84 529t-238 460t-363.5 363t-460 238t-528.5 84t-529 -84t-460.5 -238t-363 -363t-238 -460t-84.5 -529
q0 -277 84.5 -528t238 -460.5t363 -363t460.5 -238t529 -84.5z" />
    <glyph glyph-name="uni2464" unicode="&#x35;&#x20dd;" horiz-adv-x="3912" 
d="M1939 -28q-188 0 -337.5 72.5t-238.5 199.5t-95 290h300q11 -132 117 -217t254 -85q118 0 209.5 54.5t144 150.5t52.5 219q0 125 -54 223t-148.5 154t-216.5 57q-93 0 -187 -32t-152 -84l-283 42l115 1032h1126v-265h-869l-65 -573h12q60 58 159.5 97t213.5 39
q187 0 333.5 -89t231 -242.5t83.5 -352.5q1 -199 -89.5 -355t-250 -245.5t-365.5 -89.5zM1956 -900q-319 0 -607.5 97t-529 273.5t-417 417t-273.5 529t-97 607.5t97 607.5t273.5 529t417 417t529 273.5t607.5 97t607.5 -97t529 -273.5t417 -417t273.5 -529t97 -607.5
t-97 -607.5t-273.5 -529t-417 -417t-529 -273.5t-607.5 -97zM1956 -650q278 0 528.5 84.5t460 238t363.5 363t238 460.5t84 528q0 278 -84 529t-238 460t-363.5 363t-460 238t-528.5 84t-529 -84t-460.5 -238t-363 -363t-238 -460t-84.5 -529q0 -277 84.5 -528t238 -460.5
t363 -363t460.5 -238t529 -84.5z" />
    <glyph glyph-name="uni2465" unicode="&#x36;&#x20dd;" horiz-adv-x="3912" 
d="M1970 -28q-137 2 -269.5 50t-240.5 160t-172.5 301t-64.5 472q0 269 53.5 478.5t154.5 353.5t244 219t321 75q183 0 325 -73t230.5 -200t112.5 -292h-305q-31 131 -123 212.5t-240 81.5q-225 0 -350.5 -196.5t-126.5 -548.5h15q53 87 130.5 148.5t174 95t203.5 33.5
q178 0 322.5 -86.5t230.5 -238.5t86 -348t-88.5 -355t-248.5 -251.5t-374 -90.5zM1969 232q118 0 211 58t147 156t54 219q0 118 -52.5 215t-144 154t-208.5 57q-89 0 -164.5 -34t-132.5 -94t-89.5 -137.5t-32.5 -163.5q0 -115 53.5 -213t147 -157.5t211.5 -59.5zM1956 -900
q-319 0 -607.5 97t-529 273.5t-417 417t-273.5 529t-97 607.5t97 607.5t273.5 529t417 417t529 273.5t607.5 97t607.5 -97t529 -273.5t417 -417t273.5 -529t97 -607.5t-97 -607.5t-273.5 -529t-417 -417t-529 -273.5t-607.5 -97zM1956 -650q278 0 528.5 84.5t460 238
t363.5 363t238 460.5t84 528q0 278 -84 529t-238 460t-363.5 363t-460 238t-528.5 84t-529 -84t-460.5 -238t-363 -363t-238 -460t-84.5 -529q0 -277 84.5 -528t238 -460.5t363 -363t460.5 -238t529 -84.5z" />
    <glyph glyph-name="uni2466" unicode="&#x37;&#x20dd;" horiz-adv-x="3912" 
d="M1472 0l894 1768v15h-1034v265h1354v-274l-891 -1774h-323zM1956 -900q-319 0 -607.5 97t-529 273.5t-417 417t-273.5 529t-97 607.5t97 607.5t273.5 529t417 417t529 273.5t607.5 97t607.5 -97t529 -273.5t417 -417t273.5 -529t97 -607.5t-97 -607.5t-273.5 -529
t-417 -417t-529 -273.5t-607.5 -97zM1956 -650q278 0 528.5 84.5t460 238t363.5 363t238 460.5t84 528q0 278 -84 529t-238 460t-363.5 363t-460 238t-528.5 84t-529 -84t-460.5 -238t-363 -363t-238 -460t-84.5 -529q0 -277 84.5 -528t238 -460.5t363 -363t460.5 -238
t529 -84.5z" />
    <glyph glyph-name="uni2467" unicode="&#x38;&#x20dd;" horiz-adv-x="3912" 
d="M1956 -28q-215 0 -379.5 74t-257.5 204t-92 296q-1 130 53.5 239.5t148.5 183t210 93.5v12q-153 37 -245 164t-91 292q-1 157 83.5 280.5t232.5 194.5t337 71q187 0 334.5 -71.5t232.5 -195t86 -279.5q-1 -165 -94 -292t-242 -164v-12q115 -20 207.5 -93.5t148 -183
t56.5 -239.5q-1 -166 -94 -296t-257.5 -204t-377.5 -74zM1956 225q127 0 220 42.5t144 119t52 179.5q-1 107 -55.5 189t-147.5 129t-213 47q-121 0 -215 -47t-148 -129t-53 -189q-1 -103 49.5 -179.5t144.5 -119t222 -42.5zM1956 1178q102 0 181 41t124.5 114t46.5 171
q-1 96 -45.5 168t-123.5 111.5t-183 39.5q-106 0 -185.5 -39.5t-123.5 -111.5t-43 -168q-1 -98 44 -171t124.5 -114t183.5 -41zM1956 -900q-319 0 -607.5 97t-529 273.5t-417 417t-273.5 529t-97 607.5t97 607.5t273.5 529t417 417t529 273.5t607.5 97t607.5 -97t529 -273.5
t417 -417t273.5 -529t97 -607.5t-97 -607.5t-273.5 -529t-417 -417t-529 -273.5t-607.5 -97zM1956 -650q278 0 528.5 84.5t460 238t363.5 363t238 460.5t84 528q0 278 -84 529t-238 460t-363.5 363t-460 238t-528.5 84t-529 -84t-460.5 -238t-363 -363t-238 -460t-84.5 -529
q0 -277 84.5 -528t238 -460.5t363 -363t460.5 -238t529 -84.5z" />
    <glyph glyph-name="uni2468" unicode="&#x39;&#x20dd;" horiz-adv-x="3912" 
d="M1940 2081q137 -1 270 -50t240.5 -160.5t172 -300.5t65.5 -472q-1 -269 -54.5 -478.5t-154.5 -353.5t-243.5 -219t-321.5 -75q-183 0 -325 72t-231 199.5t-111 293.5h305q30 -132 122.5 -213.5t239.5 -81.5q225 0 351 196.5t127 549.5h-16q-52 -86 -129.5 -148
t-173.5 -96t-205 -34q-177 0 -322.5 87t-231 239t-85.5 348t88.5 354.5t248 251t374.5 91.5zM1941 1821q-117 0 -210.5 -58t-147.5 -156t-54 -219q0 -119 52.5 -216t144 -153.5t209.5 -56.5q88 0 164 34t132.5 94.5t89 138t32.5 162.5q0 115 -53.5 213t-146.5 157.5
t-212 59.5zM1956 -900q-319 0 -607.5 97t-529 273.5t-417 417t-273.5 529t-97 607.5t97 607.5t273.5 529t417 417t529 273.5t607.5 97t607.5 -97t529 -273.5t417 -417t273.5 -529t97 -607.5t-97 -607.5t-273.5 -529t-417 -417t-529 -273.5t-607.5 -97zM1956 -650
q278 0 528.5 84.5t460 238t363.5 363t238 460.5t84 528q0 278 -84 529t-238 460t-363.5 363t-460 238t-528.5 84t-529 -84t-460.5 -238t-363 -363t-238 -460t-84.5 -529q0 -277 84.5 -528t238 -460.5t363 -363t460.5 -238t529 -84.5z" />
    <glyph glyph-name="uniE12B" unicode="&#xe06b;&#x20dd;" horiz-adv-x="3912" 
d="M2261 1834l140 -98l-759 -1523l-132 109zM1956 -33q-237 0 -405 124.5t-257 361t-89 571.5q0 333 89.5 568.5t258 360t403.5 124.5t403 -124.5t257.5 -360t89.5 -568.5q0 -335 -89 -571.5t-257 -361t-404 -124.5zM1956 234q208 0 325.5 202.5t117.5 587.5
q0 255 -53.5 431.5t-153 267.5t-236.5 91q-207 0 -325 -204t-119 -586q0 -256 53.5 -432.5t152.5 -267t238 -90.5zM1956 -900q-319 0 -607.5 97t-529 273.5t-417 417t-273.5 529t-97 607.5t97 607.5t273.5 529t417 417t529 273.5t607.5 97t607.5 -97t529 -273.5t417 -417
t273.5 -529t97 -607.5t-97 -607.5t-273.5 -529t-417 -417t-529 -273.5t-607.5 -97zM1956 -650q278 0 528.5 84.5t460 238t363.5 363t238 460.5t84 528q0 278 -84 529t-238 460t-363.5 363t-460 238t-528.5 84t-529 -84t-460.5 -238t-363 -363t-238 -460t-84.5 -529
q0 -277 84.5 -528t238 -460.5t363 -363t460.5 -238t529 -84.5z" />
    <glyph glyph-name="uniE12C" unicode="&#xe06c;&#x20dd;" horiz-adv-x="3912" 
d="M2195 2048v-2048h-310v1631h-17q-16 -30 -73.5 -65t-147 -61t-206.5 -26v254q113 0 197.5 40t143.5 96.5t90 107t35 71.5h288zM1956 -900q-319 0 -607.5 97t-529 273.5t-417 417t-273.5 529t-97 607.5t97 607.5t273.5 529t417 417t529 273.5t607.5 97t607.5 -97
t529 -273.5t417 -417t273.5 -529t97 -607.5t-97 -607.5t-273.5 -529t-417 -417t-529 -273.5t-607.5 -97zM1956 -650q278 0 528.5 84.5t460 238t363.5 363t238 460.5t84 528q0 278 -84 529t-238 460t-363.5 363t-460 238t-528.5 84t-529 -84t-460.5 -238t-363 -363t-238 -460
t-84.5 -529q0 -277 84.5 -528t238 -460.5t363 -363t460.5 -238t529 -84.5z" />
    <glyph glyph-name="uniE12D" unicode="&#xe06d;&#x20dd;" horiz-adv-x="3912" 
d="M1231 534h313q10 -95 65.5 -161.5t145.5 -100.5t200 -34q118 0 211.5 40t147.5 118t54 192q0 102 -49 188t-154 138t-274 52h-183v234l492 568v15h-868v265h1272v-224l-548 -628v-16q142 -9 257.5 -59t197.5 -131.5t126 -186.5t44 -225q0 -177 -94 -314t-258.5 -214.5
t-376.5 -77.5q-197 0 -356.5 68t-257 194t-107.5 300zM1956 -900q-319 0 -607.5 97t-529 273.5t-417 417t-273.5 529t-97 607.5t97 607.5t273.5 529t417 417t529 273.5t607.5 97t607.5 -97t529 -273.5t417 -417t273.5 -529t97 -607.5t-97 -607.5t-273.5 -529t-417 -417
t-529 -273.5t-607.5 -97zM1956 -650q278 0 528.5 84.5t460 238t363.5 363t238 460.5t84 528q0 278 -84 529t-238 460t-363.5 363t-460 238t-528.5 84t-529 -84t-460.5 -238t-363 -363t-238 -460t-84.5 -529q0 -277 84.5 -528t238 -460.5t363 -363t460.5 -238t529 -84.5z" />
    <glyph glyph-name="uniE12E" unicode="&#xe06e;&#x20dd;" horiz-adv-x="3912" 
d="M1131 400v250l802 1398h302l-783 -1370v-16h1216v-262h-1537zM2102 0v474l4 116v690h289v-1280h-293zM1956 -900q-319 0 -607.5 97t-529 273.5t-417 417t-273.5 529t-97 607.5t97 607.5t273.5 529t417 417t529 273.5t607.5 97t607.5 -97t529 -273.5t417 -417t273.5 -529
t97 -607.5t-97 -607.5t-273.5 -529t-417 -417t-529 -273.5t-607.5 -97zM1956 -650q278 0 528.5 84.5t460 238t363.5 363t238 460.5t84 528q0 278 -84 529t-238 460t-363.5 363t-460 238t-528.5 84t-529 -84t-460.5 -238t-363 -363t-238 -460t-84.5 -529q0 -277 84.5 -528
t238 -460.5t363 -363t460.5 -238t529 -84.5z" />
    <glyph glyph-name="uniE12F" unicode="&#xe06f;&#x20dd;" horiz-adv-x="3912" 
d="M1279 654q2 100 29.5 204t89.5 226t166 277l465 687h326l-525 -768q36 11 75.5 18.5t79.5 7.5q187 0 333 -86t230.5 -235t84.5 -342q0 -197 -87.5 -348t-240 -237t-347.5 -86q-193 0 -347.5 85.5t-243.5 239t-88 357.5zM1578 642q0 -121 48 -214t134 -146t198 -53
q111 0 196.5 52.5t134 145t48.5 211.5q0 121 -48.5 213.5t-134 144.5t-196.5 52q-112 0 -198 -52t-134 -143.5t-48 -210.5zM1956 -900q-319 0 -607.5 97t-529 273.5t-417 417t-273.5 529t-97 607.5t97 607.5t273.5 529t417 417t529 273.5t607.5 97t607.5 -97t529 -273.5
t417 -417t273.5 -529t97 -607.5t-97 -607.5t-273.5 -529t-417 -417t-529 -273.5t-607.5 -97zM1956 -650q278 0 528.5 84.5t460 238t363.5 363t238 460.5t84 528q0 278 -84 529t-238 460t-363.5 363t-460 238t-528.5 84t-529 -84t-460.5 -238t-363 -363t-238 -460t-84.5 -529
q0 -277 84.5 -528t238 -460.5t363 -363t460.5 -238t529 -84.5z" />
    <glyph glyph-name="uniE130" unicode="&#xe070;&#x20dd;" horiz-adv-x="3912" 
d="M1280 1405q0 197 87 348t239.5 237t347.5 86q193 0 347.5 -85.5t244 -239t87.5 -357.5q-1 -100 -29 -204t-90 -226t-166 -277l-464 -687h-327l526 769q-37 -12 -76 -19.5t-79 -7.5q-188 0 -334 86t-230 235t-84 342zM1576 1410q0 -121 48 -213.5t133.5 -144.5t197.5 -52
q111 0 197 52t134.5 143.5t48.5 210.5q0 121 -48.5 214t-134.5 146t-197 53q-112 0 -197.5 -52.5t-133.5 -145t-48 -211.5zM1956 -900q-319 0 -607.5 97t-529 273.5t-417 417t-273.5 529t-97 607.5t97 607.5t273.5 529t417 417t529 273.5t607.5 97t607.5 -97t529 -273.5
t417 -417t273.5 -529t97 -607.5t-97 -607.5t-273.5 -529t-417 -417t-529 -273.5t-607.5 -97zM1956 -650q278 0 528.5 84.5t460 238t363.5 363t238 460.5t84 528q0 278 -84 529t-238 460t-363.5 363t-460 238t-528.5 84t-529 -84t-460.5 -238t-363 -363t-238 -460t-84.5 -529
q0 -277 84.5 -528t238 -460.5t363 -363t460.5 -238t529 -84.5z" />
    <glyph glyph-name="uniE131" unicode="&#x21;&#x20dd;" horiz-adv-x="3912" 
d="M2120 2048l-26 -1459h-277l-26 1459h329zM1956 -19q-83 0 -142 58.5t-58 141.5q-1 82 58 140.5t142 58.5q81 0 140 -58.5t60 -140.5q-1 -55 -28.5 -100.5t-72.5 -72.5t-99 -27zM1956 -900q-319 0 -607.5 97t-529 273.5t-417 417t-273.5 529t-97 607.5t97 607.5t273.5 529
t417 417t529 273.5t607.5 97t607.5 -97t529 -273.5t417 -417t273.5 -529t97 -607.5t-97 -607.5t-273.5 -529t-417 -417t-529 -273.5t-607.5 -97zM1956 -650q278 0 528.5 84.5t460 238t363.5 363t238 460.5t84 528q0 278 -84 529t-238 460t-363.5 363t-460 238t-528.5 84
t-529 -84t-460.5 -238t-363 -363t-238 -460t-84.5 -529q0 -277 84.5 -528t238 -460.5t363 -363t460.5 -238t529 -84.5z" />
    <glyph glyph-name="uniE132" unicode="&#x3f;&#x20dd;" horiz-adv-x="3912" 
d="M1792 589v19q2 186 37.5 296t101.5 178t159 124q60 38 108 85t76 108t28 135q0 89 -42 154t-111.5 100.5t-154.5 35.5q-77 0 -147 -32t-116 -99.5t-53 -173.5h-304q7 180 91 304.5t222.5 188.5t306.5 64q184 0 322 -68.5t214.5 -191t76.5 -285.5q0 -112 -35 -201.5
t-99.5 -159.5t-154.5 -124q-85 -53 -137.5 -110t-76.5 -135t-26 -193v-19h-286zM1943 -19q-82 0 -141 58.5t-59 141.5q0 82 59 140.5t141 58.5q81 0 140.5 -58.5t59.5 -140.5q0 -55 -27.5 -100.5t-72.5 -72.5t-100 -27zM1956 -900q-319 0 -607.5 97t-529 273.5t-417 417
t-273.5 529t-97 607.5t97 607.5t273.5 529t417 417t529 273.5t607.5 97t607.5 -97t529 -273.5t417 -417t273.5 -529t97 -607.5t-97 -607.5t-273.5 -529t-417 -417t-529 -273.5t-607.5 -97zM1956 -650q278 0 528.5 84.5t460 238t363.5 363t238 460.5t84 528q0 278 -84 529
t-238 460t-363.5 363t-460 238t-528.5 84t-529 -84t-460.5 -238t-363 -363t-238 -460t-84.5 -529q0 -277 84.5 -528t238 -460.5t363 -363t460.5 -238t529 -84.5z" />
    <glyph glyph-name="uniE133" unicode="&#x23;&#x20dd;" horiz-adv-x="3912" 
d="M2028 0l336 2048h240l-336 -2048h-240zM1101 548l39 240h1552l-39 -240h-1552zM1308 0l336 2048h240l-336 -2048h-240zM1220 1260l39 240h1552l-39 -240h-1552zM1956 -900q-319 0 -607.5 97t-529 273.5t-417 417t-273.5 529t-97 607.5t97 607.5t273.5 529t417 417
t529 273.5t607.5 97t607.5 -97t529 -273.5t417 -417t273.5 -529t97 -607.5t-97 -607.5t-273.5 -529t-417 -417t-529 -273.5t-607.5 -97zM1956 -650q278 0 528.5 84.5t460 238t363.5 363t238 460.5t84 528q0 278 -84 529t-238 460t-363.5 363t-460 238t-528.5 84t-529 -84
t-460.5 -238t-363 -363t-238 -460t-84.5 -529q0 -277 84.5 -528t238 -460.5t363 -363t460.5 -238t529 -84.5z" />
    <glyph glyph-name="uniE134" unicode="&#x2d;&#x20dd;" horiz-adv-x="3912" 
d="M2410 1153v-259h-908v259h908zM1956 -900q-319 0 -607.5 97t-529 273.5t-417 417t-273.5 529t-97 607.5t97 607.5t273.5 529t417 417t529 273.5t607.5 97t607.5 -97t529 -273.5t417 -417t273.5 -529t97 -607.5t-97 -607.5t-273.5 -529t-417 -417t-529 -273.5t-607.5 -97z
M1956 -650q278 0 528.5 84.5t460 238t363.5 363t238 460.5t84 528q0 278 -84 529t-238 460t-363.5 363t-460 238t-528.5 84t-529 -84t-460.5 -238t-363 -363t-238 -460t-84.5 -529q0 -277 84.5 -528t238 -460.5t363 -363t460.5 -238t529 -84.5z" />
    <glyph glyph-name="uniE135" unicode="&#x3c;&#x20dd;" horiz-adv-x="3912" 
d="M1252 886v224l1328 644v-305l-980 -447l9 18v-43l-9 17l980 -446v-306zM1956 -900q-319 0 -607.5 97t-529 273.5t-417 417t-273.5 529t-97 607.5t97 607.5t273.5 529t417 417t529 273.5t607.5 97t607.5 -97t529 -273.5t417 -417t273.5 -529t97 -607.5t-97 -607.5
t-273.5 -529t-417 -417t-529 -273.5t-607.5 -97zM1956 -650q278 0 528.5 84.5t460 238t363.5 363t238 460.5t84 528q0 278 -84 529t-238 460t-363.5 363t-460 238t-528.5 84t-529 -84t-460.5 -238t-363 -363t-238 -460t-84.5 -529q0 -277 84.5 -528t238 -460.5t363 -363
t460.5 -238t529 -84.5z" />
    <glyph glyph-name="uniE136" unicode="&#x3e;&#x20dd;" horiz-adv-x="3912" 
d="M2660 886l-1328 -644v306l980 446l-10 -17v43l10 -18l-980 447v305l1328 -644v-224zM1956 -900q-319 0 -607.5 97t-529 273.5t-417 417t-273.5 529t-97 607.5t97 607.5t273.5 529t417 417t529 273.5t607.5 97t607.5 -97t529 -273.5t417 -417t273.5 -529t97 -607.5
t-97 -607.5t-273.5 -529t-417 -417t-529 -273.5t-607.5 -97zM1956 -650q278 0 528.5 84.5t460 238t363.5 363t238 460.5t84 528q0 278 -84 529t-238 460t-363.5 363t-460 238t-528.5 84t-529 -84t-460.5 -238t-363 -363t-238 -460t-84.5 -529q0 -277 84.5 -528t238 -460.5
t363 -363t460.5 -238t529 -84.5z" />
    <glyph glyph-name="uniE137" unicode="&#x3d;&#x20dd;" horiz-adv-x="3912" 
d="M1315 1201v263h1281v-263h-1281zM1315 585v263h1281v-263h-1281zM1956 -900q-319 0 -607.5 97t-529 273.5t-417 417t-273.5 529t-97 607.5t97 607.5t273.5 529t417 417t529 273.5t607.5 97t607.5 -97t529 -273.5t417 -417t273.5 -529t97 -607.5t-97 -607.5t-273.5 -529
t-417 -417t-529 -273.5t-607.5 -97zM1956 -650q278 0 528.5 84.5t460 238t363.5 363t238 460.5t84 528q0 278 -84 529t-238 460t-363.5 363t-460 238t-528.5 84t-529 -84t-460.5 -238t-363 -363t-238 -460t-84.5 -529q0 -277 84.5 -528t238 -460.5t363 -363t460.5 -238
t529 -84.5z" />
    <glyph glyph-name="uni2295" unicode="&#x2b;&#x20dd;" horiz-adv-x="3912" 
d="M1821 344v1352h269v-1352h-269zM1280 886v269h1352v-269h-1352zM1956 -900q-319 0 -607.5 97t-529 273.5t-417 417t-273.5 529t-97 607.5t97 607.5t273.5 529t417 417t529 273.5t607.5 97t607.5 -97t529 -273.5t417 -417t273.5 -529t97 -607.5t-97 -607.5t-273.5 -529
t-417 -417t-529 -273.5t-607.5 -97zM1956 -650q278 0 528.5 84.5t460 238t363.5 363t238 460.5t84 528q0 278 -84 529t-238 460t-363.5 363t-460 238t-528.5 84t-529 -84t-460.5 -238t-363 -363t-238 -460t-84.5 -529q0 -277 84.5 -528t238 -460.5t363 -363t460.5 -238
t529 -84.5z" />
    <glyph glyph-name="uni2296" unicode="&#x2212;&#x20dd;" horiz-adv-x="3912" 
d="M2616 1159v-269h-1320v269h1320zM1956 -900q-319 0 -607.5 97t-529 273.5t-417 417t-273.5 529t-97 607.5t97 607.5t273.5 529t417 417t529 273.5t607.5 97t607.5 -97t529 -273.5t417 -417t273.5 -529t97 -607.5t-97 -607.5t-273.5 -529t-417 -417t-529 -273.5
t-607.5 -97zM1956 -650q278 0 528.5 84.5t460 238t363.5 363t238 460.5t84 528q0 278 -84 529t-238 460t-363.5 363t-460 238t-528.5 84t-529 -84t-460.5 -238t-363 -363t-238 -460t-84.5 -529q0 -277 84.5 -528t238 -460.5t363 -363t460.5 -238t529 -84.5z" />
    <glyph glyph-name="uni2297" unicode="&#xd7;&#x20dd;" horiz-adv-x="3912" 
d="M2436 340l-1150 1149l189 190l1150 -1150zM1475 340l-189 189l1150 1150l189 -190zM1956 -900q-319 0 -607.5 97t-529 273.5t-417 417t-273.5 529t-97 607.5t97 607.5t273.5 529t417 417t529 273.5t607.5 97t607.5 -97t529 -273.5t417 -417t273.5 -529t97 -607.5
t-97 -607.5t-273.5 -529t-417 -417t-529 -273.5t-607.5 -97zM1956 -650q278 0 528.5 84.5t460 238t363.5 363t238 460.5t84 528q0 278 -84 529t-238 460t-363.5 363t-460 238t-528.5 84t-529 -84t-460.5 -238t-363 -363t-238 -460t-84.5 -529q0 -277 84.5 -528t238 -460.5
t363 -363t460.5 -238t529 -84.5z" />
    <glyph glyph-name="uni2A38" unicode="&#xf7;&#x20dd;" horiz-adv-x="3912" 
d="M2616 1156v-263h-1320v263h1320zM1956 295q-84 0 -142.5 58.5t-58.5 142.5q0 80 58.5 138t142.5 58q80 0 138 -58t58 -138q0 -84 -58 -142.5t-138 -58.5zM1956 1356q-56 0 -101.5 27t-72.5 73t-27 101q0 81 58.5 139t142.5 58q81 0 138.5 -58t57.5 -139q0 -83 -57.5 -142
t-138.5 -59zM1956 -900q-319 0 -607.5 97t-529 273.5t-417 417t-273.5 529t-97 607.5t97 607.5t273.5 529t417 417t529 273.5t607.5 97t607.5 -97t529 -273.5t417 -417t273.5 -529t97 -607.5t-97 -607.5t-273.5 -529t-417 -417t-529 -273.5t-607.5 -97zM1956 -650
q278 0 528.5 84.5t460 238t363.5 363t238 460.5t84 528q0 278 -84 529t-238 460t-363.5 363t-460 238t-528.5 84t-529 -84t-460.5 -238t-363 -363t-238 -460t-84.5 -529q0 -277 84.5 -528t238 -460.5t363 -363t460.5 -238t529 -84.5z" />
    <glyph glyph-name="uniE138" unicode="&#x2191;&#x20dd;" horiz-adv-x="3912" 
d="M1828 0v1572l-599 -601l-182 180l911 909l909 -909l-178 -180l-601 601v-1572h-260zM1956 -900q-319 0 -607.5 97t-529 273.5t-417 417t-273.5 529t-97 607.5t97 607.5t273.5 529t417 417t529 273.5t607.5 97t607.5 -97t529 -273.5t417 -417t273.5 -529t97 -607.5
t-97 -607.5t-273.5 -529t-417 -417t-529 -273.5t-607.5 -97zM1956 -650q278 0 528.5 84.5t460 238t363.5 363t238 460.5t84 528q0 278 -84 529t-238 460t-363.5 363t-460 238t-528.5 84t-529 -84t-460.5 -238t-363 -363t-238 -460t-84.5 -529q0 -277 84.5 -528t238 -460.5
t363 -363t460.5 -238t529 -84.5z" />
    <glyph glyph-name="uniE139" unicode="&#x2193;&#x20dd;" horiz-adv-x="3912" 
d="M2086 2048v-1572l599 601l182 -180l-911 -909l-909 909l178 180l601 -601v1572h260zM1956 -900q-319 0 -607.5 97t-529 273.5t-417 417t-273.5 529t-97 607.5t97 607.5t273.5 529t417 417t529 273.5t607.5 97t607.5 -97t529 -273.5t417 -417t273.5 -529t97 -607.5
t-97 -607.5t-273.5 -529t-417 -417t-529 -273.5t-607.5 -97zM1956 -650q278 0 528.5 84.5t460 238t363.5 363t238 460.5t84 528q0 278 -84 529t-238 460t-363.5 363t-460 238t-528.5 84t-529 -84t-460.5 -238t-363 -363t-238 -460t-84.5 -529q0 -277 84.5 -528t238 -460.5
t363 -363t460.5 -238t529 -84.5z" />
    <glyph glyph-name="uniE13A" unicode="&#x2190;&#x20dd;" horiz-adv-x="3912" 
d="M1861 91l-933 933l933 933l180 -178l-625 -625h1570v-260h-1570l625 -624zM1956 -900q-319 0 -607.5 97t-529 273.5t-417 417t-273.5 529t-97 607.5t97 607.5t273.5 529t417 417t529 273.5t607.5 97t607.5 -97t529 -273.5t417 -417t273.5 -529t97 -607.5t-97 -607.5
t-273.5 -529t-417 -417t-529 -273.5t-607.5 -97zM1956 -650q278 0 528.5 84.5t460 238t363.5 363t238 460.5t84 528q0 278 -84 529t-238 460t-363.5 363t-460 238t-528.5 84t-529 -84t-460.5 -238t-363 -363t-238 -460t-84.5 -529q0 -277 84.5 -528t238 -460.5t363 -363
t460.5 -238t529 -84.5z" />
    <glyph glyph-name="uniE13B" unicode="&#x2192;&#x20dd;" horiz-adv-x="3912" 
d="M2053 91l-180 178l625 625h-1570v260h1570l-625 624l180 179l933 -933zM1956 -900q-319 0 -607.5 97t-529 273.5t-417 417t-273.5 529t-97 607.5t97 607.5t273.5 529t417 417t529 273.5t607.5 97t607.5 -97t529 -273.5t417 -417t273.5 -529t97 -607.5t-97 -607.5
t-273.5 -529t-417 -417t-529 -273.5t-607.5 -97zM1956 -650q278 0 528.5 84.5t460 238t363.5 363t238 460.5t84 528q0 278 -84 529t-238 460t-363.5 363t-460 238t-528.5 84t-529 -84t-460.5 -238t-363 -363t-238 -460t-84.5 -529q0 -277 84.5 -528t238 -460.5t363 -363
t460.5 -238t529 -84.5z" />
    <glyph glyph-name="uniE13C" unicode="&#x2713;&#x20dd;" horiz-adv-x="3912" 
d="M1026 992l195 199l506 -499l1071 1067l198 -199l-1269 -1264zM1956 -900q-319 0 -607.5 97t-529 273.5t-417 417t-273.5 529t-97 607.5t97 607.5t273.5 529t417 417t529 273.5t607.5 97t607.5 -97t529 -273.5t417 -417t273.5 -529t97 -607.5t-97 -607.5t-273.5 -529
t-417 -417t-529 -273.5t-607.5 -97zM1956 -650q278 0 528.5 84.5t460 238t363.5 363t238 460.5t84 528q0 278 -84 529t-238 460t-363.5 363t-460 238t-528.5 84t-529 -84t-460.5 -238t-363 -363t-238 -460t-84.5 -529q0 -277 84.5 -528t238 -460.5t363 -363t460.5 -238
t529 -84.5z" />
    <glyph glyph-name="uniE13D" unicode="&#x2717;&#x20dd;" horiz-adv-x="3912" 
d="M1430 302l-198 199l1250 1245l199 -198zM2482 302l-1251 1246l199 198l1250 -1245zM1956 -900q-319 0 -607.5 97t-529 273.5t-417 417t-273.5 529t-97 607.5t97 607.5t273.5 529t417 417t529 273.5t607.5 97t607.5 -97t529 -273.5t417 -417t273.5 -529t97 -607.5
t-97 -607.5t-273.5 -529t-417 -417t-529 -273.5t-607.5 -97zM1956 -650q278 0 528.5 84.5t460 238t363.5 363t238 460.5t84 528q0 278 -84 529t-238 460t-363.5 363t-460 238t-528.5 84t-529 -84t-460.5 -238t-363 -363t-238 -460t-84.5 -529q0 -277 84.5 -528t238 -460.5
t363 -363t460.5 -238t529 -84.5z" />
    <glyph glyph-name="u1F130" unicode="A&#x20de;" horiz-adv-x="3912" 
d="M1368 0h-328l737 2048h357l737 -2048h-328l-579 1676h-16zM1423 802h1064v-260h-1064v260zM444 -832q-168 0 -256 88t-88 256v3024q0 168 88 256t256 88h3024q168 0 256 -88t88 -256v-3024q0 -168 -88 -256t-256 -88h-3024zM415 -582h3081q30 0 48 18.5t18 46.5v3082
q0 29 -18 47t-48 18h-3081q-29 0 -47.5 -18t-18.5 -47v-3082q0 -28 18.5 -46.5t47.5 -18.5z" />
    <glyph glyph-name="u1F131" unicode="B&#x20de;" horiz-adv-x="3912" 
d="M1255 0v2048h750q218 0 361 -71.5t214 -193t71 -273.5q0 -128 -47 -215.5t-125.5 -140t-172.5 -76.5v-20q102 -5 199.5 -65.5t161.5 -171.5t64 -270q0 -157 -73.5 -281.5t-226.5 -197t-391 -72.5h-785zM1564 265h446q222 0 318 86t96 215q0 97 -49 178t-139.5 129
t-214.5 48h-457v-656zM1564 1162h414q104 0 187.5 40t133 112.5t49.5 171.5q0 127 -89 213t-273 86h-422v-623zM444 -832q-168 0 -256 88t-88 256v3024q0 168 88 256t256 88h3024q168 0 256 -88t88 -256v-3024q0 -168 -88 -256t-256 -88h-3024zM415 -582h3081q30 0 48 18.5
t18 46.5v3082q0 29 -18 47t-48 18h-3081q-29 0 -47.5 -18t-18.5 -47v-3082q0 -28 18.5 -46.5t47.5 -18.5z" />
    <glyph glyph-name="u1F132" unicode="C&#x20de;" horiz-adv-x="3912" 
d="M2840 1382h-312q-18 100 -67 176t-120 129t-158.5 80t-185.5 27q-177 0 -316.5 -89t-220 -261t-80.5 -420q0 -250 80.5 -422t220.5 -260t315 -88q97 0 184.5 26.5t158.5 78.5t120.5 127.5t68.5 173.5l312 -1q-25 -151 -96.5 -277.5t-183 -218t-254.5 -141.5t-312 -50
q-266 0 -474 126.5t-327.5 362.5t-119.5 563q0 328 120 563.5t328 362t473 126.5q163 0 304.5 -46.5t254.5 -136t187 -218t100 -293.5zM444 -832q-168 0 -256 88t-88 256v3024q0 168 88 256t256 88h3024q168 0 256 -88t88 -256v-3024q0 -168 -88 -256t-256 -88h-3024z
M415 -582h3081q30 0 48 18.5t18 46.5v3082q0 29 -18 47t-48 18h-3081q-29 0 -47.5 -18t-18.5 -47v-3082q0 -28 18.5 -46.5t47.5 -18.5z" />
    <glyph glyph-name="u1F133" unicode="D&#x20de;" horiz-adv-x="3912" 
d="M1847 0h-663v2048h684q301 0 517 -122.5t331.5 -351t115.5 -547.5q0 -320 -116.5 -550t-336.5 -353.5t-532 -123.5zM1493 270h337q234 0 389 88.5t232 257t77 411.5q0 241 -76.5 409t-227.5 255t-375 87h-356v-1508zM444 -832q-168 0 -256 88t-88 256v3024q0 168 88 256
t256 88h3024q168 0 256 -88t88 -256v-3024q0 -168 -88 -256t-256 -88h-3024zM415 -582h3081q30 0 48 18.5t18 46.5v3082q0 29 -18 47t-48 18h-3081q-29 0 -47.5 -18t-18.5 -47v-3082q0 -28 18.5 -46.5t47.5 -18.5z" />
    <glyph glyph-name="u1F134" unicode="E&#x20de;" horiz-adv-x="3912" 
d="M1308 0v2048h1284v-266h-975v-624h908v-265h-908v-627h987v-266h-1296zM444 -832q-168 0 -256 88t-88 256v3024q0 168 88 256t256 88h3024q168 0 256 -88t88 -256v-3024q0 -168 -88 -256t-256 -88h-3024zM415 -582h3081q30 0 48 18.5t18 46.5v3082q0 29 -18 47t-48 18
h-3081q-29 0 -47.5 -18t-18.5 -47v-3082q0 -28 18.5 -46.5t47.5 -18.5z" />
    <glyph glyph-name="u1F135" unicode="F&#x20de;" horiz-adv-x="3912" 
d="M1341 0v2048h1270v-266h-961v-624h870v-265h-870v-893h-309zM444 -832q-168 0 -256 88t-88 256v3024q0 168 88 256t256 88h3024q168 0 256 -88t88 -256v-3024q0 -168 -88 -256t-256 -88h-3024zM415 -582h3081q30 0 48 18.5t18 46.5v3082q0 29 -18 47t-48 18h-3081
q-29 0 -47.5 -18t-18.5 -47v-3082q0 -28 18.5 -46.5t47.5 -18.5z" />
    <glyph glyph-name="u1F136" unicode="G&#x20de;" horiz-adv-x="3912" 
d="M2516 1401q-29 91 -77.5 163.5t-115.5 124t-152.5 78.5t-187.5 27q-173 0 -312 -89t-219.5 -260.5t-80.5 -419.5q0 -249 81 -421t222 -261t321 -89q167 0 291.5 68t193 192.5t68.5 293.5l80 -15h-586v255h805v-233q0 -258 -109.5 -447.5t-302 -292.5t-440.5 -103
q-278 0 -487.5 128t-326.5 363.5t-117 559.5q0 245 68 440t191.5 331.5t291 209t366.5 72.5q166 0 309.5 -49t256 -139t186.5 -213.5t100 -273.5h-317zM444 -832q-168 0 -256 88t-88 256v3024q0 168 88 256t256 88h3024q168 0 256 -88t88 -256v-3024q0 -168 -88 -256
t-256 -88h-3024zM415 -582h3081q30 0 48 18.5t18 46.5v3082q0 29 -18 47t-48 18h-3081q-29 0 -47.5 -18t-18.5 -47v-3082q0 -28 18.5 -46.5t47.5 -18.5z" />
    <glyph glyph-name="u1F137" unicode="H&#x20de;" horiz-adv-x="3912" 
d="M1136 0v2048h309v-890h1021v890h310v-2048h-310v893h-1021v-893h-309zM444 -832q-168 0 -256 88t-88 256v3024q0 168 88 256t256 88h3024q168 0 256 -88t88 -256v-3024q0 -168 -88 -256t-256 -88h-3024zM415 -582h3081q30 0 48 18.5t18 46.5v3082q0 29 -18 47t-48 18
h-3081q-29 0 -47.5 -18t-18.5 -47v-3082q0 -28 18.5 -46.5t47.5 -18.5z" />
    <glyph glyph-name="u1F138" unicode="I&#x20de;" horiz-adv-x="3912" 
d="M2110 2048v-2048h-309v2048h309zM444 -832q-168 0 -256 88t-88 256v3024q0 168 88 256t256 88h3024q168 0 256 -88t88 -256v-3024q0 -168 -88 -256t-256 -88h-3024zM415 -582h3081q30 0 48 18.5t18 46.5v3082q0 29 -18 47t-48 18h-3081q-29 0 -47.5 -18t-18.5 -47v-3082
q0 -28 18.5 -46.5t47.5 -18.5z" />
    <glyph glyph-name="u1F139" unicode="J&#x20de;" horiz-adv-x="3912" 
d="M2223 2048h308v-1452q0 -197 -77.5 -337t-217.5 -213.5t-328 -73.5q-173 0 -310.5 63t-217 183.5t-79.5 293.5h307q0 -85 39.5 -147t109 -96.5t159.5 -34.5q98 0 166.5 41.5t104.5 122.5t36 198v1452zM444 -832q-168 0 -256 88t-88 256v3024q0 168 88 256t256 88h3024
q168 0 256 -88t88 -256v-3024q0 -168 -88 -256t-256 -88h-3024zM415 -582h3081q30 0 48 18.5t18 46.5v3082q0 29 -18 47t-48 18h-3081q-29 0 -47.5 -18t-18.5 -47v-3082q0 -28 18.5 -46.5t47.5 -18.5z" />
    <glyph glyph-name="u1F13A" unicode="K&#x20de;" horiz-adv-x="3912" 
d="M1199 0v2048h309v-978h25l859 978h389l-826 -922l829 -1126h-372l-662 915l-242 -278v-637h-309zM444 -832q-168 0 -256 88t-88 256v3024q0 168 88 256t256 88h3024q168 0 256 -88t88 -256v-3024q0 -168 -88 -256t-256 -88h-3024zM415 -582h3081q30 0 48 18.5t18 46.5
v3082q0 29 -18 47t-48 18h-3081q-29 0 -47.5 -18t-18.5 -47v-3082q0 -28 18.5 -46.5t47.5 -18.5z" />
    <glyph glyph-name="u1F13B" unicode="L&#x20de;" horiz-adv-x="3912" 
d="M1374 0v2048h309v-1782h928v-266h-1237zM444 -832q-168 0 -256 88t-88 256v3024q0 168 88 256t256 88h3024q168 0 256 -88t88 -256v-3024q0 -168 -88 -256t-256 -88h-3024zM415 -582h3081q30 0 48 18.5t18 46.5v3082q0 29 -18 47t-48 18h-3081q-29 0 -47.5 -18t-18.5 -47
v-3082q0 -28 18.5 -46.5t47.5 -18.5z" />
    <glyph glyph-name="u1F13C" unicode="M&#x20de;" horiz-adv-x="3912" 
d="M917 2048h375l652 -1592h24l652 1592h375v-2048h-294v1482h-19l-604 -1479h-244l-604 1480h-19v-1483h-294v2048zM444 -832q-168 0 -256 88t-88 256v3024q0 168 88 256t256 88h3024q168 0 256 -88t88 -256v-3024q0 -168 -88 -256t-256 -88h-3024zM415 -582h3081
q30 0 48 18.5t18 46.5v3082q0 29 -18 47t-48 18h-3081q-29 0 -47.5 -18t-18.5 -47v-3082q0 -28 18.5 -46.5t47.5 -18.5z" />
    <glyph glyph-name="u1F13D" unicode="N&#x20de;" horiz-adv-x="3912" 
d="M2782 2048v-2048h-284l-1041 1502h-19v-1502h-309v2048h286l1042 -1504h19v1504h306zM444 -832q-168 0 -256 88t-88 256v3024q0 168 88 256t256 88h3024q168 0 256 -88t88 -256v-3024q0 -168 -88 -256t-256 -88h-3024zM415 -582h3081q30 0 48 18.5t18 46.5v3082
q0 29 -18 47t-48 18h-3081q-29 0 -47.5 -18t-18.5 -47v-3082q0 -28 18.5 -46.5t47.5 -18.5z" />
    <glyph glyph-name="u1F13E" unicode="O&#x20de;" horiz-adv-x="3912" 
d="M2878 1024q0 -328 -120 -563.5t-328.5 -362t-473.5 -126.5q-266 0 -474.5 126.5t-328.5 362.5t-120 563q0 328 120 563.5t328.5 362t474.5 126.5q265 0 473.5 -126.5t328.5 -362t120 -563.5zM2572 1024q0 250 -80.5 421.5t-220 260t-315.5 88.5q-177 0 -316 -88.5
t-219.5 -260t-80.5 -421.5t80.5 -421.5t219.5 -260t316 -88.5q176 0 315.5 88.5t220 260t80.5 421.5zM444 -832q-168 0 -256 88t-88 256v3024q0 168 88 256t256 88h3024q168 0 256 -88t88 -256v-3024q0 -168 -88 -256t-256 -88h-3024zM415 -582h3081q30 0 48 18.5t18 46.5
v3082q0 29 -18 47t-48 18h-3081q-29 0 -47.5 -18t-18.5 -47v-3082q0 -28 18.5 -46.5t47.5 -18.5z" />
    <glyph glyph-name="u1F13F" unicode="P&#x20de;" horiz-adv-x="3912" 
d="M1279 0v2048h730q239 0 396 -87t235 -237.5t78 -338.5q0 -189 -78.5 -339.5t-236 -238t-395.5 -87.5h-502v262h474q151 0 245 52.5t138 143.5t44 207t-44 206t-138.5 141t-248.5 51h-388v-1783h-309zM444 -832q-168 0 -256 88t-88 256v3024q0 168 88 256t256 88h3024
q168 0 256 -88t88 -256v-3024q0 -168 -88 -256t-256 -88h-3024zM415 -582h3081q30 0 48 18.5t18 46.5v3082q0 29 -18 47t-48 18h-3081q-29 0 -47.5 -18t-18.5 -47v-3082q0 -28 18.5 -46.5t47.5 -18.5z" />
    <glyph glyph-name="u1F140" unicode="Q&#x20de;" horiz-adv-x="3912" 
d="M1852 664h304l214 -279l101 -124l341 -445h-316l-228 297l-78 108zM2878 1024q0 -328 -120 -563.5t-328.5 -362t-473.5 -126.5q-266 0 -474.5 126.5t-328.5 362.5t-120 563q0 328 120 563.5t328.5 362t474.5 126.5q265 0 473.5 -126.5t328.5 -362t120 -563.5zM2572 1024
q0 250 -80.5 421.5t-220 260t-315.5 88.5q-177 0 -316 -88.5t-219.5 -260t-80.5 -421.5t80.5 -421.5t219.5 -260t316 -88.5q176 0 315.5 88.5t220 260t80.5 421.5zM444 -832q-168 0 -256 88t-88 256v3024q0 168 88 256t256 88h3024q168 0 256 -88t88 -256v-3024
q0 -168 -88 -256t-256 -88h-3024zM415 -582h3081q30 0 48 18.5t18 46.5v3082q0 29 -18 47t-48 18h-3081q-29 0 -47.5 -18t-18.5 -47v-3082q0 -28 18.5 -46.5t47.5 -18.5z" />
    <glyph glyph-name="u1F141" unicode="R&#x20de;" horiz-adv-x="3912" 
d="M1268 0v2048h730q238 0 395.5 -82t235.5 -226.5t78 -333.5q0 -188 -78.5 -330.5t-236 -221.5t-395.5 -79h-553v266h525q150 0 244.5 43t138.5 125t44 197q0 116 -44.5 201t-139 130.5t-247.5 45.5h-388v-1783h-309zM2279 924l506 -924h-352l-496 924h342zM444 -832
q-168 0 -256 88t-88 256v3024q0 168 88 256t256 88h3024q168 0 256 -88t88 -256v-3024q0 -168 -88 -256t-256 -88h-3024zM415 -582h3081q30 0 48 18.5t18 46.5v3082q0 29 -18 47t-48 18h-3081q-29 0 -47.5 -18t-18.5 -47v-3082q0 -28 18.5 -46.5t47.5 -18.5z" />
    <glyph glyph-name="u1F142" unicode="S&#x20de;" horiz-adv-x="3912" 
d="M2392 1510q-16 142 -132 220.5t-292 78.5q-126 0 -218 -39.5t-142.5 -108t-50.5 -155.5q0 -73 34.5 -126t91 -88.5t121.5 -59t125 -38.5l200 -52q98 -24 201 -65t191 -108t142.5 -166t54.5 -237q0 -174 -89.5 -309t-259 -213t-409.5 -78q-230 0 -398 73t-263 207.5
t-105 319.5h310q9 -111 72.5 -184.5t163 -109t218.5 -35.5q131 0 233.5 41.5t161.5 116t59 174.5q0 91 -51.5 149t-139 96t-197.5 67l-242 66q-246 67 -389.5 197t-143.5 344q0 177 96 309t260 205.5t370 73.5q208 0 367.5 -73t251.5 -200.5t96 -292.5h-298zM444 -832
q-168 0 -256 88t-88 256v3024q0 168 88 256t256 88h3024q168 0 256 -88t88 -256v-3024q0 -168 -88 -256t-256 -88h-3024zM415 -582h3081q30 0 48 18.5t18 46.5v3082q0 29 -18 47t-48 18h-3081q-29 0 -47.5 -18t-18.5 -47v-3082q0 -28 18.5 -46.5t47.5 -18.5z" />
    <glyph glyph-name="u1F143" unicode="T&#x20de;" horiz-adv-x="3912" 
d="M1164 1782v266h1585v-266h-639v-1782h-308v1782h-638zM444 -832q-168 0 -256 88t-88 256v3024q0 168 88 256t256 88h3024q168 0 256 -88t88 -256v-3024q0 -168 -88 -256t-256 -88h-3024zM415 -582h3081q30 0 48 18.5t18 46.5v3082q0 29 -18 47t-48 18h-3081
q-29 0 -47.5 -18t-18.5 -47v-3082q0 -28 18.5 -46.5t47.5 -18.5z" />
    <glyph glyph-name="u1F144" unicode="U&#x20de;" horiz-adv-x="3912" 
d="M2460 2048h310v-1347q0 -215 -101 -380.5t-284 -260t-429 -94.5q-245 0 -428 94.5t-284 260t-101 380.5v1347h309v-1322q0 -139 61.5 -247t174.5 -169.5t268 -61.5q156 0 269.5 61.5t174 169.5t60.5 247v1322zM444 -832q-168 0 -256 88t-88 256v3024q0 168 88 256t256 88
h3024q168 0 256 -88t88 -256v-3024q0 -168 -88 -256t-256 -88h-3024zM415 -582h3081q30 0 48 18.5t18 46.5v3082q0 29 -18 47t-48 18h-3081q-29 0 -47.5 -18t-18.5 -47v-3082q0 -28 18.5 -46.5t47.5 -18.5z" />
    <glyph glyph-name="u1F145" unicode="V&#x20de;" horiz-adv-x="3912" 
d="M1374 2048l570 -1668h23l570 1668h334l-737 -2048h-357l-737 2048h334zM444 -832q-168 0 -256 88t-88 256v3024q0 168 88 256t256 88h3024q168 0 256 -88t88 -256v-3024q0 -168 -88 -256t-256 -88h-3024zM415 -582h3081q30 0 48 18.5t18 46.5v3082q0 29 -18 47t-48 18
h-3081q-29 0 -47.5 -18t-18.5 -47v-3082q0 -28 18.5 -46.5t47.5 -18.5z" />
    <glyph glyph-name="u1F146" unicode="W&#x20de;" horiz-adv-x="3912" 
d="M1205 0l-568 2048h325l399 -1586h19l415 1586h322l415 -1587h19l398 1587h326l-569 -2048h-311l-431 1534h-16l-431 -1534h-312zM444 -832q-168 0 -256 88t-88 256v3024q0 168 88 256t256 88h3024q168 0 256 -88t88 -256v-3024q0 -168 -88 -256t-256 -88h-3024zM415 -582
h3081q30 0 48 18.5t18 46.5v3082q0 29 -18 47t-48 18h-3081q-29 0 -47.5 -18t-18.5 -47v-3082q0 -28 18.5 -46.5t47.5 -18.5z" />
    <glyph glyph-name="u1F147" unicode="X&#x20de;" horiz-adv-x="3912" 
d="M1458 2048l490 -801h16l490 801h358l-638 -1024l642 -1024h-360l-492 790h-16l-492 -790h-360l653 1024l-649 1024h358zM444 -832q-168 0 -256 88t-88 256v3024q0 168 88 256t256 88h3024q168 0 256 -88t88 -256v-3024q0 -168 -88 -256t-256 -88h-3024zM415 -582h3081
q30 0 48 18.5t18 46.5v3082q0 29 -18 47t-48 18h-3081q-29 0 -47.5 -18t-18.5 -47v-3082q0 -28 18.5 -46.5t47.5 -18.5z" />
    <glyph glyph-name="u1F148" unicode="Y&#x20de;" horiz-adv-x="3912" 
d="M1059 2048h351l535 -931h22l535 931h351l-743 -1244v-804h-308v804zM444 -832q-168 0 -256 88t-88 256v3024q0 168 88 256t256 88h3024q168 0 256 -88t88 -256v-3024q0 -168 -88 -256t-256 -88h-3024zM415 -582h3081q30 0 48 18.5t18 46.5v3082q0 29 -18 47t-48 18h-3081
q-29 0 -47.5 -18t-18.5 -47v-3082q0 -28 18.5 -46.5t47.5 -18.5z" />
    <glyph glyph-name="u1F149" unicode="Z&#x20de;" horiz-adv-x="3912" 
d="M1228 0v206l1077 1576h-1086v266h1464v-206l-1077 -1576h1086v-266h-1464zM444 -832q-168 0 -256 88t-88 256v3024q0 168 88 256t256 88h3024q168 0 256 -88t88 -256v-3024q0 -168 -88 -256t-256 -88h-3024zM415 -582h3081q30 0 48 18.5t18 46.5v3082q0 29 -18 47t-48 18
h-3081q-29 0 -47.5 -18t-18.5 -47v-3082q0 -28 18.5 -46.5t47.5 -18.5z" />
    <glyph glyph-name="uniE13E" unicode="&#x30;&#x20de;" horiz-adv-x="3912" 
d="M1956 -34q-237 1 -405 125t-257 361t-89 571q0 333 89.5 569t258 360t403.5 124t403 -124.5t257.5 -360t89.5 -568.5q0 -335 -89 -571.5t-257 -361t-404 -124.5zM1956 233q208 0 325.5 203t117.5 587q0 255 -53.5 431.5t-153 268t-236.5 91.5q-207 0 -325 -204t-119 -587
q0 -256 53.5 -432.5t152.5 -267t238 -90.5zM444 -832q-168 0 -256 88t-88 256v3024q0 168 88 256t256 88h3024q168 0 256 -88t88 -256v-3024q0 -168 -88 -256t-256 -88h-3024zM415 -582h3081q30 0 48 18.5t18 46.5v3082q0 29 -18 47t-48 18h-3081q-29 0 -47.5 -18t-18.5 -47
v-3082q0 -28 18.5 -46.5t47.5 -18.5z" />
    <glyph glyph-name="uniE13F" unicode="&#x31;&#x20de;" horiz-adv-x="3912" 
d="M2162 2048v-2048h-310v1738h-12l-490 -320v296l511 334h301zM444 -832q-168 0 -256 88t-88 256v3024q0 168 88 256t256 88h3024q168 0 256 -88t88 -256v-3024q0 -168 -88 -256t-256 -88h-3024zM415 -582h3081q30 0 48 18.5t18 46.5v3082q0 29 -18 47t-48 18h-3081
q-29 0 -47.5 -18t-18.5 -47v-3082q0 -28 18.5 -46.5t47.5 -18.5z" />
    <glyph glyph-name="uniE140" unicode="&#x32;&#x20de;" horiz-adv-x="3912" 
d="M1286 0v224l693 718q111 117 183.5 205.5t108.5 168.5t36 170q0 102 -48 176.5t-131 115t-187 40.5q-110 0 -192 -45t-126 -127t-44 -192h-295q0 187 86 327t236 217.5t341 77.5q193 0 340.5 -76.5t230.5 -208t83 -296.5q0 -114 -42.5 -223t-147.5 -242.5t-292 -323.5
l-407 -426v-15h922v-265h-1348zM444 -832q-168 0 -256 88t-88 256v3024q0 168 88 256t256 88h3024q168 0 256 -88t88 -256v-3024q0 -168 -88 -256t-256 -88h-3024zM415 -582h3081q30 0 48 18.5t18 46.5v3082q0 29 -18 47t-48 18h-3081q-29 0 -47.5 -18t-18.5 -47v-3082
q0 -28 18.5 -46.5t47.5 -18.5z" />
    <glyph glyph-name="uniE141" unicode="&#x33;&#x20de;" horiz-adv-x="3912" 
d="M1953 -28q-206 0 -367.5 71t-255 197.5t-100.5 293.5h314q6 -91 61.5 -157.5t145.5 -102.5t200 -36q121 0 214.5 42t146.5 117.5t53 174.5q0 103 -52.5 181.5t-153 123.5t-242.5 45h-173v252h173q114 0 200.5 41t135.5 114.5t49 172.5q0 95 -42.5 165.5t-120 110.5
t-182.5 40q-100 0 -186.5 -36.5t-140.5 -104t-58 -161.5h-299q5 166 98.5 292t247.5 197t342 71q197 0 340.5 -76.5t222 -203.5t77.5 -278q1 -172 -95.5 -292t-256.5 -161v-16q204 -31 316.5 -162t111.5 -325q1 -169 -93.5 -303t-257.5 -210.5t-373 -76.5zM444 -832
q-168 0 -256 88t-88 256v3024q0 168 88 256t256 88h3024q168 0 256 -88t88 -256v-3024q0 -168 -88 -256t-256 -88h-3024zM415 -582h3081q30 0 48 18.5t18 46.5v3082q0 29 -18 47t-48 18h-3081q-29 0 -47.5 -18t-18.5 -47v-3082q0 -28 18.5 -46.5t47.5 -18.5z" />
    <glyph glyph-name="uniE142" unicode="&#x34;&#x20de;" horiz-adv-x="3912" 
d="M1115 400v250l885 1398h197v-368h-125l-633 -1002v-16h1213v-262h-1537zM2086 0v476l2 114v1458h293v-2048h-295zM444 -832q-168 0 -256 88t-88 256v3024q0 168 88 256t256 88h3024q168 0 256 -88t88 -256v-3024q0 -168 -88 -256t-256 -88h-3024zM415 -582h3081
q30 0 48 18.5t18 46.5v3082q0 29 -18 47t-48 18h-3081q-29 0 -47.5 -18t-18.5 -47v-3082q0 -28 18.5 -46.5t47.5 -18.5z" />
    <glyph glyph-name="uniE143" unicode="&#x35;&#x20de;" horiz-adv-x="3912" 
d="M1939 -28q-188 0 -337.5 72.5t-238.5 199.5t-95 290h300q11 -132 117 -217t254 -85q118 0 209.5 54.5t144 150.5t52.5 219q0 125 -54 223t-148.5 154t-216.5 57q-93 0 -187 -32t-152 -84l-283 42l115 1032h1126v-265h-869l-65 -573h12q60 58 159.5 97t213.5 39
q187 0 333.5 -89t231 -242.5t83.5 -352.5q1 -199 -89.5 -355t-250 -245.5t-365.5 -89.5zM444 -832q-168 0 -256 88t-88 256v3024q0 168 88 256t256 88h3024q168 0 256 -88t88 -256v-3024q0 -168 -88 -256t-256 -88h-3024zM415 -582h3081q30 0 48 18.5t18 46.5v3082
q0 29 -18 47t-48 18h-3081q-29 0 -47.5 -18t-18.5 -47v-3082q0 -28 18.5 -46.5t47.5 -18.5z" />
    <glyph glyph-name="uniE144" unicode="&#x36;&#x20de;" horiz-adv-x="3912" 
d="M1954 -28q-137 2 -269.5 50t-240.5 160t-172.5 301t-64.5 472q0 269 53.5 478.5t154.5 353.5t244 219t321 75q183 0 325 -73t230.5 -200t112.5 -292h-305q-31 131 -123 212.5t-240 81.5q-225 0 -350.5 -196.5t-126.5 -548.5h15q53 87 130.5 148.5t174 95t203.5 33.5
q178 0 322.5 -86.5t230.5 -238.5t86 -348t-88.5 -355t-248.5 -251.5t-374 -90.5zM1953 232q118 0 211 58t147 156t54 219q0 118 -52.5 215t-144 154t-208.5 57q-89 0 -164.5 -34t-132.5 -94t-89.5 -137.5t-32.5 -163.5q0 -115 53.5 -213t147 -157.5t211.5 -59.5zM444 -832
q-168 0 -256 88t-88 256v3024q0 168 88 256t256 88h3024q168 0 256 -88t88 -256v-3024q0 -168 -88 -256t-256 -88h-3024zM415 -582h3081q30 0 48 18.5t18 46.5v3082q0 29 -18 47t-48 18h-3081q-29 0 -47.5 -18t-18.5 -47v-3082q0 -28 18.5 -46.5t47.5 -18.5z" />
    <glyph glyph-name="uniE145" unicode="&#x37;&#x20de;" horiz-adv-x="3912" 
d="M1459 0l894 1768v15h-1034v265h1354v-274l-891 -1774h-323zM444 -832q-168 0 -256 88t-88 256v3024q0 168 88 256t256 88h3024q168 0 256 -88t88 -256v-3024q0 -168 -88 -256t-256 -88h-3024zM415 -582h3081q30 0 48 18.5t18 46.5v3082q0 29 -18 47t-48 18h-3081
q-29 0 -47.5 -18t-18.5 -47v-3082q0 -28 18.5 -46.5t47.5 -18.5z" />
    <glyph glyph-name="uniE146" unicode="&#x38;&#x20de;" horiz-adv-x="3912" 
d="M1956 -28q-215 0 -379.5 74t-257.5 204t-92 296q-1 130 53.5 239.5t148.5 183t210 93.5v12q-153 37 -245 164t-91 292q-1 157 83.5 280.5t232.5 194.5t337 71q187 0 334.5 -71.5t232.5 -195t86 -279.5q-1 -165 -94 -292t-242 -164v-12q115 -20 207.5 -93.5t148 -183
t56.5 -239.5q-1 -166 -94 -296t-257.5 -204t-377.5 -74zM1956 225q127 0 220 42.5t144 119t52 179.5q-1 107 -55.5 189t-147.5 129t-213 47q-121 0 -215 -47t-148 -129t-53 -189q-1 -103 49.5 -179.5t144.5 -119t222 -42.5zM1956 1178q102 0 181 41t124.5 114t46.5 171
q-1 96 -45.5 168t-123.5 111.5t-183 39.5q-106 0 -185.5 -39.5t-123.5 -111.5t-43 -168q-1 -98 44 -171t124.5 -114t183.5 -41zM444 -832q-168 0 -256 88t-88 256v3024q0 168 88 256t256 88h3024q168 0 256 -88t88 -256v-3024q0 -168 -88 -256t-256 -88h-3024zM415 -582
h3081q30 0 48 18.5t18 46.5v3082q0 29 -18 47t-48 18h-3081q-29 0 -47.5 -18t-18.5 -47v-3082q0 -28 18.5 -46.5t47.5 -18.5z" />
    <glyph glyph-name="uniE147" unicode="&#x39;&#x20de;" horiz-adv-x="3912" 
d="M1940 2081q137 -1 270 -50t240.5 -160.5t172 -300.5t65.5 -472q-1 -269 -54.5 -478.5t-154.5 -353.5t-243.5 -219t-321.5 -75q-183 0 -325 72t-231 199.5t-111 293.5h305q30 -132 122.5 -213.5t239.5 -81.5q225 0 351 196.5t127 549.5h-16q-52 -86 -129.5 -148
t-173.5 -96t-205 -34q-177 0 -322.5 87t-231 239t-85.5 348t88.5 354.5t248 251t374.5 91.5zM1941 1821q-117 0 -210.5 -58t-147.5 -156t-54 -219q0 -119 52.5 -216t144 -153.5t209.5 -56.5q88 0 164 34t132.5 94.5t89 138t32.5 162.5q0 115 -53.5 213t-146.5 157.5
t-212 59.5zM444 -832q-168 0 -256 88t-88 256v3024q0 168 88 256t256 88h3024q168 0 256 -88t88 -256v-3024q0 -168 -88 -256t-256 -88h-3024zM415 -582h3081q30 0 48 18.5t18 46.5v3082q0 29 -18 47t-48 18h-3081q-29 0 -47.5 -18t-18.5 -47v-3082q0 -28 18.5 -46.5
t47.5 -18.5z" />
    <glyph glyph-name="uniE148" unicode="&#xe06b;&#x20de;" horiz-adv-x="3912" 
d="M2261 1834l140 -98l-759 -1523l-132 109zM1956 -33q-237 0 -405 124.5t-257 361t-89 571.5q0 333 89.5 568.5t258 360t403.5 124.5t403 -124.5t257.5 -360t89.5 -568.5q0 -335 -89 -571.5t-257 -361t-404 -124.5zM1956 234q208 0 325.5 202.5t117.5 587.5
q0 255 -53.5 431.5t-153 267.5t-236.5 91q-207 0 -325 -204t-119 -586q0 -256 53.5 -432.5t152.5 -267t238 -90.5zM444 -832q-168 0 -256 88t-88 256v3024q0 168 88 256t256 88h3024q168 0 256 -88t88 -256v-3024q0 -168 -88 -256t-256 -88h-3024zM415 -582h3081
q30 0 48 18.5t18 46.5v3082q0 29 -18 47t-48 18h-3081q-29 0 -47.5 -18t-18.5 -47v-3082q0 -28 18.5 -46.5t47.5 -18.5z" />
    <glyph glyph-name="uniE149" unicode="&#xe06c;&#x20de;" horiz-adv-x="3912" 
d="M2195 2048v-2048h-310v1631h-17q-16 -30 -73.5 -65t-147 -61t-206.5 -26v254q113 0 197.5 40t143.5 96.5t90 107t35 71.5h288zM444 -832q-168 0 -256 88t-88 256v3024q0 168 88 256t256 88h3024q168 0 256 -88t88 -256v-3024q0 -168 -88 -256t-256 -88h-3024zM415 -582
h3081q30 0 48 18.5t18 46.5v3082q0 29 -18 47t-48 18h-3081q-29 0 -47.5 -18t-18.5 -47v-3082q0 -28 18.5 -46.5t47.5 -18.5z" />
    <glyph glyph-name="uniE14A" unicode="&#xe06d;&#x20de;" horiz-adv-x="3912" 
d="M1227 534h313q10 -95 65.5 -161.5t145.5 -100.5t200 -34q118 0 211.5 40t147.5 118t54 192q0 102 -49 188t-154 138t-274 52h-183v234l492 568v15h-868v265h1272v-224l-548 -628v-16q142 -9 257.5 -59t197.5 -131.5t126 -186.5t44 -225q0 -177 -94 -314t-258.5 -214.5
t-376.5 -77.5q-197 0 -356.5 68t-257 194t-107.5 300zM444 -832q-168 0 -256 88t-88 256v3024q0 168 88 256t256 88h3024q168 0 256 -88t88 -256v-3024q0 -168 -88 -256t-256 -88h-3024zM415 -582h3081q30 0 48 18.5t18 46.5v3082q0 29 -18 47t-48 18h-3081q-29 0 -47.5 -18
t-18.5 -47v-3082q0 -28 18.5 -46.5t47.5 -18.5z" />
    <glyph glyph-name="uniE14B" unicode="&#xe06e;&#x20de;" horiz-adv-x="3912" 
d="M1131 400v250l802 1398h302l-783 -1370v-16h1216v-262h-1537zM2102 0v474l4 116v690h289v-1280h-293zM444 -832q-168 0 -256 88t-88 256v3024q0 168 88 256t256 88h3024q168 0 256 -88t88 -256v-3024q0 -168 -88 -256t-256 -88h-3024zM415 -582h3081q30 0 48 18.5
t18 46.5v3082q0 29 -18 47t-48 18h-3081q-29 0 -47.5 -18t-18.5 -47v-3082q0 -28 18.5 -46.5t47.5 -18.5z" />
    <glyph glyph-name="uniE14C" unicode="&#xe06f;&#x20de;" horiz-adv-x="3912" 
d="M1279 654q2 100 29.5 204t89.5 226t166 277l465 687h326l-525 -768q36 11 75.5 18.5t79.5 7.5q187 0 333 -86t230.5 -235t84.5 -342q0 -197 -87.5 -348t-240 -237t-347.5 -86q-193 0 -347.5 85.5t-243.5 239t-88 357.5zM1578 642q0 -121 48 -214t134 -146t198 -53
q111 0 196.5 52.5t134 145t48.5 211.5q0 121 -48.5 213.5t-134 144.5t-196.5 52q-112 0 -198 -52t-134 -143.5t-48 -210.5zM444 -832q-168 0 -256 88t-88 256v3024q0 168 88 256t256 88h3024q168 0 256 -88t88 -256v-3024q0 -168 -88 -256t-256 -88h-3024zM415 -582h3081
q30 0 48 18.5t18 46.5v3082q0 29 -18 47t-48 18h-3081q-29 0 -47.5 -18t-18.5 -47v-3082q0 -28 18.5 -46.5t47.5 -18.5z" />
    <glyph glyph-name="uniE14D" unicode="&#xe070;&#x20de;" horiz-adv-x="3912" 
d="M1280 1405q0 197 87 348t239.5 237t347.5 86q193 0 347.5 -85.5t244 -239t87.5 -357.5q-1 -100 -29 -204t-90 -226t-166 -277l-464 -687h-327l526 769q-37 -12 -76 -19.5t-79 -7.5q-188 0 -334 86t-230 235t-84 342zM1576 1410q0 -121 48 -213.5t133.5 -144.5t197.5 -52
q111 0 197 52t134.5 143.5t48.5 210.5q0 121 -48.5 214t-134.5 146t-197 53q-112 0 -197.5 -52.5t-133.5 -145t-48 -211.5zM444 -832q-168 0 -256 88t-88 256v3024q0 168 88 256t256 88h3024q168 0 256 -88t88 -256v-3024q0 -168 -88 -256t-256 -88h-3024zM415 -582h3081
q30 0 48 18.5t18 46.5v3082q0 29 -18 47t-48 18h-3081q-29 0 -47.5 -18t-18.5 -47v-3082q0 -28 18.5 -46.5t47.5 -18.5z" />
    <glyph glyph-name="uniE14E" unicode="&#x21;&#x20de;" horiz-adv-x="3912" 
d="M2120 2048l-26 -1459h-277l-26 1459h329zM1956 -19q-83 0 -142 58.5t-58 141.5q-1 82 58 140.5t142 58.5q81 0 140 -58.5t60 -140.5q-1 -55 -28.5 -100.5t-72.5 -72.5t-99 -27zM444 -832q-168 0 -256 88t-88 256v3024q0 168 88 256t256 88h3024q168 0 256 -88t88 -256
v-3024q0 -168 -88 -256t-256 -88h-3024zM415 -582h3081q30 0 48 18.5t18 46.5v3082q0 29 -18 47t-48 18h-3081q-29 0 -47.5 -18t-18.5 -47v-3082q0 -28 18.5 -46.5t47.5 -18.5z" />
    <glyph glyph-name="uniE14F" unicode="&#x3f;&#x20de;" horiz-adv-x="3912" 
d="M1792 589v19q2 186 37.5 296t101.5 178t159 124q60 38 108 85t76 108t28 135q0 89 -42 154t-111.5 100.5t-154.5 35.5q-77 0 -147 -32t-116 -99.5t-53 -173.5h-304q7 180 91 304.5t222.5 188.5t306.5 64q184 0 322 -68.5t214.5 -191t76.5 -285.5q0 -112 -35 -201.5
t-99.5 -159.5t-154.5 -124q-85 -53 -137.5 -110t-76.5 -135t-26 -193v-19h-286zM1943 -19q-82 0 -141 58.5t-59 141.5q0 82 59 140.5t141 58.5q81 0 140.5 -58.5t59.5 -140.5q0 -55 -27.5 -100.5t-72.5 -72.5t-100 -27zM444 -832q-168 0 -256 88t-88 256v3024q0 168 88 256
t256 88h3024q168 0 256 -88t88 -256v-3024q0 -168 -88 -256t-256 -88h-3024zM415 -582h3081q30 0 48 18.5t18 46.5v3082q0 29 -18 47t-48 18h-3081q-29 0 -47.5 -18t-18.5 -47v-3082q0 -28 18.5 -46.5t47.5 -18.5z" />
    <glyph glyph-name="uniE150" unicode="&#x23;&#x20de;" horiz-adv-x="3912" 
d="M2028 0l336 2048h240l-336 -2048h-240zM1101 548l39 240h1552l-39 -240h-1552zM1308 0l336 2048h240l-336 -2048h-240zM1220 1260l39 240h1552l-39 -240h-1552zM444 -832q-168 0 -256 88t-88 256v3024q0 168 88 256t256 88h3024q168 0 256 -88t88 -256v-3024
q0 -168 -88 -256t-256 -88h-3024zM415 -582h3081q30 0 48 18.5t18 46.5v3082q0 29 -18 47t-48 18h-3081q-29 0 -47.5 -18t-18.5 -47v-3082q0 -28 18.5 -46.5t47.5 -18.5z" />
    <glyph glyph-name="uniE151" unicode="&#x2d;&#x20de;" horiz-adv-x="3912" 
d="M2410 1153v-259h-908v259h908zM444 -832q-168 0 -256 88t-88 256v3024q0 168 88 256t256 88h3024q168 0 256 -88t88 -256v-3024q0 -168 -88 -256t-256 -88h-3024zM415 -582h3081q30 0 48 18.5t18 46.5v3082q0 29 -18 47t-48 18h-3081q-29 0 -47.5 -18t-18.5 -47v-3082
q0 -28 18.5 -46.5t47.5 -18.5z" />
    <glyph glyph-name="uniE152" unicode="&#x3c;&#x20de;" horiz-adv-x="3912" 
d="M1252 886v224l1328 644v-305l-980 -447l9 18v-43l-9 17l980 -446v-306zM444 -832q-168 0 -256 88t-88 256v3024q0 168 88 256t256 88h3024q168 0 256 -88t88 -256v-3024q0 -168 -88 -256t-256 -88h-3024zM415 -582h3081q30 0 48 18.5t18 46.5v3082q0 29 -18 47t-48 18
h-3081q-29 0 -47.5 -18t-18.5 -47v-3082q0 -28 18.5 -46.5t47.5 -18.5z" />
    <glyph glyph-name="uniE153" unicode="&#x3e;&#x20de;" horiz-adv-x="3912" 
d="M2660 886l-1328 -644v306l980 446l-10 -17v43l10 -18l-980 447v305l1328 -644v-224zM444 -832q-168 0 -256 88t-88 256v3024q0 168 88 256t256 88h3024q168 0 256 -88t88 -256v-3024q0 -168 -88 -256t-256 -88h-3024zM415 -582h3081q30 0 48 18.5t18 46.5v3082
q0 29 -18 47t-48 18h-3081q-29 0 -47.5 -18t-18.5 -47v-3082q0 -28 18.5 -46.5t47.5 -18.5z" />
    <glyph glyph-name="uniE154" unicode="&#x3d;&#x20de;" horiz-adv-x="3912" 
d="M1315 1201v263h1281v-263h-1281zM1315 585v263h1281v-263h-1281zM444 -832q-168 0 -256 88t-88 256v3024q0 168 88 256t256 88h3024q168 0 256 -88t88 -256v-3024q0 -168 -88 -256t-256 -88h-3024zM415 -582h3081q30 0 48 18.5t18 46.5v3082q0 29 -18 47t-48 18h-3081
q-29 0 -47.5 -18t-18.5 -47v-3082q0 -28 18.5 -46.5t47.5 -18.5z" />
    <glyph glyph-name="uniE155" unicode="&#x2b;&#x20de;" horiz-adv-x="3912" 
d="M1821 344v1352h269v-1352h-269zM1280 886v269h1352v-269h-1352zM444 -832q-168 0 -256 88t-88 256v3024q0 168 88 256t256 88h3024q168 0 256 -88t88 -256v-3024q0 -168 -88 -256t-256 -88h-3024zM415 -582h3081q30 0 48 18.5t18 46.5v3082q0 29 -18 47t-48 18h-3081
q-29 0 -47.5 -18t-18.5 -47v-3082q0 -28 18.5 -46.5t47.5 -18.5z" />
    <glyph glyph-name="uniE156" unicode="&#x2212;&#x20de;" horiz-adv-x="3912" 
d="M2616 1159v-269h-1320v269h1320zM444 -832q-168 0 -256 88t-88 256v3024q0 168 88 256t256 88h3024q168 0 256 -88t88 -256v-3024q0 -168 -88 -256t-256 -88h-3024zM415 -582h3081q30 0 48 18.5t18 46.5v3082q0 29 -18 47t-48 18h-3081q-29 0 -47.5 -18t-18.5 -47v-3082
q0 -28 18.5 -46.5t47.5 -18.5z" />
    <glyph glyph-name="uniE157" unicode="&#xd7;&#x20de;" horiz-adv-x="3912" 
d="M2436 340l-1150 1149l189 190l1150 -1150zM1475 340l-189 189l1150 1150l189 -190zM444 -832q-168 0 -256 88t-88 256v3024q0 168 88 256t256 88h3024q168 0 256 -88t88 -256v-3024q0 -168 -88 -256t-256 -88h-3024zM415 -582h3081q30 0 48 18.5t18 46.5v3082
q0 29 -18 47t-48 18h-3081q-29 0 -47.5 -18t-18.5 -47v-3082q0 -28 18.5 -46.5t47.5 -18.5z" />
    <glyph glyph-name="uniE158" unicode="&#xf7;&#x20de;" horiz-adv-x="3912" 
d="M2616 1156v-263h-1320v263h1320zM1956 295q-84 0 -142.5 58.5t-58.5 142.5q0 80 58.5 138t142.5 58q80 0 138 -58t58 -138q0 -84 -58 -142.5t-138 -58.5zM1956 1356q-56 0 -101.5 27t-72.5 73t-27 101q0 81 58.5 139t142.5 58q81 0 138.5 -58t57.5 -139q0 -83 -57.5 -142
t-138.5 -59zM444 -832q-168 0 -256 88t-88 256v3024q0 168 88 256t256 88h3024q168 0 256 -88t88 -256v-3024q0 -168 -88 -256t-256 -88h-3024zM415 -582h3081q30 0 48 18.5t18 46.5v3082q0 29 -18 47t-48 18h-3081q-29 0 -47.5 -18t-18.5 -47v-3082q0 -28 18.5 -46.5
t47.5 -18.5z" />
    <glyph glyph-name="uniE159" unicode="&#x2191;&#x20de;" horiz-adv-x="3912" 
d="M1828 0v1572l-599 -601l-182 180l911 909l909 -909l-178 -180l-601 601v-1572h-260zM444 -832q-168 0 -256 88t-88 256v3024q0 168 88 256t256 88h3024q168 0 256 -88t88 -256v-3024q0 -168 -88 -256t-256 -88h-3024zM415 -582h3081q30 0 48 18.5t18 46.5v3082
q0 29 -18 47t-48 18h-3081q-29 0 -47.5 -18t-18.5 -47v-3082q0 -28 18.5 -46.5t47.5 -18.5z" />
    <glyph glyph-name="uniE15A" unicode="&#x2193;&#x20de;" horiz-adv-x="3912" 
d="M2086 2048v-1572l599 601l182 -180l-911 -909l-909 909l178 180l601 -601v1572h260zM444 -832q-168 0 -256 88t-88 256v3024q0 168 88 256t256 88h3024q168 0 256 -88t88 -256v-3024q0 -168 -88 -256t-256 -88h-3024zM415 -582h3081q30 0 48 18.5t18 46.5v3082
q0 29 -18 47t-48 18h-3081q-29 0 -47.5 -18t-18.5 -47v-3082q0 -28 18.5 -46.5t47.5 -18.5z" />
    <glyph glyph-name="uniE15B" unicode="&#x2190;&#x20de;" horiz-adv-x="3912" 
d="M1861 91l-933 933l933 933l180 -178l-625 -625h1570v-260h-1570l625 -624zM444 -832q-168 0 -256 88t-88 256v3024q0 168 88 256t256 88h3024q168 0 256 -88t88 -256v-3024q0 -168 -88 -256t-256 -88h-3024zM415 -582h3081q30 0 48 18.5t18 46.5v3082q0 29 -18 47t-48 18
h-3081q-29 0 -47.5 -18t-18.5 -47v-3082q0 -28 18.5 -46.5t47.5 -18.5z" />
    <glyph glyph-name="uniE15C" unicode="&#x2192;&#x20de;" horiz-adv-x="3912" 
d="M2053 91l-180 178l625 625h-1570v260h1570l-625 624l180 179l933 -933zM444 -832q-168 0 -256 88t-88 256v3024q0 168 88 256t256 88h3024q168 0 256 -88t88 -256v-3024q0 -168 -88 -256t-256 -88h-3024zM415 -582h3081q30 0 48 18.5t18 46.5v3082q0 29 -18 47t-48 18
h-3081q-29 0 -47.5 -18t-18.5 -47v-3082q0 -28 18.5 -46.5t47.5 -18.5z" />
    <glyph glyph-name="uniE15D" unicode="&#x2713;&#x20de;" horiz-adv-x="3912" 
d="M1026 990l195 199l506 -499l1071 1067l198 -199l-1269 -1264zM444 -832q-168 0 -256 88t-88 256v3024q0 168 88 256t256 88h3024q168 0 256 -88t88 -256v-3024q0 -168 -88 -256t-256 -88h-3024zM415 -582h3081q30 0 48 18.5t18 46.5v3082q0 29 -18 47t-48 18h-3081
q-29 0 -47.5 -18t-18.5 -47v-3082q0 -28 18.5 -46.5t47.5 -18.5z" />
    <glyph glyph-name="uniE15E" unicode="&#x2717;&#x20de;" horiz-adv-x="3912" 
d="M1430 302l-198 199l1250 1245l199 -198zM2482 302l-1251 1246l199 198l1250 -1245zM444 -832q-168 0 -256 88t-88 256v3024q0 168 88 256t256 88h3024q168 0 256 -88t88 -256v-3024q0 -168 -88 -256t-256 -88h-3024zM415 -582h3081q30 0 48 18.5t18 46.5v3082
q0 29 -18 47t-48 18h-3081q-29 0 -47.5 -18t-18.5 -47v-3082q0 -28 18.5 -46.5t47.5 -18.5z" />
    <glyph glyph-name=".notdef" horiz-adv-x="2852" 
d="M262 -640v512h2328v-512h-2328zM262 1472v512h2328v-512h-2328zM262 2176v512h2328v-512h-2328zM262 64v512h2328v-512h-2328zM262 768v512h2328v-512h-2328z" />
    <glyph glyph-name=".null" 
 />
    <glyph glyph-name="uni0041" unicode="A" horiz-adv-x="1971" 
d="M398 0h-328l737 2048h357l737 -2048h-328l-579 1676h-16zM453 802h1064v-260h-1064v260z" />
    <glyph glyph-name="uni00C4" unicode="&#xc4;" horiz-adv-x="1971" 
d="M398 0h-328l737 2048h357l737 -2048h-328l-579 1676h-16zM453 802h1064v-260h-1064v260zM692 2289q-71 0 -124 52.5t-53 121.5q0 75 53 125t124 50q75 0 125.5 -50t50.5 -125q0 -69 -50.5 -121.5t-125.5 -52.5zM1280 2289q-71 0 -124 52.5t-53 121.5q0 75 53 125t124 50
q75 0 125.5 -50t50.5 -125q0 -69 -50.5 -121.5t-125.5 -52.5z" />
    <glyph glyph-name="uni00C3" unicode="&#xc3;" horiz-adv-x="1971" 
d="M398 0h-328l737 2048h357l737 -2048h-328l-579 1676h-16zM453 802h1064v-260h-1064v260zM685 2252l-201 6q0 166 89.5 265t221.5 99q61 0 107 -20.5t86.5 -47t81 -47t90.5 -20.5q58 0 94.5 44t36.5 109l197 -13q0 -167 -90 -262.5t-221 -96.5q-71 0 -117.5 20.5t-82.5 47
t-74 47.5t-91 21q-56 0 -91.5 -43.5t-35.5 -108.5z" />
    <glyph glyph-name="uni00C0" unicode="&#xc0;" horiz-adv-x="1971" 
d="M398 0h-328l737 2048h357l737 -2048h-328l-579 1676h-16zM453 802h1064v-260h-1064v260zM869 2253l-309 461h315l233 -461h-239z" />
    <glyph glyph-name="uni00C1" unicode="&#xc1;" horiz-adv-x="1971" 
d="M398 0h-328l737 2048h357l737 -2048h-328l-579 1676h-16zM453 802h1064v-260h-1064v260zM862 2253l234 461h315l-310 -461h-239z" />
    <glyph glyph-name="uni00C2" unicode="&#xc2;" horiz-adv-x="1971" 
d="M398 0h-328l737 2048h357l737 -2048h-328l-579 1676h-16zM453 802h1064v-260h-1064v260zM780 2232h-270v15l351 424h249l352 -424v-15h-271l-205 268z" />
    <glyph glyph-name="uni00C5" unicode="&#xc5;" horiz-adv-x="1971" 
d="M398 0h-328l737 2048h357l737 -2048h-328l-579 1676h-16zM453 802h1064v-260h-1064v260zM986 2175q-91 0 -166 42t-119.5 113t-44.5 156q0 86 44.5 157t119.5 113t166 42t165.5 -42t119 -113t44.5 -157q0 -85 -44.5 -156t-119 -113t-165.5 -42zM986 2334q64 1 110 45
t46 107q0 64 -45.5 108.5t-110.5 43.5q-65 0 -111 -44t-46 -108q0 -63 46 -107.5t111 -44.5z" />
    <glyph glyph-name="uni0100" unicode="&#x100;" horiz-adv-x="1971" 
d="M398 0h-328l737 2048h357l737 -2048h-328l-579 1676h-16zM453 802h1064v-260h-1064v260zM1460 2560v-210h-949v210h949z" />
    <glyph glyph-name="uni0102" unicode="&#x102;" horiz-adv-x="1971" 
d="M398 0h-328l737 2048h357l737 -2048h-328l-579 1676h-16zM453 802h1064v-260h-1064v260zM1182 2568h246q0 -169 -119.5 -274.5t-322.5 -105.5q-202 0 -321 105.5t-119 274.5h245q0 -75 44 -132.5t151 -57.5q105 0 150.5 57t45.5 133z" />
    <glyph glyph-name="uni0104" unicode="&#x104;" horiz-adv-x="1971" 
d="M398 0h-328l737 2048h357l737 -2048h-328l-579 1676h-16zM453 802h1064v-260h-1064v260zM1710 -591q-126 0 -209.5 67.5t-91.5 196.5q-5 76 25 153t101 146t188 122l178 -94q-92 -59 -159 -125t-67 -150q0 -46 23 -72t79 -26q41 0 73 11t52 21l26 -190
q-35 -21 -89.5 -40.5t-128.5 -19.5z" />
    <glyph glyph-name="uni01CD" unicode="&#x1cd;" horiz-adv-x="1971" 
d="M398 0h-328l737 2048h357l737 -2048h-328l-579 1676h-16zM453 802h1064v-260h-1064v260zM780 2671l206 -268l205 268h271v-15l-352 -424h-249l-351 424v15h270z" />
    <glyph glyph-name="uni01DE" unicode="&#x1de;" horiz-adv-x="1971" 
d="M398 0h-328l737 2048h357l737 -2048h-328l-579 1676h-16zM453 802h1064v-260h-1064v260zM692 2289q-71 0 -124 52.5t-53 121.5q0 75 53 125t124 50q75 0 125.5 -50t50.5 -125q0 -69 -50.5 -121.5t-125.5 -52.5zM1280 2289q-71 0 -124 52.5t-53 121.5q0 75 53 125t124 50
q75 0 125.5 -50t50.5 -125q0 -69 -50.5 -121.5t-125.5 -52.5zM1460 3072v-210h-949v210h949z" />
    <glyph glyph-name="uni01E0" unicode="&#x1e0;" horiz-adv-x="1971" 
d="M398 0h-328l737 2048h357l737 -2048h-328l-579 1676h-16zM453 802h1064v-260h-1064v260zM986 2310q-78 0 -133.5 52.5t-55.5 125.5q0 74 55.5 126.5t133.5 52.5t133.5 -52.5t55.5 -126.5q0 -73 -55.5 -125.5t-133.5 -52.5zM1443 3064v-210h-949v210h949z" />
    <glyph glyph-name="uni01FA" unicode="&#x1fa;" horiz-adv-x="1971" 
d="M398 0h-328l737 2048h357l737 -2048h-328l-579 1676h-16zM453 802h1064v-260h-1064v260zM986 2158q-99 0 -170.5 69t-71.5 166t71.5 166t170.5 69q101 0 171 -69t70 -166t-70 -166t-171 -69zM986 2297q42 0 69.5 28.5t27.5 67.5q0 36 -27.5 64t-69.5 28q-40 0 -68.5 -28
t-28.5 -64q0 -39 28.5 -67.5t68.5 -28.5zM871 2702l224 262h306l-331 -262h-199z" />
    <glyph glyph-name="uni0200" unicode="&#x200;" horiz-adv-x="1971" 
d="M398 0h-328l737 2048h357l737 -2048h-328l-579 1676h-16zM453 802h1064v-260h-1064v260zM724 2253l-337 371l175 90l290 -372zM1170 2253l-266 371l201 90l209 -372z" />
    <glyph glyph-name="uni0202" unicode="&#x202;" horiz-adv-x="1971" 
d="M398 0h-328l737 2048h357l737 -2048h-328l-579 1676h-16zM453 802h1064v-260h-1064v260zM542 2301q0 168 119 277t323 109t322 -109t118 -277h-245q0 77 -45.5 134.5t-149.5 57.5q-108 0 -152.5 -58.5t-43.5 -133.5h-246z" />
    <glyph glyph-name="uni0226" unicode="&#x226;" horiz-adv-x="1971" 
d="M398 0h-328l737 2048h357l737 -2048h-328l-579 1676h-16zM453 802h1064v-260h-1064v260zM986 2285q-78 0 -133.5 52.5t-55.5 125.5q0 74 55.5 126.5t133.5 52.5t133.5 -52.5t55.5 -126.5q0 -73 -55.5 -125.5t-133.5 -52.5z" />
    <glyph glyph-name="uni1E00" unicode="&#x1e00;" horiz-adv-x="1971" 
d="M398 0h-328l737 2048h357l737 -2048h-328l-579 1676h-16zM453 802h1064v-260h-1064v260zM712 -328q0 101 73 167t179 66q100 0 175 -66t75 -167q0 -105 -75 -169.5t-175 -64.5q-106 0 -179 65t-73 169zM848 -328q0 -49 33 -81.5t83 -32.5q44 0 78.5 32.5t34.5 81.5
q0 48 -34.5 80.5t-78.5 32.5q-50 0 -83 -32.5t-33 -80.5z" />
    <glyph glyph-name="uni1EA0" unicode="&#x1ea0;" horiz-adv-x="1971" 
d="M398 0h-328l737 2048h357l737 -2048h-328l-579 1676h-16zM453 802h1064v-260h-1064v260zM985 -530q-78 0 -133.5 52.5t-55.5 125.5q0 74 55.5 126.5t133.5 52.5t133.5 -52.5t55.5 -126.5q0 -73 -55.5 -125.5t-133.5 -52.5z" />
    <glyph glyph-name="uni1EA2" unicode="&#x1ea2;" horiz-adv-x="1971" 
d="M398 0h-328l737 2048h357l737 -2048h-328l-579 1676h-16zM453 802h1064v-260h-1064v260zM1108 2260h-236l-8 204q106 5 150 28.5t43 68.5q1 54 -60.5 77t-149.5 23l9 165q227 0 344.5 -72t116.5 -194q1 -99 -64.5 -145.5t-144.5 -58.5v-96z" />
    <glyph glyph-name="uni1EA4" unicode="&#x1ea4;" horiz-adv-x="1971" 
d="M398 0h-328l737 2048h357l737 -2048h-328l-579 1676h-16zM453 802h1064v-260h-1064v260zM468 2232l406 347h223l407 -347h-294l-222 198l-224 -198h-296zM1397 2454l209 365h305l-295 -365h-219z" />
    <glyph glyph-name="uni1EA6" unicode="&#x1ea6;" horiz-adv-x="1971" 
d="M398 0h-328l737 2048h357l737 -2048h-328l-579 1676h-16zM453 802h1064v-260h-1064v260zM1095 2574l408 -347h-295l-222 198l-223 -198h-294l403 347h223zM367 2816l206 -367h-215l-298 367h307z" />
    <glyph glyph-name="uni1EA8" unicode="&#x1ea8;" horiz-adv-x="1971" 
d="M398 0h-328l737 2048h357l737 -2048h-328l-579 1676h-16zM453 802h1064v-260h-1064v260zM1116 2556l385 -347h-263l-256 227l-253 -227h-263l384 347h266zM1558 2396h-186l-6 172q84 6 124 23t40 58q0 48 -52 66.5t-131 18.5l9 142q188 0 285 -60.5t97 -164.5
q0 -85 -56 -125.5t-124 -49.5v-80z" />
    <glyph glyph-name="uni1EAA" unicode="&#x1eaa;" horiz-adv-x="1971" 
d="M398 0h-328l737 2048h357l737 -2048h-328l-579 1676h-16zM453 802h1064v-260h-1064v260zM1085 2516l415 -327h-264l-253 198l-252 -198h-265l415 327h204zM1221 2864l124 -39q0 -81 -61 -148.5t-154 -67.5q-50 0 -86.5 14t-66 33t-60.5 33t-71 14q-39 0 -70.5 -31
t-31.5 -68l-120 32q0 80 59.5 149t152.5 69q41 0 76.5 -13.5t68.5 -31t67 -31.5t72 -14q39 0 70 31.5t31 68.5z" />
    <glyph glyph-name="uni1EAC" unicode="&#x1eac;" horiz-adv-x="1971" 
d="M398 0h-328l737 2048h357l737 -2048h-328l-579 1676h-16zM453 802h1064v-260h-1064v260zM780 2232h-270v15l351 424h249l352 -424v-15h-271l-205 268zM985 -530q-78 0 -133.5 52.5t-55.5 125.5q0 74 55.5 126.5t133.5 52.5t133.5 -52.5t55.5 -126.5q0 -73 -55.5 -125.5
t-133.5 -52.5z" />
    <glyph glyph-name="uni1EAE" unicode="&#x1eae;" horiz-adv-x="1971" 
d="M398 0h-328l737 2048h357l737 -2048h-328l-579 1676h-16zM453 802h1064v-260h-1064v260zM1183 2522h241q0 -133 -120 -217.5t-326 -84.5t-325.5 84.5t-119.5 217.5h240q0 -62 46.5 -109t158.5 -47q110 0 157.5 47t47.5 109zM886 2543l158 266h247l-232 -266h-173z" />
    <glyph glyph-name="uni1EB0" unicode="&#x1eb0;" horiz-adv-x="1971" 
d="M398 0h-328l737 2048h357l737 -2048h-328l-579 1676h-16zM453 802h1064v-260h-1064v260zM1183 2523h241q0 -132 -119.5 -216.5t-326.5 -84.5q-206 0 -325.5 84.5t-119.5 216.5h240q0 -62 46.5 -109t158.5 -47q110 0 157.5 47t47.5 109zM916 2543l-232 266h247l157 -266
h-172z" />
    <glyph glyph-name="uni1EB2" unicode="&#x1eb2;" horiz-adv-x="1971" 
d="M398 0h-328l737 2048h357l737 -2048h-328l-579 1676h-16zM453 802h1064v-260h-1064v260zM1171 2536h236q1 -133 -116 -216.5t-320 -83.5q-200 0 -317.5 83.5t-117.5 216.5h235q1 -62 47 -107.5t153 -45.5q109 0 155 45.5t45 107.5zM1085 2570h-212l-11 164
q100 3 145 18.5t44 51.5q1 43 -58.5 59t-148.5 16l12 127q215 0 323.5 -54.5t108.5 -145.5q0 -77 -63.5 -111.5t-139.5 -43.5v-81z" />
    <glyph glyph-name="uni1EB4" unicode="&#x1eb4;" horiz-adv-x="1971" 
d="M398 0h-328l737 2048h357l737 -2048h-328l-579 1676h-16zM453 802h1064v-260h-1064v260zM1176 2546h238q0 -135 -118 -221t-322 -86q-201 0 -320 86t-119 221h237q0 -62 45.5 -108.5t156.5 -46.5q109 0 155 46.5t47 108.5zM1240 2958l139 -42q0 -100 -65.5 -174
t-166.5 -74q-75 0 -122 24.5t-89.5 48.5t-102.5 24q-43 0 -73.5 -34t-30.5 -85l-140 34q0 99 65 177t167 78q45 0 83.5 -14.5t74.5 -34t74 -34t82 -14.5q42 0 73.5 34.5t31.5 85.5z" />
    <glyph glyph-name="uni1EB6" unicode="&#x1eb6;" horiz-adv-x="1971" 
d="M398 0h-328l737 2048h357l737 -2048h-328l-579 1676h-16zM453 802h1064v-260h-1064v260zM1182 2568h246q0 -169 -119.5 -274.5t-322.5 -105.5q-202 0 -321 105.5t-119 274.5h245q0 -75 44 -132.5t151 -57.5q105 0 150.5 57t45.5 133zM985 -530q-78 0 -133.5 52.5
t-55.5 125.5q0 74 55.5 126.5t133.5 52.5t133.5 -52.5t55.5 -126.5q0 -73 -55.5 -125.5t-133.5 -52.5z" />
    <glyph glyph-name="uni0391" unicode="&#x391;" horiz-adv-x="1971" 
d="M398 0h-328l737 2048h357l737 -2048h-328l-579 1676h-16zM453 802h1064v-260h-1064v260z" />
    <glyph glyph-name="uni0386" unicode="&#x386;" horiz-adv-x="1971" 
d="M398 0h-328l737 2048h357l737 -2048h-328l-579 1676h-16zM453 802h1064v-260h-1064v260zM284 1712l81 470h297l-185 -470h-193z" />
    <glyph glyph-name="uni1F08" unicode="&#x1f08;" horiz-adv-x="1971" 
d="M398 0h-328l737 2048h357l737 -2048h-328l-579 1676h-16zM453 802h1064v-260h-1064v260zM584 2048v-118q0 -82 -29.5 -153t-84 -128t-131.5 -97l-112 98q40 37 64.5 80t36 94.5t11.5 113.5v110h245z" />
    <glyph glyph-name="uni1F09" unicode="&#x1f09;" horiz-adv-x="1971" 
d="M398 0h-328l737 2048h357l737 -2048h-328l-579 1676h-16zM453 802h1064v-260h-1064v260zM257 1930v118h246v-110q0 -60 11 -111.5t35.5 -95t64.5 -81.5l-112 -98q-113 60 -179 157.5t-66 220.5z" />
    <glyph glyph-name="uni1F0A" unicode="&#x1f0a;" horiz-adv-x="1971" 
d="M398 0h-328l737 2048h357l737 -2048h-328l-579 1676h-16zM453 802h1064v-260h-1064v260zM571 1604v-20h-129l-320 436v28h292zM58 2048v-112q1 -80 -29 -151t-87.5 -130t-138.5 -103l-109 84q55 63 84 136.5t29 171.5v104h251z" />
    <glyph glyph-name="uni1F0B" unicode="&#x1f0b;" horiz-adv-x="1971" 
d="M398 0h-328l737 2048h357l737 -2048h-328l-579 1676h-16zM453 802h1064v-260h-1064v260zM584 1607v-24h-130l-319 437v28h295zM-211 1930v118h247v-110q0 -90 25.5 -160.5t86.5 -127.5l-112 -98q-114 60 -180.5 157.5t-66.5 220.5z" />
    <glyph glyph-name="uni1F0C" unicode="&#x1f0c;" horiz-adv-x="1971" 
d="M398 0h-328l737 2048h357l737 -2048h-328l-579 1676h-16zM453 802h1064v-260h-1064v260zM183 1583v24l158 441h291v-28l-319 -437h-130zM156 2048v-118q0 -82 -30 -153t-85.5 -128t-131.5 -97l-111 98q58 57 84.5 127.5t26.5 160.5v110h247z" />
    <glyph glyph-name="uni1F0D" unicode="&#x1f0d;" horiz-adv-x="1971" 
d="M398 0h-328l737 2048h357l737 -2048h-328l-579 1676h-16zM453 802h1064v-260h-1064v260zM169 1583v24l153 441h295v-28l-320 -437h-128zM-248 1930v118h246v-110q0 -93 27 -162.5t83 -125.5l-111 -98q-112 59 -178.5 156t-66.5 222z" />
    <glyph glyph-name="uni1F0E" unicode="&#x1f0e;" horiz-adv-x="1971" 
d="M398 0h-328l737 2048h357l737 -2048h-328l-579 1676h-16zM453 802h1064v-260h-1064v260zM612 2378l138 -42q0 -99 -65 -173.5t-167 -74.5q-55 0 -94.5 14.5t-72 34t-66.5 34.5t-80 15q-44 0 -73.5 -35t-29.5 -85l-138 37q0 99 63.5 177t165.5 78q47 0 85 -14.5t74 -35
t73.5 -35.5t80.5 -15t74.5 34.5t31.5 85.5zM489 2019v-101q0 -86 -47.5 -171.5t-133.5 -138.5l-117 79q48 50 66.5 108t18.5 123v101h213z" />
    <glyph glyph-name="uni1F0F" unicode="&#x1f0f;" horiz-adv-x="1971" 
d="M398 0h-328l737 2048h357l737 -2048h-328l-579 1676h-16zM453 802h1064v-260h-1064v260zM246 1918v101h213v-101q0 -65 18.5 -123t66.5 -108l-121 -79q-84 53 -130.5 138t-46.5 172zM591 2378l138 -42q0 -99 -65 -173.5t-167 -74.5q-55 0 -94.5 14.5t-72 34t-66.5 34.5
t-80 15q-44 0 -73.5 -35t-29.5 -85l-138 37q0 99 63.5 177t165.5 78q47 0 85 -14.5t74 -35t73.5 -35.5t80.5 -15t74.5 34.5t31.5 85.5z" />
    <glyph glyph-name="uni1FB8" unicode="&#x1fb8;" horiz-adv-x="1971" 
d="M398 0h-328l737 2048h357l737 -2048h-328l-579 1676h-16zM453 802h1064v-260h-1064v260zM1182 2568h246q0 -169 -119.5 -274.5t-322.5 -105.5q-202 0 -321 105.5t-119 274.5h245q0 -75 44 -132.5t151 -57.5q105 0 150.5 57t45.5 133z" />
    <glyph glyph-name="uni1FB9" unicode="&#x1fb9;" horiz-adv-x="1971" 
d="M398 0h-328l737 2048h357l737 -2048h-328l-579 1676h-16zM453 802h1064v-260h-1064v260zM1460 2560v-210h-949v210h949z" />
    <glyph glyph-name="uni1FBA" unicode="&#x1fba;" horiz-adv-x="1971" 
d="M398 0h-328l737 2048h357l737 -2048h-328l-579 1676h-16zM453 802h1064v-260h-1064v260zM569 1580h-128l-319 440v28h291l156 -439v-29z" />
    <glyph glyph-name="uni023A" unicode="&#x23a;" horiz-adv-x="1971" 
d="M1621 2308l-885 -2568h-239l885 2568h239zM398 0h-328l737 2048h357l737 -2048h-328l-579 1676h-16zM453 802h1064v-260h-1064v260z" />
    <glyph glyph-name="uni1FBB" unicode="&#x1fbb;" horiz-adv-x="1971" 
d="M398 0h-328l737 2048h357l737 -2048h-328l-579 1676h-16zM453 802h1064v-260h-1064v260zM289 1728v29l154 439h321v-28l-319 -440h-156z" />
    <glyph glyph-name="uni0410" unicode="&#x410;" horiz-adv-x="1971" 
d="M398 0h-328l737 2048h357l737 -2048h-328l-579 1676h-16zM453 802h1064v-260h-1064v260z" />
    <glyph glyph-name="uni04D0" unicode="&#x4d0;" horiz-adv-x="1971" 
d="M398 0h-328l737 2048h357l737 -2048h-328l-579 1676h-16zM453 802h1064v-260h-1064v260zM1182 2568h246q0 -169 -119.5 -274.5t-322.5 -105.5q-202 0 -321 105.5t-119 274.5h245q0 -75 44 -132.5t151 -57.5q105 0 150.5 57t45.5 133z" />
    <glyph glyph-name="uni04D2" unicode="&#x4d2;" horiz-adv-x="1971" 
d="M398 0h-328l737 2048h357l737 -2048h-328l-579 1676h-16zM453 802h1064v-260h-1064v260zM692 2289q-71 0 -124 52.5t-53 121.5q0 75 53 125t124 50q75 0 125.5 -50t50.5 -125q0 -69 -50.5 -121.5t-125.5 -52.5zM1280 2289q-71 0 -124 52.5t-53 121.5q0 75 53 125t124 50
q75 0 125.5 -50t50.5 -125q0 -69 -50.5 -121.5t-125.5 -52.5z" />
    <glyph glyph-name="uni1F88" unicode="&#x1f88;" horiz-adv-x="1971" 
d="M398 0h-328l737 2048h357l737 -2048h-328l-579 1676h-16zM453 802h1064v-260h-1064v260zM1116 -680q-104 0 -172.5 60.5t-68.5 196.5v299h223v-296q0 -54 18 -76.5t52 -22.5q17 0 34.5 2t26.5 2v-148q-19 -7 -46 -12t-67 -5zM584 2048v-118q0 -82 -29.5 -153t-84 -128
t-131.5 -97l-112 98q40 37 64.5 80t36 94.5t11.5 113.5v110h245z" />
    <glyph glyph-name="uni1F89" unicode="&#x1f89;" horiz-adv-x="1971" 
d="M398 0h-328l737 2048h357l737 -2048h-328l-579 1676h-16zM453 802h1064v-260h-1064v260zM1116 -680q-104 0 -172.5 60.5t-68.5 196.5v299h223v-296q0 -54 18 -76.5t52 -22.5q17 0 34.5 2t26.5 2v-148q-19 -7 -46 -12t-67 -5zM257 1930v118h246v-110q0 -60 11 -111.5
t35.5 -95t64.5 -81.5l-112 -98q-113 60 -179 157.5t-66 220.5z" />
    <glyph glyph-name="uni1F8A" unicode="&#x1f8a;" horiz-adv-x="1971" 
d="M398 0h-328l737 2048h357l737 -2048h-328l-579 1676h-16zM453 802h1064v-260h-1064v260zM1116 -680q-104 0 -172.5 60.5t-68.5 196.5v299h223v-296q0 -54 18 -76.5t52 -22.5q17 0 34.5 2t26.5 2v-148q-19 -7 -46 -12t-67 -5zM571 1604v-20h-129l-320 436v28h292zM58 2048
v-112q1 -80 -29 -151t-87.5 -130t-138.5 -103l-109 84q55 63 84 136.5t29 171.5v104h251z" />
    <glyph glyph-name="uni1F8B" unicode="&#x1f8b;" horiz-adv-x="1971" 
d="M398 0h-328l737 2048h357l737 -2048h-328l-579 1676h-16zM453 802h1064v-260h-1064v260zM1116 -680q-104 0 -172.5 60.5t-68.5 196.5v299h223v-296q0 -54 18 -76.5t52 -22.5q17 0 34.5 2t26.5 2v-148q-19 -7 -46 -12t-67 -5zM584 1607v-24h-130l-319 437v28h295z
M-211 1930v118h247v-110q0 -90 25.5 -160.5t86.5 -127.5l-112 -98q-114 60 -180.5 157.5t-66.5 220.5z" />
    <glyph glyph-name="uni1F8C" unicode="&#x1f8c;" horiz-adv-x="1971" 
d="M398 0h-328l737 2048h357l737 -2048h-328l-579 1676h-16zM453 802h1064v-260h-1064v260zM183 1583v24l158 441h291v-28l-319 -437h-130zM156 2048v-118q0 -82 -30 -153t-85.5 -128t-131.5 -97l-111 98q58 57 84.5 127.5t26.5 160.5v110h247zM1116 -680
q-104 0 -172.5 60.5t-68.5 196.5v299h223v-296q0 -54 18 -76.5t52 -22.5q17 0 34.5 2t26.5 2v-148q-19 -7 -46 -12t-67 -5z" />
    <glyph glyph-name="uni1F8D" unicode="&#x1f8d;" horiz-adv-x="1971" 
d="M398 0h-328l737 2048h357l737 -2048h-328l-579 1676h-16zM453 802h1064v-260h-1064v260zM1116 -680q-104 0 -172.5 60.5t-68.5 196.5v299h223v-296q0 -54 18 -76.5t52 -22.5q17 0 34.5 2t26.5 2v-148q-19 -7 -46 -12t-67 -5zM169 1583v24l153 441h295v-28l-320 -437h-128
zM-248 1930v118h246v-110q0 -93 27 -162.5t83 -125.5l-111 -98q-112 59 -178.5 156t-66.5 222z" />
    <glyph glyph-name="uni1F8E" unicode="&#x1f8e;" horiz-adv-x="1971" 
d="M398 0h-328l737 2048h357l737 -2048h-328l-579 1676h-16zM453 802h1064v-260h-1064v260zM612 2378l138 -42q0 -99 -65 -173.5t-167 -74.5q-55 0 -94.5 14.5t-72 34t-66.5 34.5t-80 15q-44 0 -73.5 -35t-29.5 -85l-138 37q0 99 63.5 177t165.5 78q47 0 85 -14.5t74 -35
t73.5 -35.5t80.5 -15t74.5 34.5t31.5 85.5zM489 2019v-101q0 -86 -47.5 -171.5t-133.5 -138.5l-117 79q48 50 66.5 108t18.5 123v101h213zM1116 -680q-104 0 -172.5 60.5t-68.5 196.5v299h223v-296q0 -54 18 -76.5t52 -22.5q17 0 34.5 2t26.5 2v-148q-19 -7 -46 -12t-67 -5z
" />
    <glyph glyph-name="uni1F8F" unicode="&#x1f8f;" horiz-adv-x="1971" 
d="M398 0h-328l737 2048h357l737 -2048h-328l-579 1676h-16zM453 802h1064v-260h-1064v260zM1116 -680q-104 0 -172.5 60.5t-68.5 196.5v299h223v-296q0 -54 18 -76.5t52 -22.5q17 0 34.5 2t26.5 2v-148q-19 -7 -46 -12t-67 -5zM246 1918v101h213v-101q0 -65 18.5 -123
t66.5 -108l-121 -79q-84 53 -130.5 138t-46.5 172zM591 2378l138 -42q0 -99 -65 -173.5t-167 -74.5q-55 0 -94.5 14.5t-72 34t-66.5 34.5t-80 15q-44 0 -73.5 -35t-29.5 -85l-138 37q0 99 63.5 177t165.5 78q47 0 85 -14.5t74 -35t73.5 -35.5t80.5 -15t74.5 34.5t31.5 85.5z
" />
    <glyph glyph-name="uni1FBC" unicode="&#x1fbc;" horiz-adv-x="1971" 
d="M398 0h-328l737 2048h357l737 -2048h-328l-579 1676h-16zM453 802h1064v-260h-1064v260zM1116 -680q-104 0 -172.5 60.5t-68.5 196.5v299h223v-296q0 -54 18 -76.5t52 -22.5q17 0 34.5 2t26.5 2v-148q-19 -7 -46 -12t-67 -5z" />
    <glyph glyph-name="uni039B" unicode="&#x39b;" horiz-adv-x="1971" 
d="M398 0h-328l737 2048h357l737 -2048h-328l-579 1676h-16z" />
    <glyph glyph-name="uni00C6" unicode="&#xc6;" horiz-adv-x="2826" 
d="M70 0l954 2048h1613v-266h-975v-624h908v-265h-908v-627h987v-266h-1296v1759h-147l-796 -1759h-340zM518 542v260h1000v-260h-1000z" />
    <glyph glyph-name="uni01E2" unicode="&#x1e2;" horiz-adv-x="2826" 
d="M70 0l954 2048h1613v-266h-975v-624h908v-265h-908v-627h987v-266h-1296v1759h-147l-796 -1759h-340zM518 542v260h1000v-260h-1000zM2303 2560v-210h-949v210h949z" />
    <glyph glyph-name="uni01FC" unicode="&#x1fc;" horiz-adv-x="2826" 
d="M70 0l954 2048h1613v-266h-975v-624h908v-265h-908v-627h987v-266h-1296v1759h-147l-796 -1759h-340zM518 542v260h1000v-260h-1000zM1705 2253l234 461h315l-310 -461h-239z" />
    <glyph glyph-name="uni04D4" unicode="&#x4d4;" horiz-adv-x="2826" 
d="M70 0l954 2048h1613v-266h-975v-624h908v-265h-908v-627h987v-266h-1296v1759h-147l-796 -1759h-340zM518 542v260h1000v-260h-1000z" />
    <glyph glyph-name="uni0042" unicode="B" horiz-adv-x="1842" 
d="M225 0v2048h750q218 0 361 -71.5t214 -193t71 -273.5q0 -128 -47 -215.5t-125.5 -140t-172.5 -76.5v-20q102 -5 199.5 -65.5t161.5 -171.5t64 -270q0 -157 -73.5 -281.5t-226.5 -197t-391 -72.5h-785zM534 265h446q222 0 318 86t96 215q0 97 -49 178t-139.5 129
t-214.5 48h-457v-656zM534 1162h414q104 0 187.5 40t133 112.5t49.5 171.5q0 127 -89 213t-273 86h-422v-623z" />
    <glyph glyph-name="uni1E02" unicode="&#x1e02;" horiz-adv-x="1842" 
d="M225 0v2048h750q218 0 361 -71.5t214 -193t71 -273.5q0 -128 -47 -215.5t-125.5 -140t-172.5 -76.5v-20q102 -5 199.5 -65.5t161.5 -171.5t64 -270q0 -157 -73.5 -281.5t-226.5 -197t-391 -72.5h-785zM534 265h446q222 0 318 86t96 215q0 97 -49 178t-139.5 129
t-214.5 48h-457v-656zM534 1162h414q104 0 187.5 40t133 112.5t49.5 171.5q0 127 -89 213t-273 86h-422v-623zM884 2285q-78 0 -133.5 52.5t-55.5 125.5q0 74 55.5 126.5t133.5 52.5t133.5 -52.5t55.5 -126.5q0 -73 -55.5 -125.5t-133.5 -52.5z" />
    <glyph glyph-name="uni1E04" unicode="&#x1e04;" horiz-adv-x="1842" 
d="M225 0v2048h750q218 0 361 -71.5t214 -193t71 -273.5q0 -128 -47 -215.5t-125.5 -140t-172.5 -76.5v-20q102 -5 199.5 -65.5t161.5 -171.5t64 -270q0 -157 -73.5 -281.5t-226.5 -197t-391 -72.5h-785zM534 265h446q222 0 318 86t96 215q0 97 -49 178t-139.5 129
t-214.5 48h-457v-656zM534 1162h414q104 0 187.5 40t133 112.5t49.5 171.5q0 127 -89 213t-273 86h-422v-623zM893 -530q-78 0 -133.5 52.5t-55.5 125.5q0 74 55.5 126.5t133.5 52.5t133.5 -52.5t55.5 -126.5q0 -73 -55.5 -125.5t-133.5 -52.5z" />
    <glyph glyph-name="uni1E06" unicode="&#x1e06;" horiz-adv-x="1842" 
d="M225 0v2048h750q218 0 361 -71.5t214 -193t71 -273.5q0 -128 -47 -215.5t-125.5 -140t-172.5 -76.5v-20q102 -5 199.5 -65.5t161.5 -171.5t64 -270q0 -157 -73.5 -281.5t-226.5 -197t-391 -72.5h-785zM534 265h446q222 0 318 86t96 215q0 97 -49 178t-139.5 129
t-214.5 48h-457v-656zM534 1162h414q104 0 187.5 40t133 112.5t49.5 171.5q0 127 -89 213t-273 86h-422v-623zM1367 -253v-210h-949v210h949z" />
    <glyph glyph-name="uni0243" unicode="&#x243;" horiz-adv-x="2005" 
d="M388 0v2048h750q218 0 361 -71.5t214 -193t71 -273.5q0 -128 -47 -215.5t-125.5 -140t-172.5 -76.5v-20q102 -5 199.5 -65.5t161.5 -171.5t64 -270q0 -157 -73.5 -281.5t-226.5 -197t-391 -72.5h-785zM697 265h446q222 0 318 86t96 215q0 97 -49 178t-139.5 129
t-214.5 48h-457v-656zM697 1162h414q104 0 187.5 40t133 112.5t49.5 171.5q0 127 -89 213t-273 86h-422v-623zM79 489v207h919v-207h-919z" />
    <glyph glyph-name="uni0181" unicode="&#x181;" horiz-adv-x="2320" 
d="M824 1783h-230q-81 0 -121 -36.5t-53 -93.5t-13 -120v-91h-283v158q0 128 55 229.5t159.5 160t252.5 58.5h233v-265zM703 0v2048h751q218 0 361 -71.5t213.5 -193t70.5 -273.5q0 -128 -47 -215.5t-125 -140t-173 -76.5v-20q102 -5 199.5 -65.5t161.5 -171.5t64 -270
q0 -157 -73.5 -281.5t-226.5 -197t-391 -72.5h-785zM1013 265h445q223 0 319 86t96 215q0 97 -49 178t-139.5 129t-214.5 48h-457v-656zM1013 1162h413q105 0 188.5 40t132.5 112.5t49 171.5q0 127 -89 213t-273 86h-421v-623z" />
    <glyph glyph-name="uni0412" unicode="&#x412;" horiz-adv-x="1842" 
d="M225 0v2048h750q218 0 361 -71.5t214 -193t71 -273.5q0 -128 -47 -215.5t-125.5 -140t-172.5 -76.5v-20q102 -5 199.5 -65.5t161.5 -171.5t64 -270q0 -157 -73.5 -281.5t-226.5 -197t-391 -72.5h-785zM534 265h446q222 0 318 86t96 215q0 97 -49 178t-139.5 129
t-214.5 48h-457v-656zM534 1162h414q104 0 187.5 40t133 112.5t49.5 171.5q0 127 -89 213t-273 86h-422v-623z" />
    <glyph glyph-name="uni0392" unicode="&#x392;" horiz-adv-x="1842" 
d="M225 0v2048h750q218 0 361 -71.5t214 -193t71 -273.5q0 -128 -47 -215.5t-125.5 -140t-172.5 -76.5v-20q102 -5 199.5 -65.5t161.5 -171.5t64 -270q0 -157 -73.5 -281.5t-226.5 -197t-391 -72.5h-785zM534 265h446q222 0 318 86t96 215q0 97 -49 178t-139.5 129
t-214.5 48h-457v-656zM534 1162h414q104 0 187.5 40t133 112.5t49.5 171.5q0 127 -89 213t-273 86h-422v-623z" />
    <glyph glyph-name="uni0043" unicode="C" horiz-adv-x="2071" 
d="M1926 1382h-312q-18 100 -67 176t-120 129t-158.5 80t-185.5 27q-177 0 -316.5 -89t-220 -261t-80.5 -420q0 -250 80.5 -422t220.5 -260t315 -88q97 0 184.5 26.5t158.5 78.5t120.5 127.5t68.5 173.5l312 -1q-25 -151 -96.5 -277.5t-183 -218t-254.5 -141.5t-312 -50
q-266 0 -474 126.5t-327.5 362.5t-119.5 563q0 328 120 563.5t328 362t473 126.5q163 0 304.5 -46.5t254.5 -136t187 -218t100 -293.5z" />
    <glyph glyph-name="uni0187" unicode="&#x187;" horiz-adv-x="2234" 
d="M1926 1382h-296v247q0 147 63.5 249.5t170.5 155.5t236 53q41 0 81.5 -1.5t76.5 -10.5v-248q-18 3 -43.5 5t-47.5 2q-64 0 -119 -20t-88.5 -69t-33.5 -135v-228zM1926 1382h-312q-18 100 -67 176t-120 129t-158.5 80t-185.5 27q-177 0 -316.5 -89t-220 -261t-80.5 -420
q0 -250 80.5 -422t220.5 -260t315 -88q97 0 184.5 26.5t158.5 78.5t120.5 127.5t68.5 173.5l312 -1q-25 -151 -96.5 -277.5t-183 -218t-254.5 -141.5t-312 -50q-266 0 -474 126.5t-327.5 362.5t-119.5 563q0 328 120 563.5t328 362t473 126.5q163 0 304.5 -46.5t254.5 -136
t187 -218t100 -293.5z" />
    <glyph glyph-name="uni00C7" unicode="&#xc7;" horiz-adv-x="2071" 
d="M1926 1382h-312q-18 100 -67 176t-120 129t-158.5 80t-185.5 27q-177 0 -316.5 -89t-220 -261t-80.5 -420q0 -250 80.5 -422t220.5 -260t315 -88q97 0 184.5 26.5t158.5 78.5t120.5 127.5t68.5 173.5l312 -1q-25 -151 -96.5 -277.5t-183 -218t-254.5 -141.5t-312 -50
q-266 0 -474 126.5t-327.5 362.5t-119.5 563q0 328 120 563.5t328 362t473 126.5q163 0 304.5 -46.5t254.5 -136t187 -218t100 -293.5zM975 -3h196l-16 -82q87 -14 152 -70t65 -169q1 -135 -116.5 -219t-339.5 -84l-6 167q104 0 168.5 30t65.5 97t-49.5 94t-160.5 38z" />
    <glyph glyph-name="uni0106" unicode="&#x106;" horiz-adv-x="2071" 
d="M1926 1382h-312q-18 100 -67 176t-120 129t-158.5 80t-185.5 27q-177 0 -316.5 -89t-220 -261t-80.5 -420q0 -250 80.5 -422t220.5 -260t315 -88q97 0 184.5 26.5t158.5 78.5t120.5 127.5t68.5 173.5l312 -1q-25 -151 -96.5 -277.5t-183 -218t-254.5 -141.5t-312 -50
q-266 0 -474 126.5t-327.5 362.5t-119.5 563q0 328 120 563.5t328 362t473 126.5q163 0 304.5 -46.5t254.5 -136t187 -218t100 -293.5zM957 2253l234 461h315l-310 -461h-239z" />
    <glyph glyph-name="uni0108" unicode="&#x108;" horiz-adv-x="2071" 
d="M1926 1382h-312q-18 100 -67 176t-120 129t-158.5 80t-185.5 27q-177 0 -316.5 -89t-220 -261t-80.5 -420q0 -250 80.5 -422t220.5 -260t315 -88q97 0 184.5 26.5t158.5 78.5t120.5 127.5t68.5 173.5l312 -1q-25 -151 -96.5 -277.5t-183 -218t-254.5 -141.5t-312 -50
q-266 0 -474 126.5t-327.5 362.5t-119.5 563q0 328 120 563.5t328 362t473 126.5q163 0 304.5 -46.5t254.5 -136t187 -218t100 -293.5zM874 2232h-270v15l351 424h249l352 -424v-15h-271l-205 268z" />
    <glyph glyph-name="uni010A" unicode="&#x10a;" horiz-adv-x="2071" 
d="M1926 1382h-312q-18 100 -67 176t-120 129t-158.5 80t-185.5 27q-177 0 -316.5 -89t-220 -261t-80.5 -420q0 -250 80.5 -422t220.5 -260t315 -88q97 0 184.5 26.5t158.5 78.5t120.5 127.5t68.5 173.5l312 -1q-25 -151 -96.5 -277.5t-183 -218t-254.5 -141.5t-312 -50
q-266 0 -474 126.5t-327.5 362.5t-119.5 563q0 328 120 563.5t328 362t473 126.5q163 0 304.5 -46.5t254.5 -136t187 -218t100 -293.5zM1080 2285q-78 0 -133.5 52.5t-55.5 125.5q0 74 55.5 126.5t133.5 52.5t133.5 -52.5t55.5 -126.5q0 -73 -55.5 -125.5t-133.5 -52.5z" />
    <glyph glyph-name="uni010C" unicode="&#x10c;" horiz-adv-x="2071" 
d="M1926 1382h-312q-18 100 -67 176t-120 129t-158.5 80t-185.5 27q-177 0 -316.5 -89t-220 -261t-80.5 -420q0 -250 80.5 -422t220.5 -260t315 -88q97 0 184.5 26.5t158.5 78.5t120.5 127.5t68.5 173.5l312 -1q-25 -151 -96.5 -277.5t-183 -218t-254.5 -141.5t-312 -50
q-266 0 -474 126.5t-327.5 362.5t-119.5 563q0 328 120 563.5t328 362t473 126.5q163 0 304.5 -46.5t254.5 -136t187 -218t100 -293.5zM874 2671l206 -268l205 268h271v-15l-352 -424h-249l-351 424v15h270z" />
    <glyph glyph-name="uni1E08" unicode="&#x1e08;" horiz-adv-x="2071" 
d="M1926 1382h-312q-18 100 -67 176t-120 129t-158.5 80t-185.5 27q-177 0 -316.5 -89t-220 -261t-80.5 -420q0 -250 80.5 -422t220.5 -260t315 -88q97 0 184.5 26.5t158.5 78.5t120.5 127.5t68.5 173.5l312 -1q-25 -151 -96.5 -277.5t-183 -218t-254.5 -141.5t-312 -50
q-266 0 -474 126.5t-327.5 362.5t-119.5 563q0 328 120 563.5t328 362t473 126.5q163 0 304.5 -46.5t254.5 -136t187 -218t100 -293.5zM975 -3h196l-16 -82q87 -14 152 -70t65 -169q1 -135 -116.5 -219t-339.5 -84l-6 167q104 0 168.5 30t65.5 97t-49.5 94t-160.5 38z
M957 2253l234 461h315l-310 -461h-239z" />
    <glyph glyph-name="uni023B" unicode="&#x23b;" horiz-adv-x="2071" 
d="M482 -260l885 2568h239l-884 -2568h-240zM1926 1382h-312q-18 100 -67 176t-120 129t-158.5 80t-185.5 27q-177 0 -316.5 -89t-220 -261t-80.5 -420q0 -250 80.5 -422t220.5 -260t315 -88q97 0 184.5 26.5t158.5 78.5t120.5 127.5t68.5 173.5l312 -1
q-25 -151 -96.5 -277.5t-183 -218t-254.5 -141.5t-312 -50q-266 0 -474 126.5t-327.5 362.5t-119.5 563q0 328 120 563.5t328 362t473 126.5q163 0 304.5 -46.5t254.5 -136t187 -218t100 -293.5z" />
    <glyph glyph-name="uni0186" unicode="&#x186;" horiz-adv-x="2071" 
d="M146 1382q26 165 100 293.5t186.5 218t254.5 136t304 46.5q265 0 473 -126.5t328 -362t120 -563.5q0 -327 -119.5 -563t-327.5 -362.5t-474 -126.5q-168 0 -311.5 50t-254.5 141.5t-182.5 218t-96.5 277.5l311 1q20 -98 69 -173.5t120 -127.5t158.5 -78.5t184.5 -26.5
q176 0 315.5 88t220.5 260t81 422q0 248 -81 420t-220.5 261t-316.5 89q-98 0 -185.5 -27t-158.5 -80t-119.5 -129t-67.5 -176h-311z" />
    <glyph glyph-name="uni03F9" unicode="&#x3f9;" horiz-adv-x="2071" 
d="M1926 1382h-312q-18 100 -67 176t-120 129t-158.5 80t-185.5 27q-177 0 -316.5 -89t-220 -261t-80.5 -420q0 -250 80.5 -422t220.5 -260t315 -88q97 0 184.5 26.5t158.5 78.5t120.5 127.5t68.5 173.5l312 -1q-25 -151 -96.5 -277.5t-183 -218t-254.5 -141.5t-312 -50
q-266 0 -474 126.5t-327.5 362.5t-119.5 563q0 328 120 563.5t328 362t473 126.5q163 0 304.5 -46.5t254.5 -136t187 -218t100 -293.5z" />
    <glyph glyph-name="uni0044" unicode="D" horiz-adv-x="2032" 
d="M888 0h-663v2048h684q301 0 517 -122.5t331.5 -351t115.5 -547.5q0 -320 -116.5 -550t-336.5 -353.5t-532 -123.5zM534 270h337q234 0 389 88.5t232 257t77 411.5q0 241 -76.5 409t-227.5 255t-375 87h-356v-1508z" />
    <glyph glyph-name="uni018A" unicode="&#x18a;" horiz-adv-x="2524" 
d="M124 1442v158q0 128 55 229.5t159.5 160t252.5 58.5h233v-270h-230q-81 0 -121 -35t-53 -91t-13 -119v-91h-283zM1380 0h-663v2048h684q301 0 517 -122.5t331.5 -351t115.5 -547.5q0 -320 -116.5 -550t-336.5 -353.5t-532 -123.5zM1026 270h337q234 0 389 88.5t232 257
t77 411.5q0 241 -76.5 409t-227.5 255t-375 87h-356v-1508z" />
    <glyph glyph-name="uni010E" unicode="&#x10e;" horiz-adv-x="2032" 
d="M888 0h-663v2048h684q301 0 517 -122.5t331.5 -351t115.5 -547.5q0 -320 -116.5 -550t-336.5 -353.5t-532 -123.5zM534 270h337q234 0 389 88.5t232 257t77 411.5q0 241 -76.5 409t-227.5 255t-375 87h-356v-1508zM636 2671l206 -268l205 268h271v-15l-352 -424h-249
l-351 424v15h270z" />
    <glyph glyph-name="uni1E0A" unicode="&#x1e0a;" horiz-adv-x="2032" 
d="M888 0h-663v2048h684q301 0 517 -122.5t331.5 -351t115.5 -547.5q0 -320 -116.5 -550t-336.5 -353.5t-532 -123.5zM534 270h337q234 0 389 88.5t232 257t77 411.5q0 241 -76.5 409t-227.5 255t-375 87h-356v-1508zM842 2285q-78 0 -133.5 52.5t-55.5 125.5
q0 74 55.5 126.5t133.5 52.5t133.5 -52.5t55.5 -126.5q0 -73 -55.5 -125.5t-133.5 -52.5z" />
    <glyph glyph-name="uni1E0C" unicode="&#x1e0c;" horiz-adv-x="2032" 
d="M888 0h-663v2048h684q301 0 517 -122.5t331.5 -351t115.5 -547.5q0 -320 -116.5 -550t-336.5 -353.5t-532 -123.5zM534 270h337q234 0 389 88.5t232 257t77 411.5q0 241 -76.5 409t-227.5 255t-375 87h-356v-1508zM870 -530q-78 0 -133.5 52.5t-55.5 125.5
q0 74 55.5 126.5t133.5 52.5t133.5 -52.5t55.5 -126.5q0 -73 -55.5 -125.5t-133.5 -52.5z" />
    <glyph glyph-name="uni1E0E" unicode="&#x1e0e;" horiz-adv-x="2032" 
d="M888 0h-663v2048h684q301 0 517 -122.5t331.5 -351t115.5 -547.5q0 -320 -116.5 -550t-336.5 -353.5t-532 -123.5zM534 270h337q234 0 389 88.5t232 257t77 411.5q0 241 -76.5 409t-227.5 255t-375 87h-356v-1508zM1345 -253v-210h-949v210h949z" />
    <glyph glyph-name="uni1E10" unicode="&#x1e10;" horiz-adv-x="2032" 
d="M888 0h-663v2048h684q301 0 517 -122.5t331.5 -351t115.5 -547.5q0 -320 -116.5 -550t-336.5 -353.5t-532 -123.5zM534 270h337q234 0 389 88.5t232 257t77 411.5q0 241 -76.5 409t-227.5 255t-375 87h-356v-1508zM608 -672l116 510h293l-187 -510h-222z" />
    <glyph glyph-name="uni1E12" unicode="&#x1e12;" horiz-adv-x="2032" 
d="M888 0h-663v2048h684q301 0 517 -122.5t331.5 -351t115.5 -547.5q0 -320 -116.5 -550t-336.5 -353.5t-532 -123.5zM534 270h337q234 0 389 88.5t232 257t77 411.5q0 241 -76.5 409t-227.5 255t-375 87h-356v-1508zM665 -567h-270v15l351 424h249l352 -424v-15h-271
l-205 268z" />
    <glyph glyph-name="uni0189" unicode="&#x189;" horiz-adv-x="2032" 
d="M888 0h-663v2048h684q301 0 517 -122.5t331.5 -351t115.5 -547.5q0 -320 -116.5 -550t-336.5 -353.5t-532 -123.5zM534 270h337q234 0 389 88.5t232 257t77 411.5q0 241 -76.5 409t-227.5 255t-375 87h-356v-1508zM-81 960v207h919v-207h-919z" />
    <glyph glyph-name="uni01F2" unicode="&#x1f2;" horiz-adv-x="3585" 
d="M888 0h-663v2048h684q301 0 517 -122.5t331.5 -351t115.5 -547.5q0 -320 -116.5 -550t-336.5 -353.5t-532 -123.5zM534 270h337q234 0 389 88.5t232 257t77 411.5q0 241 -76.5 409t-227.5 255t-375 87h-356v-1508zM2201 0v205l832 1057v14h-805v260h1178v-218l-800 -1044
v-14h828v-260h-1233z" />
    <glyph glyph-name="uni01C5" unicode="&#x1c5;" horiz-adv-x="3585" 
d="M888 0h-663v2048h684q301 0 517 -122.5t331.5 -351t115.5 -547.5q0 -320 -116.5 -550t-336.5 -353.5t-532 -123.5zM534 270h337q234 0 389 88.5t232 257t77 411.5q0 241 -76.5 409t-227.5 255t-375 87h-356v-1508zM2201 0v205l832 1057v14h-805v260h1178v-218l-800 -1044
v-14h828v-260h-1233zM2601 2159l206 -268l205 268h271v-15l-352 -424h-249l-351 424v15h270z" />
    <glyph glyph-name="uni0045" unicode="E" horiz-adv-x="1698" 
d="M225 0v2048h1284v-266h-975v-624h908v-265h-908v-627h987v-266h-1296z" />
    <glyph glyph-name="uni00C8" unicode="&#xc8;" horiz-adv-x="1698" 
d="M225 0v2048h1284v-266h-975v-624h908v-265h-908v-627h987v-266h-1296zM750 2253l-309 461h315l233 -461h-239z" />
    <glyph glyph-name="uni00C9" unicode="&#xc9;" horiz-adv-x="1698" 
d="M225 0v2048h1284v-266h-975v-624h908v-265h-908v-627h987v-266h-1296zM743 2253l234 461h315l-310 -461h-239z" />
    <glyph glyph-name="uni00CA" unicode="&#xca;" horiz-adv-x="1698" 
d="M225 0v2048h1284v-266h-975v-624h908v-265h-908v-627h987v-266h-1296zM661 2232h-270v15l351 424h249l352 -424v-15h-271l-205 268z" />
    <glyph glyph-name="uni00CB" unicode="&#xcb;" horiz-adv-x="1698" 
d="M225 0v2048h1284v-266h-975v-624h908v-265h-908v-627h987v-266h-1296zM573 2289q-71 0 -124 52.5t-53 121.5q0 75 53 125t124 50q75 0 125.5 -50t50.5 -125q0 -69 -50.5 -121.5t-125.5 -52.5zM1161 2289q-71 0 -124 52.5t-53 121.5q0 75 53 125t124 50q75 0 125.5 -50
t50.5 -125q0 -69 -50.5 -121.5t-125.5 -52.5z" />
    <glyph glyph-name="uni0112" unicode="&#x112;" horiz-adv-x="1698" 
d="M225 0v2048h1284v-266h-975v-624h908v-265h-908v-627h987v-266h-1296zM1341 2560v-210h-949v210h949z" />
    <glyph glyph-name="uni0114" unicode="&#x114;" horiz-adv-x="1698" 
d="M225 0v2048h1284v-266h-975v-624h908v-265h-908v-627h987v-266h-1296zM1063 2568h246q0 -169 -119.5 -274.5t-322.5 -105.5q-202 0 -321 105.5t-119 274.5h245q0 -75 44 -132.5t151 -57.5q105 0 150.5 57t45.5 133z" />
    <glyph glyph-name="uni0116" unicode="&#x116;" horiz-adv-x="1698" 
d="M225 0v2048h1284v-266h-975v-624h908v-265h-908v-627h987v-266h-1296zM867 2285q-78 0 -133.5 52.5t-55.5 125.5q0 74 55.5 126.5t133.5 52.5t133.5 -52.5t55.5 -126.5q0 -73 -55.5 -125.5t-133.5 -52.5z" />
    <glyph glyph-name="uni0118" unicode="&#x118;" horiz-adv-x="1698" 
d="M225 0v2048h1284v-266h-975v-624h908v-265h-908v-627h987v-266h-1296zM1330 -591q-126 0 -209.5 67.5t-91.5 196.5q-5 76 25 153t101 146t188 122l178 -94q-92 -59 -159 -125t-67 -150q0 -46 23 -72t79 -26q41 0 73 11t52 21l26 -190q-35 -21 -89.5 -40.5t-128.5 -19.5z
" />
    <glyph glyph-name="uni011A" unicode="&#x11a;" horiz-adv-x="1698" 
d="M225 0v2048h1284v-266h-975v-624h908v-265h-908v-627h987v-266h-1296zM661 2671l206 -268l205 268h271v-15l-352 -424h-249l-351 424v15h270z" />
    <glyph glyph-name="uni0204" unicode="&#x204;" horiz-adv-x="1698" 
d="M225 0v2048h1284v-266h-975v-624h908v-265h-908v-627h987v-266h-1296zM604 2253l-337 371l175 90l290 -372zM1050 2253l-266 371l201 90l209 -372z" />
    <glyph glyph-name="uni0206" unicode="&#x206;" horiz-adv-x="1698" 
d="M225 0v2048h1284v-266h-975v-624h908v-265h-908v-627h987v-266h-1296zM423 2301q0 168 119 277t323 109t322 -109t118 -277h-245q0 77 -45.5 134.5t-149.5 57.5q-108 0 -152.5 -58.5t-43.5 -133.5h-246z" />
    <glyph glyph-name="uni0228" unicode="&#x228;" horiz-adv-x="1698" 
d="M225 0v2048h1284v-266h-975v-624h908v-265h-908v-627h987v-266h-1296zM752 8h196l-16 -82q87 -14 152 -70t65 -169q1 -135 -116.5 -219t-339.5 -84l-6 167q104 0 168.5 30t65.5 97t-49.5 94t-160.5 38z" />
    <glyph glyph-name="uni1E14" unicode="&#x1e14;" horiz-adv-x="1698" 
d="M225 0v2048h1284v-266h-975v-624h908v-265h-908v-627h987v-266h-1296zM751 2654l-341 321h317l293 -321h-269zM1340 2507v-210h-948v210h948z" />
    <glyph glyph-name="uni1E16" unicode="&#x1e16;" horiz-adv-x="1698" 
d="M225 0v2048h1284v-266h-975v-624h908v-265h-908v-627h987v-266h-1296zM713 2654l293 321h318l-341 -321h-270zM1340 2507v-210h-948v210h948z" />
    <glyph glyph-name="uni1E18" unicode="&#x1e18;" horiz-adv-x="1698" 
d="M225 0v2048h1284v-266h-975v-624h908v-265h-908v-627h987v-266h-1296zM645 -567h-270v15l351 424h249l352 -424v-15h-271l-205 268z" />
    <glyph glyph-name="uni1E1A" unicode="&#x1e1a;" horiz-adv-x="1698" 
d="M225 0v2048h1284v-266h-975v-624h908v-265h-908v-627h987v-266h-1296zM621 -521l-201 6q0 166 89.5 265t221.5 99q61 0 107 -20.5t86.5 -47t81 -47t90.5 -20.5q58 0 94.5 44t36.5 109l197 -13q0 -167 -90 -262.5t-221 -96.5q-71 0 -117.5 20.5t-82.5 47t-74 47.5t-91 21
q-56 0 -91.5 -43.5t-35.5 -108.5z" />
    <glyph glyph-name="uni1E1C" unicode="&#x1e1c;" horiz-adv-x="1698" 
d="M225 0v2048h1284v-266h-975v-624h908v-265h-908v-627h987v-266h-1296zM752 8h196l-16 -82q87 -14 152 -70t65 -169q1 -135 -116.5 -219t-339.5 -84l-6 167q104 0 168.5 30t65.5 97t-49.5 94t-160.5 38zM1063 2568h246q0 -169 -119.5 -274.5t-322.5 -105.5
q-202 0 -321 105.5t-119 274.5h245q0 -75 44 -132.5t151 -57.5q105 0 150.5 57t45.5 133z" />
    <glyph glyph-name="uni1EB8" unicode="&#x1eb8;" horiz-adv-x="1698" 
d="M225 0v2048h1284v-266h-975v-624h908v-265h-908v-627h987v-266h-1296zM850 -530q-78 0 -133.5 52.5t-55.5 125.5q0 74 55.5 126.5t133.5 52.5t133.5 -52.5t55.5 -126.5q0 -73 -55.5 -125.5t-133.5 -52.5z" />
    <glyph glyph-name="uni1EBA" unicode="&#x1eba;" horiz-adv-x="1698" 
d="M225 0v2048h1284v-266h-975v-624h908v-265h-908v-627h987v-266h-1296zM988 2260h-236l-8 204q106 5 150 28.5t43 68.5q1 54 -60.5 77t-149.5 23l9 165q227 0 344.5 -72t116.5 -194q1 -99 -64.5 -145.5t-144.5 -58.5v-96z" />
    <glyph glyph-name="uni1EBC" unicode="&#x1ebc;" horiz-adv-x="1698" 
d="M225 0v2048h1284v-266h-975v-624h908v-265h-908v-627h987v-266h-1296zM565 2234l-201 6q0 166 89.5 265t221.5 99q61 0 107 -20.5t86.5 -47t81 -47t90.5 -20.5q58 0 94.5 44t36.5 109l197 -13q0 -167 -90 -262.5t-221 -96.5q-71 0 -117.5 20.5t-82.5 47t-74 47.5t-91 21
q-56 0 -91.5 -43.5t-35.5 -108.5z" />
    <glyph glyph-name="uni1EBE" unicode="&#x1ebe;" horiz-adv-x="1698" 
d="M225 0v2048h1284v-266h-975v-624h908v-265h-908v-627h987v-266h-1296zM349 2232l406 347h223l407 -347h-294l-222 198l-224 -198h-296zM1278 2454l209 365h305l-295 -365h-219z" />
    <glyph glyph-name="uni1EC0" unicode="&#x1ec0;" horiz-adv-x="1698" 
d="M225 0v2048h1284v-266h-975v-624h908v-265h-908v-627h987v-266h-1296zM976 2574l408 -347h-295l-222 198l-223 -198h-294l403 347h223zM248 2816l206 -367h-215l-298 367h307z" />
    <glyph glyph-name="uni1EC2" unicode="&#x1ec2;" horiz-adv-x="1698" 
d="M225 0v2048h1284v-266h-975v-624h908v-265h-908v-627h987v-266h-1296zM997 2556l385 -347h-263l-256 227l-253 -227h-263l384 347h266zM1439 2396h-186l-6 172q84 6 124 23t40 58q0 48 -52 66.5t-131 18.5l9 142q188 0 285 -60.5t97 -164.5q0 -85 -56 -125.5t-124 -49.5
v-80z" />
    <glyph glyph-name="uni1EC4" unicode="&#x1ec4;" horiz-adv-x="1698" 
d="M225 0v2048h1284v-266h-975v-624h908v-265h-908v-627h987v-266h-1296zM965 2516l415 -327h-264l-253 198l-252 -198h-265l415 327h204zM1101 2864l124 -39q0 -81 -61 -148.5t-154 -67.5q-50 0 -86.5 14t-66 33t-60.5 33t-71 14q-39 0 -70.5 -31t-31.5 -68l-120 32
q0 80 59.5 149t152.5 69q41 0 76.5 -13.5t68.5 -31t67 -31.5t72 -14q39 0 70 31.5t31 68.5z" />
    <glyph glyph-name="uni1EC6" unicode="&#x1ec6;" horiz-adv-x="1698" 
d="M225 0v2048h1284v-266h-975v-624h908v-265h-908v-627h987v-266h-1296zM661 2232h-270v15l351 424h249l352 -424v-15h-271l-205 268zM850 -530q-78 0 -133.5 52.5t-55.5 125.5q0 74 55.5 126.5t133.5 52.5t133.5 -52.5t55.5 -126.5q0 -73 -55.5 -125.5t-133.5 -52.5z" />
    <glyph glyph-name="uni0246" unicode="&#x246;" horiz-adv-x="1698" 
d="M1412 2308l-740 -2568h-228l740 2568h228zM225 0v2048h1284v-266h-975v-624h908v-265h-908v-627h987v-266h-1296z" />
    <glyph glyph-name="uni018E" unicode="&#x18e;" horiz-adv-x="1687" 
d="M1455 2048v-2048h-1284v266h975v624h-908v265h908v627h-987v266h1296z" />
    <glyph glyph-name="uni0395" unicode="&#x395;" horiz-adv-x="1698" 
d="M225 0v2048h1284v-266h-975v-624h908v-265h-908v-627h987v-266h-1296z" />
    <glyph glyph-name="uni0388" unicode="&#x388;" horiz-adv-x="2033" 
d="M560 0v2048h1284v-266h-975v-624h908v-265h-908v-627h987v-266h-1296zM111 1712l81 470h297l-185 -470h-193z" />
    <glyph glyph-name="uni1F18" unicode="&#x1f18;" horiz-adv-x="2071" 
d="M599 0v2048h1284v-266h-975v-624h908v-265h-908v-627h987v-266h-1296zM449 2048v-118q0 -82 -29.5 -153t-84 -128t-131.5 -97l-112 98q40 37 64.5 80t36 94.5t11.5 113.5v110h245z" />
    <glyph glyph-name="uni1F19" unicode="&#x1f19;" horiz-adv-x="2059" 
d="M587 0v2048h1284v-266h-975v-624h908v-265h-908v-627h987v-266h-1296zM110 1930v118h246v-110q0 -60 11 -111.5t35.5 -95t64.5 -81.5l-112 -98q-113 60 -179 157.5t-66 220.5z" />
    <glyph glyph-name="uni1F1A" unicode="&#x1f1a;" horiz-adv-x="2620" 
d="M1147 0v2048h1284v-266h-975v-624h908v-265h-908v-627h987v-266h-1296zM986 1604v-20h-129l-320 436v28h292zM473 2048v-112q1 -80 -29 -151t-87.5 -130t-138.5 -103l-109 84q55 63 84 136.5t29 171.5v104h251z" />
    <glyph glyph-name="uni1F1B" unicode="&#x1f1b;" horiz-adv-x="2523" 
d="M1051 0v2048h1284v-266h-975v-624h908v-265h-908v-627h987v-266h-1296zM902 1607v-24h-130l-319 437v28h295zM107 1930v118h247v-110q0 -90 25.5 -160.5t86.5 -127.5l-112 -98q-114 60 -180.5 157.5t-66.5 220.5z" />
    <glyph glyph-name="uni1F1C" unicode="&#x1f1c;" horiz-adv-x="2519" 
d="M1047 0v2048h1284v-266h-975v-624h908v-265h-908v-627h987v-266h-1296zM496 1583v24l158 441h291v-28l-319 -437h-130zM469 2048v-118q0 -82 -30 -153t-85.5 -128t-131.5 -97l-111 98q58 57 84.5 127.5t26.5 160.5v110h247z" />
    <glyph glyph-name="uni1F1D" unicode="&#x1f1d;" horiz-adv-x="2564" 
d="M1091 0v2048h1284v-266h-975v-624h908v-265h-908v-627h987v-266h-1296zM527 1583v24l153 441h295v-28l-320 -437h-128zM110 1930v118h246v-110q0 -93 27 -162.5t83 -125.5l-111 -98q-112 59 -178.5 156t-66.5 222z" />
    <glyph glyph-name="uni1FC8" unicode="&#x1fc8;" horiz-adv-x="2192" 
d="M719 0v2048h1284v-266h-975v-624h908v-265h-908v-627h987v-266h-1296zM556 1580h-128l-319 440v28h291l156 -439v-29z" />
    <glyph glyph-name="uni1FC9" unicode="&#x1fc9;" horiz-adv-x="2128" 
d="M655 0v2048h1284v-266h-975v-624h908v-265h-908v-627h987v-266h-1296zM212 1728v29l154 439h321v-28l-319 -440h-156z" />
    <glyph glyph-name="uni0415" unicode="&#x415;" horiz-adv-x="1698" 
d="M225 0v2048h1284v-266h-975v-624h908v-265h-908v-627h987v-266h-1296z" />
    <glyph glyph-name="uni0400" unicode="&#x400;" horiz-adv-x="1698" 
d="M225 0v2048h1284v-266h-975v-624h908v-265h-908v-627h987v-266h-1296zM750 2253l-309 461h315l233 -461h-239z" />
    <glyph glyph-name="uni0401" unicode="&#x401;" horiz-adv-x="1698" 
d="M225 0v2048h1284v-266h-975v-624h908v-265h-908v-627h987v-266h-1296zM573 2289q-71 0 -124 52.5t-53 121.5q0 75 53 125t124 50q75 0 125.5 -50t50.5 -125q0 -69 -50.5 -121.5t-125.5 -52.5zM1161 2289q-71 0 -124 52.5t-53 121.5q0 75 53 125t124 50q75 0 125.5 -50
t50.5 -125q0 -69 -50.5 -121.5t-125.5 -52.5z" />
    <glyph glyph-name="uni04D6" unicode="&#x4d6;" horiz-adv-x="1698" 
d="M225 0v2048h1284v-266h-975v-624h908v-265h-908v-627h987v-266h-1296zM1063 2568h246q0 -169 -119.5 -274.5t-322.5 -105.5q-202 0 -321 105.5t-119 274.5h245q0 -75 44 -132.5t151 -57.5q105 0 150.5 57t45.5 133z" />
    <glyph glyph-name="uni0046" unicode="F" horiz-adv-x="1650" 
d="M225 0v2048h1270v-266h-961v-624h870v-265h-870v-893h-309z" />
    <glyph glyph-name="uni0191" unicode="&#x191;" horiz-adv-x="1671" 
d="M246 0h309v-141q0 -115 -35 -197.5t-99.5 -135.5t-156.5 -77.5t-206 -24.5q-18 0 -41 1.5t-68 9.5v245q16 -3 37.5 -4.5t41.5 -1.5q92 0 155 39.5t63 148.5v138zM246 0v2048h1270v-266h-961v-624h870v-265h-870v-893h-309z" />
    <glyph glyph-name="uni1E1E" unicode="&#x1e1e;" horiz-adv-x="1650" 
d="M225 0v2048h1270v-266h-961v-624h870v-265h-870v-893h-309zM882 2285q-78 0 -133.5 52.5t-55.5 125.5q0 74 55.5 126.5t133.5 52.5t133.5 -52.5t55.5 -126.5q0 -73 -55.5 -125.5t-133.5 -52.5z" />
    <glyph glyph-name="uni2132" unicode="&#x2132;" horiz-adv-x="1650" 
d="M1426 2048v-2048h-1271v266h961v624h-870v265h870v893h310z" />
    <glyph glyph-name="uni0047" unicode="G" horiz-adv-x="2109" 
d="M1611 1401q-29 91 -77.5 163.5t-115.5 124t-152.5 78.5t-187.5 27q-173 0 -312 -89t-219.5 -260.5t-80.5 -419.5q0 -249 81 -421t222 -261t321 -89q167 0 291.5 68t193 192.5t68.5 293.5l80 -15h-586v255h805v-233q0 -258 -109.5 -447.5t-302 -292.5t-440.5 -103
q-278 0 -487.5 128t-326.5 363.5t-117 559.5q0 245 68 440t191.5 331.5t291 209t366.5 72.5q166 0 309.5 -49t256 -139t186.5 -213.5t100 -273.5h-317z" />
    <glyph glyph-name="uni01E4" unicode="&#x1e4;" horiz-adv-x="2109" 
d="M2067 637v-185h-930v185h930zM1611 1401q-29 91 -77.5 163.5t-115.5 124t-152.5 78.5t-187.5 27q-173 0 -312 -89t-219.5 -260.5t-80.5 -419.5q0 -249 81 -421t222 -261t321 -89q167 0 291.5 68t193 192.5t68.5 293.5l80 -15h-586v255h805v-233q0 -258 -109.5 -447.5
t-302 -292.5t-440.5 -103q-278 0 -487.5 128t-326.5 363.5t-117 559.5q0 245 68 440t191.5 331.5t291 209t366.5 72.5q166 0 309.5 -49t256 -139t186.5 -213.5t100 -273.5h-317z" />
    <glyph glyph-name="uni0193" unicode="&#x193;" horiz-adv-x="2234" 
d="M1925 1401h-315l8 248q5 111 40 196t97 144t148 89t192 30q41 0 81.5 -3t76.5 -13v-246q-20 3 -43.5 5.5t-47.5 2.5q-66 0 -119.5 -17t-85.5 -62t-32 -126v-248zM1611 1401q-29 91 -77.5 163.5t-115.5 124t-152.5 78.5t-187.5 27q-173 0 -312 -89t-219.5 -260.5
t-80.5 -419.5q0 -249 81 -421t222 -261t321 -89q167 0 291.5 68t193 192.5t68.5 293.5l80 -15h-586v255h805v-233q0 -258 -109.5 -447.5t-302 -292.5t-440.5 -103q-278 0 -487.5 128t-326.5 363.5t-117 559.5q0 245 68 440t191.5 331.5t291 209t366.5 72.5q166 0 309.5 -49
t256 -139t186.5 -213.5t100 -273.5h-317z" />
    <glyph glyph-name="uni011C" unicode="&#x11c;" horiz-adv-x="2109" 
d="M1611 1401q-29 91 -77.5 163.5t-115.5 124t-152.5 78.5t-187.5 27q-173 0 -312 -89t-219.5 -260.5t-80.5 -419.5q0 -249 81 -421t222 -261t321 -89q167 0 291.5 68t193 192.5t68.5 293.5l80 -15h-586v255h805v-233q0 -258 -109.5 -447.5t-302 -292.5t-440.5 -103
q-278 0 -487.5 128t-326.5 363.5t-117 559.5q0 245 68 440t191.5 331.5t291 209t366.5 72.5q166 0 309.5 -49t256 -139t186.5 -213.5t100 -273.5h-317zM867 2232h-270v15l351 424h249l352 -424v-15h-271l-205 268z" />
    <glyph glyph-name="uni011E" unicode="&#x11e;" horiz-adv-x="2109" 
d="M1611 1401q-29 91 -77.5 163.5t-115.5 124t-152.5 78.5t-187.5 27q-173 0 -312 -89t-219.5 -260.5t-80.5 -419.5q0 -249 81 -421t222 -261t321 -89q167 0 291.5 68t193 192.5t68.5 293.5l80 -15h-586v255h805v-233q0 -258 -109.5 -447.5t-302 -292.5t-440.5 -103
q-278 0 -487.5 128t-326.5 363.5t-117 559.5q0 245 68 440t191.5 331.5t291 209t366.5 72.5q166 0 309.5 -49t256 -139t186.5 -213.5t100 -273.5h-317zM1269 2568h246q0 -169 -119.5 -274.5t-322.5 -105.5q-202 0 -321 105.5t-119 274.5h245q0 -75 44 -132.5t151 -57.5
q105 0 150.5 57t45.5 133z" />
    <glyph glyph-name="uni0120" unicode="&#x120;" horiz-adv-x="2109" 
d="M1611 1401q-29 91 -77.5 163.5t-115.5 124t-152.5 78.5t-187.5 27q-173 0 -312 -89t-219.5 -260.5t-80.5 -419.5q0 -249 81 -421t222 -261t321 -89q167 0 291.5 68t193 192.5t68.5 293.5l80 -15h-586v255h805v-233q0 -258 -109.5 -447.5t-302 -292.5t-440.5 -103
q-278 0 -487.5 128t-326.5 363.5t-117 559.5q0 245 68 440t191.5 331.5t291 209t366.5 72.5q166 0 309.5 -49t256 -139t186.5 -213.5t100 -273.5h-317zM1073 2285q-78 0 -133.5 52.5t-55.5 125.5q0 74 55.5 126.5t133.5 52.5t133.5 -52.5t55.5 -126.5q0 -73 -55.5 -125.5
t-133.5 -52.5z" />
    <glyph glyph-name="uni0122" unicode="&#x122;" horiz-adv-x="2109" 
d="M1611 1401q-29 91 -77.5 163.5t-115.5 124t-152.5 78.5t-187.5 27q-173 0 -312 -89t-219.5 -260.5t-80.5 -419.5q0 -249 81 -421t222 -261t321 -89q167 0 291.5 68t193 192.5t68.5 293.5l80 -15h-586v255h805v-233q0 -258 -109.5 -447.5t-302 -292.5t-440.5 -103
q-278 0 -487.5 128t-326.5 363.5t-117 559.5q0 245 68 440t191.5 331.5t291 209t366.5 72.5q166 0 309.5 -49t256 -139t186.5 -213.5t100 -273.5h-317zM807 -670l116 510h293l-187 -510h-222z" />
    <glyph glyph-name="uni01E6" unicode="&#x1e6;" horiz-adv-x="2109" 
d="M1611 1401q-29 91 -77.5 163.5t-115.5 124t-152.5 78.5t-187.5 27q-173 0 -312 -89t-219.5 -260.5t-80.5 -419.5q0 -249 81 -421t222 -261t321 -89q167 0 291.5 68t193 192.5t68.5 293.5l80 -15h-586v255h805v-233q0 -258 -109.5 -447.5t-302 -292.5t-440.5 -103
q-278 0 -487.5 128t-326.5 363.5t-117 559.5q0 245 68 440t191.5 331.5t291 209t366.5 72.5q166 0 309.5 -49t256 -139t186.5 -213.5t100 -273.5h-317zM867 2671l206 -268l205 268h271v-15l-352 -424h-249l-351 424v15h270z" />
    <glyph glyph-name="uni01F4" unicode="&#x1f4;" horiz-adv-x="2109" 
d="M1611 1401q-29 91 -77.5 163.5t-115.5 124t-152.5 78.5t-187.5 27q-173 0 -312 -89t-219.5 -260.5t-80.5 -419.5q0 -249 81 -421t222 -261t321 -89q167 0 291.5 68t193 192.5t68.5 293.5l80 -15h-586v255h805v-233q0 -258 -109.5 -447.5t-302 -292.5t-440.5 -103
q-278 0 -487.5 128t-326.5 363.5t-117 559.5q0 245 68 440t191.5 331.5t291 209t366.5 72.5q166 0 309.5 -49t256 -139t186.5 -213.5t100 -273.5h-317zM949 2253l234 461h315l-310 -461h-239z" />
    <glyph glyph-name="uni1E20" unicode="&#x1e20;" horiz-adv-x="2109" 
d="M1611 1401q-29 91 -77.5 163.5t-115.5 124t-152.5 78.5t-187.5 27q-173 0 -312 -89t-219.5 -260.5t-80.5 -419.5q0 -249 81 -421t222 -261t321 -89q167 0 291.5 68t193 192.5t68.5 293.5l80 -15h-586v255h805v-233q0 -258 -109.5 -447.5t-302 -292.5t-440.5 -103
q-278 0 -487.5 128t-326.5 363.5t-117 559.5q0 245 68 440t191.5 331.5t291 209t366.5 72.5q166 0 309.5 -49t256 -139t186.5 -213.5t100 -273.5h-317zM1547 2560v-210h-949v210h949z" />
    <glyph glyph-name="uniE002" unicode="&#xe002;" horiz-adv-x="2128" 
d="M1090 -28q-277 0 -487 128t-327 363.5t-117 559.5q0 245 69.5 440t194.5 331.5t294 209t367 72.5q166 0 311.5 -49t260.5 -138.5t190.5 -213.5t101.5 -274h-317q-27 91 -77 163.5t-120.5 124t-157.5 78.5t-189 27q-174 0 -315 -89t-223.5 -260.5t-82.5 -419.5
q0 -249 81 -421t222 -261t321 -89q172 0 300 72t198.5 199t70.5 291l49 -23h-571v255h825v-1048h-238l-28 245h-10q-113 -131 -255.5 -202t-340.5 -71z" />
    <glyph glyph-name="uniE003" unicode="&#xe003;" horiz-adv-x="2129" 
d="M2087 637v-185h-950v185h950zM1090 -28q-277 0 -487 128t-327 363.5t-117 559.5q0 245 69.5 440t194.5 331.5t294 209t367 72.5q166 0 311.5 -49t260.5 -138.5t190.5 -213.5t101.5 -274h-317q-27 91 -77 163.5t-120.5 124t-157.5 78.5t-189 27q-174 0 -315 -89
t-223.5 -260.5t-82.5 -419.5q0 -249 81 -421t222 -261t321 -89q172 0 300 72t198.5 199t70.5 291l49 -23h-571v255h825v-1048h-238l-28 245h-10q-113 -131 -255.5 -202t-340.5 -71z" />
    <glyph glyph-name="uniE004" unicode="&#xe004;" horiz-adv-x="2234" 
d="M1948 1401h-315l9 248q4 111 39 196t97.5 144t148.5 89t191 30q41 0 82 -3t76 -13v-246q-20 3 -43 5.5t-47 2.5q-66 0 -120 -17t-86 -62t-32 -126v-248zM1090 -28q-277 0 -487 128t-327 363.5t-117 559.5q0 245 69.5 440t194.5 331.5t294 209t367 72.5q166 0 311.5 -49
t260.5 -138.5t190.5 -213.5t101.5 -274h-317q-27 91 -77 163.5t-120.5 124t-157.5 78.5t-189 27q-174 0 -315 -89t-223.5 -260.5t-82.5 -419.5q0 -249 81 -421t222 -261t321 -89q172 0 300 72t198.5 199t70.5 291l49 -23h-571v255h825v-1048h-238l-28 245h-10
q-113 -131 -255.5 -202t-340.5 -71z" />
    <glyph glyph-name="uniE005" unicode="&#xe005;" horiz-adv-x="2128" 
d="M1090 -28q-277 0 -487 128t-327 363.5t-117 559.5q0 245 69.5 440t194.5 331.5t294 209t367 72.5q166 0 311.5 -49t260.5 -138.5t190.5 -213.5t101.5 -274h-317q-27 91 -77 163.5t-120.5 124t-157.5 78.5t-189 27q-174 0 -315 -89t-223.5 -260.5t-82.5 -419.5
q0 -249 81 -421t222 -261t321 -89q172 0 300 72t198.5 199t70.5 291l49 -23h-571v255h825v-1048h-238l-28 245h-10q-113 -131 -255.5 -202t-340.5 -71zM867 2232h-270v15l351 424h249l352 -424v-15h-271l-205 268z" />
    <glyph glyph-name="uniE006" unicode="&#xe006;" horiz-adv-x="2128" 
d="M1090 -28q-277 0 -487 128t-327 363.5t-117 559.5q0 245 69.5 440t194.5 331.5t294 209t367 72.5q166 0 311.5 -49t260.5 -138.5t190.5 -213.5t101.5 -274h-317q-27 91 -77 163.5t-120.5 124t-157.5 78.5t-189 27q-174 0 -315 -89t-223.5 -260.5t-82.5 -419.5
q0 -249 81 -421t222 -261t321 -89q172 0 300 72t198.5 199t70.5 291l49 -23h-571v255h825v-1048h-238l-28 245h-10q-113 -131 -255.5 -202t-340.5 -71zM1269 2568h246q0 -169 -119.5 -274.5t-322.5 -105.5q-202 0 -321 105.5t-119 274.5h245q0 -75 44 -132.5t151 -57.5
q105 0 150.5 57t45.5 133z" />
    <glyph glyph-name="uniE007" unicode="&#xe007;" horiz-adv-x="2128" 
d="M1090 -28q-277 0 -487 128t-327 363.5t-117 559.5q0 245 69.5 440t194.5 331.5t294 209t367 72.5q166 0 311.5 -49t260.5 -138.5t190.5 -213.5t101.5 -274h-317q-27 91 -77 163.5t-120.5 124t-157.5 78.5t-189 27q-174 0 -315 -89t-223.5 -260.5t-82.5 -419.5
q0 -249 81 -421t222 -261t321 -89q172 0 300 72t198.5 199t70.5 291l49 -23h-571v255h825v-1048h-238l-28 245h-10q-113 -131 -255.5 -202t-340.5 -71zM1073 2285q-78 0 -133.5 52.5t-55.5 125.5q0 74 55.5 126.5t133.5 52.5t133.5 -52.5t55.5 -126.5q0 -73 -55.5 -125.5
t-133.5 -52.5z" />
    <glyph glyph-name="uniE008" unicode="&#xe008;" horiz-adv-x="2128" 
d="M1090 -28q-277 0 -487 128t-327 363.5t-117 559.5q0 245 69.5 440t194.5 331.5t294 209t367 72.5q166 0 311.5 -49t260.5 -138.5t190.5 -213.5t101.5 -274h-317q-27 91 -77 163.5t-120.5 124t-157.5 78.5t-189 27q-174 0 -315 -89t-223.5 -260.5t-82.5 -419.5
q0 -249 81 -421t222 -261t321 -89q172 0 300 72t198.5 199t70.5 291l49 -23h-571v255h825v-1048h-238l-28 245h-10q-113 -131 -255.5 -202t-340.5 -71zM807 -670l116 510h293l-187 -510h-222z" />
    <glyph glyph-name="uniE009" unicode="&#xe009;" horiz-adv-x="2128" 
d="M1090 -28q-277 0 -487 128t-327 363.5t-117 559.5q0 245 69.5 440t194.5 331.5t294 209t367 72.5q166 0 311.5 -49t260.5 -138.5t190.5 -213.5t101.5 -274h-317q-27 91 -77 163.5t-120.5 124t-157.5 78.5t-189 27q-174 0 -315 -89t-223.5 -260.5t-82.5 -419.5
q0 -249 81 -421t222 -261t321 -89q172 0 300 72t198.5 199t70.5 291l49 -23h-571v255h825v-1048h-238l-28 245h-10q-113 -131 -255.5 -202t-340.5 -71zM867 2671l206 -268l205 268h271v-15l-352 -424h-249l-351 424v15h270z" />
    <glyph glyph-name="uniE00A" unicode="&#xe00a;" horiz-adv-x="2128" 
d="M1090 -28q-277 0 -487 128t-327 363.5t-117 559.5q0 245 69.5 440t194.5 331.5t294 209t367 72.5q166 0 311.5 -49t260.5 -138.5t190.5 -213.5t101.5 -274h-317q-27 91 -77 163.5t-120.5 124t-157.5 78.5t-189 27q-174 0 -315 -89t-223.5 -260.5t-82.5 -419.5
q0 -249 81 -421t222 -261t321 -89q172 0 300 72t198.5 199t70.5 291l49 -23h-571v255h825v-1048h-238l-28 245h-10q-113 -131 -255.5 -202t-340.5 -71zM949 2253l234 461h315l-310 -461h-239z" />
    <glyph glyph-name="uniE00B" unicode="&#xe00b;" horiz-adv-x="2128" 
d="M1090 -28q-277 0 -487 128t-327 363.5t-117 559.5q0 245 69.5 440t194.5 331.5t294 209t367 72.5q166 0 311.5 -49t260.5 -138.5t190.5 -213.5t101.5 -274h-317q-27 91 -77 163.5t-120.5 124t-157.5 78.5t-189 27q-174 0 -315 -89t-223.5 -260.5t-82.5 -419.5
q0 -249 81 -421t222 -261t321 -89q172 0 300 72t198.5 199t70.5 291l49 -23h-571v255h825v-1048h-238l-28 245h-10q-113 -131 -255.5 -202t-340.5 -71zM1547 2560v-210h-949v210h949z" />
    <glyph glyph-name="uni0048" unicode="H" horiz-adv-x="2090" 
d="M225 0v2048h309v-890h1021v890h310v-2048h-310v893h-1021v-893h-309z" />
    <glyph glyph-name="uni1E28" unicode="&#x1e28;" horiz-adv-x="2090" 
d="M225 0v2048h309v-890h1021v890h310v-2048h-310v893h-1021v-893h-309zM300 5h196l-16 -82q87 -14 152 -70t65 -169q1 -135 -116.5 -219t-339.5 -84l-6 167q104 0 168.5 30t65.5 97t-49.5 94t-160.5 38z" />
    <glyph glyph-name="uni0124" unicode="&#x124;" horiz-adv-x="2090" 
d="M225 0v2048h309v-890h1021v890h310v-2048h-310v893h-1021v-893h-309zM847 2235h-270v15l351 424h249l352 -424v-15h-271l-205 268z" />
    <glyph glyph-name="uni021E" unicode="&#x21e;" horiz-adv-x="2090" 
d="M225 0v2048h309v-890h1021v890h310v-2048h-310v893h-1021v-893h-309zM847 2674l206 -268l205 268h271v-15l-352 -424h-249l-351 424v15h270z" />
    <glyph glyph-name="uni1E22" unicode="&#x1e22;" horiz-adv-x="2090" 
d="M225 0v2048h309v-890h1021v890h310v-2048h-310v893h-1021v-893h-309zM1053 2288q-78 0 -133.5 52.5t-55.5 125.5q0 74 55.5 126.5t133.5 52.5t133.5 -52.5t55.5 -126.5q0 -73 -55.5 -125.5t-133.5 -52.5z" />
    <glyph glyph-name="uni1E24" unicode="&#x1e24;" horiz-adv-x="2090" 
d="M225 0v2048h309v-890h1021v890h310v-2048h-310v893h-1021v-893h-309zM1043 -530q-78 0 -133.5 52.5t-55.5 125.5q0 74 55.5 126.5t133.5 52.5t133.5 -52.5t55.5 -126.5q0 -73 -55.5 -125.5t-133.5 -52.5z" />
    <glyph glyph-name="uni1E26" unicode="&#x1e26;" horiz-adv-x="2090" 
d="M225 0v2048h309v-890h1021v890h310v-2048h-310v893h-1021v-893h-309zM759 2292q-71 0 -124 52.5t-53 121.5q0 75 53 125t124 50q75 0 125.5 -50t50.5 -125q0 -69 -50.5 -121.5t-125.5 -52.5zM1347 2292q-71 0 -124 52.5t-53 121.5q0 75 53 125t124 50q75 0 125.5 -50
t50.5 -125q0 -69 -50.5 -121.5t-125.5 -52.5z" />
    <glyph glyph-name="uni1E2A" unicode="&#x1e2a;" horiz-adv-x="2090" 
d="M225 0v2048h309v-890h1021v890h310v-2048h-310v893h-1021v-893h-309zM1238 -125h245q0 -114 -54 -201t-152.5 -136.5t-233.5 -49.5q-202 0 -322 109.5t-120 277.5h245q0 -78 45.5 -136t149.5 -58q105 0 151 59.5t46 134.5z" />
    <glyph glyph-name="uni0126" unicode="&#x126;" horiz-adv-x="2219" 
d="M2095 1642v-220h-1971v220h1971zM290 0v2048h309v-890h1021v890h310v-2048h-310v893h-1021v-893h-309z" />
    <glyph glyph-name="uni04C7" unicode="&#x4c7;" horiz-adv-x="2090" 
d="M1555 0h310v-142q0 -72 -18 -138t-55.5 -122t-95.5 -97.5t-137.5 -64t-181.5 -22.5q-40 0 -80 2t-63 10v251q17 -3 42.5 -5.5t48.5 -2.5q63 0 115.5 17t83.5 60.5t31 122.5v131zM225 0v2048h309v-890h1021v890h310v-2048h-310v893h-1021v-893h-309z" />
    <glyph glyph-name="uni04A2" unicode="&#x4a2;" horiz-adv-x="2242" 
d="M225 0v2048h309v-890h1021v890h310v-2048h-310v893h-1021v-893h-309zM2141 245v-740h-296v740h296z" />
    <glyph glyph-name="uni04C9" unicode="&#x4c9;" horiz-adv-x="2236" 
d="M225 0v2048h309v-890h1021v890h310v-2048h-310v893h-1021v-893h-309zM2135 182v-205q-1 -95 -23 -187t-64 -177t-102 -160l-209 60q33 75 62 146.5t47.5 146.5t18.5 160v216h270z" />
    <glyph glyph-name="uni04A4" unicode="&#x4a4;" horiz-adv-x="2795" 
d="M2671 2048v-266h-806v-1782h-310v893h-1021v-893h-309v2048h309v-890h1021v890h1116z" />
    <glyph glyph-name="uni01F6" unicode="&#x1f6;" horiz-adv-x="3145" 
d="M2254 -28q-210 0 -367 79t-244.5 233t-87.5 378v231h-1021v-893h-309v2048h309v-890h1021v890h310v-1386q0 -212 102.5 -314t286.5 -102q185 0 282.5 102t97.5 314v860h310v-860q0 -227 -86.5 -380.5t-242 -231.5t-361.5 -78z" />
    <glyph glyph-name="uni0397" unicode="&#x397;" horiz-adv-x="2090" 
d="M225 0v2048h309v-890h1021v890h310v-2048h-310v893h-1021v-893h-309z" />
    <glyph glyph-name="uni0389" unicode="&#x389;" horiz-adv-x="2490" 
d="M626 0v2048h309v-890h1021v890h310v-2048h-310v893h-1021v-893h-309zM191 1712l81 470h297l-185 -470h-193z" />
    <glyph glyph-name="uni1F28" unicode="&#x1f28;" horiz-adv-x="2542" 
d="M678 0v2048h309v-890h1021v890h310v-2048h-310v893h-1021v-893h-309zM543 2048v-118q0 -82 -29.5 -153t-84 -128t-131.5 -97l-112 98q40 37 64.5 80t36 94.5t11.5 113.5v110h245z" />
    <glyph glyph-name="uni1F29" unicode="&#x1f29;" horiz-adv-x="2517" 
d="M652 0v2048h309v-890h1021v890h310v-2048h-310v893h-1021v-893h-309zM190 1930v118h246v-110q0 -60 11 -111.5t35.5 -95t64.5 -81.5l-112 -98q-113 60 -179 157.5t-66 220.5z" />
    <glyph glyph-name="uni1F2A" unicode="&#x1f2a;" horiz-adv-x="3078" 
d="M1213 0v2048h309v-890h1021v890h310v-2048h-310v893h-1021v-893h-309zM1066 1604v-20h-129l-320 436v28h292zM553 2048v-112q1 -80 -29 -151t-87.5 -130t-138.5 -103l-109 84q55 63 84 136.5t29 171.5v104h251z" />
    <glyph glyph-name="uni1F2B" unicode="&#x1f2b;" horiz-adv-x="2981" 
d="M1116 0v2048h309v-890h1021v890h310v-2048h-310v893h-1021v-893h-309zM982 1607v-24h-130l-319 437v28h295zM187 1930v118h247v-110q0 -90 25.5 -160.5t86.5 -127.5l-112 -98q-114 60 -180.5 157.5t-66.5 220.5z" />
    <glyph glyph-name="uni1F2C" unicode="&#x1f2c;" horiz-adv-x="2977" 
d="M1112 0v2048h309v-890h1021v890h310v-2048h-310v893h-1021v-893h-309zM576 1583v24l158 441h291v-28l-319 -437h-130zM549 2048v-118q0 -82 -30 -153t-85.5 -128t-131.5 -97l-111 98q58 57 84.5 127.5t26.5 160.5v110h247z" />
    <glyph glyph-name="uni1F2D" unicode="&#x1f2d;" horiz-adv-x="3022" 
d="M1157 0v2048h309v-890h1021v890h310v-2048h-310v893h-1021v-893h-309zM607 1583v24l153 441h295v-28l-320 -437h-128zM190 1930v118h246v-110q0 -93 27 -162.5t83 -125.5l-111 -98q-112 59 -178.5 156t-66.5 222z" />
    <glyph glyph-name="uni1F2E" unicode="&#x1f2e;" horiz-adv-x="2806" 
d="M941 0v2048h309v-890h1021v890h310v-2048h-310v893h-1021v-893h-309zM834 2378l138 -42q0 -99 -65 -173.5t-167 -74.5q-55 0 -94.5 14.5t-72 34t-66.5 34.5t-80 15q-44 0 -73.5 -35t-29.5 -85l-138 37q0 99 63.5 177t165.5 78q47 0 85 -14.5t74 -35t73.5 -35.5t80.5 -15
t74.5 34.5t31.5 85.5zM711 2019v-101q0 -86 -47.5 -171.5t-133.5 -138.5l-117 79q48 50 66.5 108t18.5 123v101h213z" />
    <glyph glyph-name="uni1F2F" unicode="&#x1f2f;" horiz-adv-x="2826" 
d="M962 0v2048h309v-890h1021v890h310v-2048h-310v893h-1021v-893h-309zM489 1918v101h213v-101q0 -65 18.5 -123t66.5 -108l-121 -79q-84 53 -130.5 138t-46.5 172zM834 2378l138 -42q0 -99 -65 -173.5t-167 -74.5q-55 0 -94.5 14.5t-72 34t-66.5 34.5t-80 15
q-44 0 -73.5 -35t-29.5 -85l-138 37q0 99 63.5 177t165.5 78q47 0 85 -14.5t74 -35t73.5 -35.5t80.5 -15t74.5 34.5t31.5 85.5z" />
    <glyph glyph-name="uni1FCA" unicode="&#x1fca;" horiz-adv-x="2650" 
d="M785 0v2048h309v-890h1021v890h310v-2048h-310v893h-1021v-893h-309zM636 1580h-128l-319 440v28h291l156 -439v-29z" />
    <glyph glyph-name="uni1FCB" unicode="&#x1fcb;" horiz-adv-x="2586" 
d="M721 0v2048h309v-890h1021v890h310v-2048h-310v893h-1021v-893h-309zM292 1728v29l154 439h321v-28l-319 -440h-156z" />
    <glyph glyph-name="uni041D" unicode="&#x41d;" horiz-adv-x="2090" 
d="M225 0v2048h309v-890h1021v890h310v-2048h-310v893h-1021v-893h-309z" />
    <glyph glyph-name="uni1F98" unicode="&#x1f98;" horiz-adv-x="2454" 
d="M590 0v2048h309v-890h1021v890h310v-2048h-310v893h-1021v-893h-309zM1539 -680q-104 0 -172.5 60.5t-68.5 196.5v299h223v-296q0 -54 18 -76.5t52 -22.5q17 0 34.5 2t26.5 2v-148q-19 -7 -46 -12t-67 -5zM455 2048v-118q0 -82 -29.5 -153t-84 -128t-131.5 -97l-112 98
q40 37 64.5 80t36 94.5t11.5 113.5v110h245z" />
    <glyph glyph-name="uni1F99" unicode="&#x1f99;" horiz-adv-x="2517" 
d="M652 0v2048h309v-890h1021v890h310v-2048h-310v893h-1021v-893h-309zM1601 -680q-104 0 -172.5 60.5t-68.5 196.5v299h223v-296q0 -54 18 -76.5t52 -22.5q17 0 34.5 2t26.5 2v-148q-19 -7 -46 -12t-67 -5zM190 1930v118h246v-110q0 -60 11 -111.5t35.5 -95t64.5 -81.5
l-112 -98q-113 60 -179 157.5t-66 220.5z" />
    <glyph glyph-name="uni1F9A" unicode="&#x1f9a;" horiz-adv-x="3078" 
d="M1213 0v2048h309v-890h1021v890h310v-2048h-310v893h-1021v-893h-309zM2162 -680q-104 0 -172.5 60.5t-68.5 196.5v299h223v-296q0 -54 18 -76.5t52 -22.5q17 0 34.5 2t26.5 2v-148q-19 -7 -46 -12t-67 -5zM1066 1604v-20h-129l-320 436v28h292zM553 2048v-112
q1 -80 -29 -151t-87.5 -130t-138.5 -103l-109 84q55 63 84 136.5t29 171.5v104h251z" />
    <glyph glyph-name="uni1F9B" unicode="&#x1f9b;" horiz-adv-x="2981" 
d="M1116 0v2048h309v-890h1021v890h310v-2048h-310v893h-1021v-893h-309zM2065 -680q-104 0 -172.5 60.5t-68.5 196.5v299h223v-296q0 -54 18 -76.5t52 -22.5q17 0 34.5 2t26.5 2v-148q-19 -7 -46 -12t-67 -5zM982 1607v-24h-130l-319 437v28h295zM187 1930v118h247v-110
q0 -90 25.5 -160.5t86.5 -127.5l-112 -98q-114 60 -180.5 157.5t-66.5 220.5z" />
    <glyph glyph-name="uni1F9C" unicode="&#x1f9c;" horiz-adv-x="2977" 
d="M1112 0v2048h309v-890h1021v890h310v-2048h-310v893h-1021v-893h-309zM2061 -680q-104 0 -172.5 60.5t-68.5 196.5v299h223v-296q0 -54 18 -76.5t52 -22.5q17 0 34.5 2t26.5 2v-148q-19 -7 -46 -12t-67 -5zM576 1583v24l158 441h291v-28l-319 -437h-130zM549 2048v-118
q0 -82 -30 -153t-85.5 -128t-131.5 -97l-111 98q58 57 84.5 127.5t26.5 160.5v110h247z" />
    <glyph glyph-name="uni1F9D" unicode="&#x1f9d;" horiz-adv-x="3022" 
d="M1157 0v2048h309v-890h1021v890h310v-2048h-310v893h-1021v-893h-309zM2106 -680q-104 0 -172.5 60.5t-68.5 196.5v299h223v-296q0 -54 18 -76.5t52 -22.5q17 0 34.5 2t26.5 2v-148q-19 -7 -46 -12t-67 -5zM607 1583v24l153 441h295v-28l-320 -437h-128zM190 1930v118
h246v-110q0 -93 27 -162.5t83 -125.5l-111 -98q-112 59 -178.5 156t-66.5 222z" />
    <glyph glyph-name="uni1F9E" unicode="&#x1f9e;" horiz-adv-x="2806" 
d="M941 0v2048h309v-890h1021v890h310v-2048h-310v893h-1021v-893h-309zM1890 -680q-104 0 -172.5 60.5t-68.5 196.5v299h223v-296q0 -54 18 -76.5t52 -22.5q17 0 34.5 2t26.5 2v-148q-19 -7 -46 -12t-67 -5zM834 2378l138 -42q0 -99 -65 -173.5t-167 -74.5
q-55 0 -94.5 14.5t-72 34t-66.5 34.5t-80 15q-44 0 -73.5 -35t-29.5 -85l-138 37q0 99 63.5 177t165.5 78q47 0 85 -14.5t74 -35t73.5 -35.5t80.5 -15t74.5 34.5t31.5 85.5zM711 2019v-101q0 -86 -47.5 -171.5t-133.5 -138.5l-117 79q48 50 66.5 108t18.5 123v101h213z" />
    <glyph glyph-name="uni1F9F" unicode="&#x1f9f;" horiz-adv-x="2826" 
d="M962 0v2048h309v-890h1021v890h310v-2048h-310v893h-1021v-893h-309zM1911 -680q-104 0 -172.5 60.5t-68.5 196.5v299h223v-296q0 -54 18 -76.5t52 -22.5q17 0 34.5 2t26.5 2v-148q-19 -7 -46 -12t-67 -5zM489 1918v101h213v-101q0 -65 18.5 -123t66.5 -108l-121 -79
q-84 53 -130.5 138t-46.5 172zM834 2378l138 -42q0 -99 -65 -173.5t-167 -74.5q-55 0 -94.5 14.5t-72 34t-66.5 34.5t-80 15q-44 0 -73.5 -35t-29.5 -85l-138 37q0 99 63.5 177t165.5 78q47 0 85 -14.5t74 -35t73.5 -35.5t80.5 -15t74.5 34.5t31.5 85.5z" />
    <glyph glyph-name="uni1FCC" unicode="&#x1fcc;" horiz-adv-x="2090" 
d="M225 0v2048h309v-890h1021v890h310v-2048h-310v893h-1021v-893h-309zM1174 -680q-104 0 -172.5 60.5t-68.5 196.5v299h223v-296q0 -54 18 -76.5t52 -22.5q17 0 34.5 2t26.5 2v-148q-19 -7 -46 -12t-67 -5z" />
    <glyph glyph-name="uni0049" unicode="I" horiz-adv-x="759" 
d="M534 2048v-2048h-309v2048h309z" />
    <glyph glyph-name="uni00CF" unicode="&#xcf;" horiz-adv-x="759" 
d="M534 2048v-2048h-309v2048h309zM86 2289q-71 0 -124 52.5t-53 121.5q0 75 53 125t124 50q75 0 125.5 -50t50.5 -125q0 -69 -50.5 -121.5t-125.5 -52.5zM674 2289q-71 0 -124 52.5t-53 121.5q0 75 53 125t124 50q75 0 125.5 -50t50.5 -125q0 -69 -50.5 -121.5
t-125.5 -52.5z" />
    <glyph glyph-name="uni1E2E" unicode="&#x1e2e;" horiz-adv-x="759" 
d="M534 2048v-2048h-309v2048h309zM256 2680l287 320h311l-357 -320h-241zM91 2202q-70 0 -122 51t-52 118q0 73 52 121.5t122 48.5q73 0 122.5 -48.5t49.5 -121.5q0 -67 -49.5 -118t-122.5 -51zM670 2202q-69 0 -121 51t-52 118q0 73 52 121.5t121 48.5q74 0 123.5 -48.5
t49.5 -121.5q0 -67 -49.5 -118t-123.5 -51z" />
    <glyph glyph-name="uni0197" unicode="&#x197;" horiz-adv-x="759" 
d="M534 2048v-2048h-309v2048h309zM-81 960v207h919v-207h-919z" />
    <glyph glyph-name="uni1E2C" unicode="&#x1e2c;" horiz-adv-x="759" 
d="M534 2048v-2048h-309v2048h309zM149 -521l-201 6q0 166 89.5 265t221.5 99q61 0 107 -20.5t86.5 -47t81 -47t90.5 -20.5q58 0 94.5 44t36.5 109l197 -13q0 -167 -90 -262.5t-221 -96.5q-71 0 -117.5 20.5t-82.5 47t-74 47.5t-91 21q-56 0 -91.5 -43.5t-35.5 -108.5z" />
    <glyph glyph-name="uni00CC" unicode="&#xcc;" horiz-adv-x="759" 
d="M534 2048v-2048h-309v2048h309zM264 2253l-309 461h315l233 -461h-239z" />
    <glyph glyph-name="uni00CD" unicode="&#xcd;" horiz-adv-x="759" 
d="M534 2048v-2048h-309v2048h309zM257 2253l234 461h315l-310 -461h-239z" />
    <glyph glyph-name="uni00CE" unicode="&#xce;" horiz-adv-x="759" 
d="M534 2048v-2048h-309v2048h309zM174 2232h-270v15l351 424h249l352 -424v-15h-271l-205 268z" />
    <glyph glyph-name="uni0128" unicode="&#x128;" horiz-adv-x="1255" 
d="M781 2048v-2048h-309v2048h309zM326 2234l-201 6q0 166 89.5 265t221.5 99q61 0 107 -20.5t86.5 -47t81 -47t90.5 -20.5q58 0 94.5 44t36.5 109l197 -13q0 -167 -90 -262.5t-221 -96.5q-71 0 -117.5 20.5t-82.5 47t-74 47.5t-91 21q-56 0 -91.5 -43.5t-35.5 -108.5z" />
    <glyph glyph-name="uni012A" unicode="&#x12a;" horiz-adv-x="759" 
d="M534 2048v-2048h-309v2048h309zM855 2560v-210h-949v210h949z" />
    <glyph glyph-name="uni012C" unicode="&#x12c;" horiz-adv-x="759" 
d="M534 2048v-2048h-309v2048h309zM576 2568h246q0 -169 -119.5 -274.5t-322.5 -105.5q-202 0 -321 105.5t-119 274.5h245q0 -75 44 -132.5t151 -57.5q105 0 150.5 57t45.5 133z" />
    <glyph glyph-name="uni012E" unicode="&#x12e;" horiz-adv-x="759" 
d="M534 2048v-2048h-309v2048h309zM344 -591q-126 0 -209.5 67.5t-91.5 196.5q-5 76 25 153t101 146t188 122l178 -94q-92 -59 -159 -125t-67 -150q0 -46 23 -72t79 -26q41 0 73 11t52 21l26 -190q-35 -21 -89.5 -40.5t-128.5 -19.5z" />
    <glyph glyph-name="uni0130" unicode="&#x130;" horiz-adv-x="759" 
d="M534 2048v-2048h-309v2048h309zM380 2285q-78 0 -133.5 52.5t-55.5 125.5q0 74 55.5 126.5t133.5 52.5t133.5 -52.5t55.5 -126.5q0 -73 -55.5 -125.5t-133.5 -52.5z" />
    <glyph glyph-name="uni01CF" unicode="&#x1cf;" horiz-adv-x="759" 
d="M534 2048v-2048h-309v2048h309zM174 2671l206 -268l205 268h271v-15l-352 -424h-249l-351 424v15h270z" />
    <glyph glyph-name="uni0208" unicode="&#x208;" horiz-adv-x="759" 
d="M534 2048v-2048h-309v2048h309zM118 2253l-337 371l175 90l290 -372zM564 2253l-266 371l201 90l209 -372z" />
    <glyph glyph-name="uni020A" unicode="&#x20a;" horiz-adv-x="759" 
d="M534 2048v-2048h-309v2048h309zM-63 2301q0 168 119 277t323 109t322 -109t118 -277h-245q0 77 -45.5 134.5t-149.5 57.5q-108 0 -152.5 -58.5t-43.5 -133.5h-246z" />
    <glyph glyph-name="uni1EC8" unicode="&#x1ec8;" horiz-adv-x="759" 
d="M534 2048v-2048h-309v2048h309zM502 2260h-236l-8 204q106 5 150 28.5t43 68.5q1 54 -60.5 77t-149.5 23l9 165q227 0 344.5 -72t116.5 -194q1 -99 -64.5 -145.5t-144.5 -58.5v-96z" />
    <glyph glyph-name="uni1ECA" unicode="&#x1eca;" horiz-adv-x="759" 
d="M534 2048v-2048h-309v2048h309zM379 -530q-78 0 -133.5 52.5t-55.5 125.5q0 74 55.5 126.5t133.5 52.5t133.5 -52.5t55.5 -126.5q0 -73 -55.5 -125.5t-133.5 -52.5z" />
    <glyph glyph-name="uni0399" unicode="&#x399;" horiz-adv-x="759" 
d="M534 2048v-2048h-309v2048h309z" />
    <glyph glyph-name="uni038A" unicode="&#x38a;" horiz-adv-x="934" 
d="M708 2048v-2048h-309v2048h309zM13 1712l81 470h297l-185 -470h-193z" />
    <glyph glyph-name="uni03AA" unicode="&#x3aa;" horiz-adv-x="759" 
d="M534 2048v-2048h-309v2048h309zM86 2289q-71 0 -124 52.5t-53 121.5q0 75 53 125t124 50q75 0 125.5 -50t50.5 -125q0 -69 -50.5 -121.5t-125.5 -52.5zM674 2289q-71 0 -124 52.5t-53 121.5q0 75 53 125t124 50q75 0 125.5 -50t50.5 -125q0 -69 -50.5 -121.5
t-125.5 -52.5z" />
    <glyph glyph-name="uni1F38" unicode="&#x1f38;" horiz-adv-x="1162" 
d="M939 2048v-2048h-309v2048h309zM543 2048v-118q0 -82 -29.5 -153t-84 -128t-131.5 -97l-112 98q40 37 64.5 80t36 94.5t11.5 113.5v110h245z" />
    <glyph glyph-name="uni1F39" unicode="&#x1f39;" horiz-adv-x="1136" 
d="M913 2048v-2048h-309v2048h309zM190 1930v118h246v-110q0 -60 11 -111.5t35.5 -95t64.5 -81.5l-112 -98q-113 60 -179 157.5t-66 220.5z" />
    <glyph glyph-name="uni1F3A" unicode="&#x1f3a;" horiz-adv-x="1697" 
d="M1474 2048v-2048h-309v2048h309zM1066 1604v-20h-129l-320 436v28h292zM553 2048v-112q1 -80 -29 -151t-87.5 -130t-138.5 -103l-109 84q55 63 84 136.5t29 171.5v104h251z" />
    <glyph glyph-name="uni1F3B" unicode="&#x1f3b;" horiz-adv-x="1600" 
d="M1377 2048v-2048h-309v2048h309zM982 1607v-24h-130l-319 437v28h295zM187 1930v118h247v-110q0 -90 25.5 -160.5t86.5 -127.5l-112 -98q-114 60 -180.5 157.5t-66.5 220.5z" />
    <glyph glyph-name="uni1F3C" unicode="&#x1f3c;" horiz-adv-x="1596" 
d="M1373 2048v-2048h-309v2048h309zM576 1583v24l158 441h291v-28l-319 -437h-130zM549 2048v-118q0 -82 -30 -153t-85.5 -128t-131.5 -97l-111 98q58 57 84.5 127.5t26.5 160.5v110h247z" />
    <glyph glyph-name="uni1F3D" unicode="&#x1f3d;" horiz-adv-x="1641" 
d="M1418 2048v-2048h-309v2048h309zM607 1583v24l153 441h295v-28l-320 -437h-128zM190 1930v118h246v-110q0 -93 27 -162.5t83 -125.5l-111 -98q-112 59 -178.5 156t-66.5 222z" />
    <glyph glyph-name="uni1F3E" unicode="&#x1f3e;" horiz-adv-x="1425" 
d="M1202 2048v-2048h-309v2048h309zM834 2378l138 -42q0 -99 -65 -173.5t-167 -74.5q-55 0 -94.5 14.5t-72 34t-66.5 34.5t-80 15q-44 0 -73.5 -35t-29.5 -85l-138 37q0 99 63.5 177t165.5 78q47 0 85 -14.5t74 -35t73.5 -35.5t80.5 -15t74.5 34.5t31.5 85.5zM711 2019v-101
q0 -86 -47.5 -171.5t-133.5 -138.5l-117 79q48 50 66.5 108t18.5 123v101h213z" />
    <glyph glyph-name="uni1F3F" unicode="&#x1f3f;" horiz-adv-x="1446" 
d="M1223 2048v-2048h-309v2048h309zM489 1918v101h213v-101q0 -65 18.5 -123t66.5 -108l-121 -79q-84 53 -130.5 138t-46.5 172zM834 2378l138 -42q0 -99 -65 -173.5t-167 -74.5q-55 0 -94.5 14.5t-72 34t-66.5 34.5t-80 15q-44 0 -73.5 -35t-29.5 -85l-138 37
q0 99 63.5 177t165.5 78q47 0 85 -14.5t74 -35t73.5 -35.5t80.5 -15t74.5 34.5t31.5 85.5z" />
    <glyph glyph-name="uni1FD8" unicode="&#x1fd8;" horiz-adv-x="759" 
d="M534 2048v-2048h-309v2048h309zM576 2568h246q0 -169 -119.5 -274.5t-322.5 -105.5q-202 0 -321 105.5t-119 274.5h245q0 -75 44 -132.5t151 -57.5q105 0 150.5 57t45.5 133z" />
    <glyph glyph-name="uni1FD9" unicode="&#x1fd9;" horiz-adv-x="759" 
d="M534 2048v-2048h-309v2048h309zM855 2560v-210h-949v210h949z" />
    <glyph glyph-name="uni1FDA" unicode="&#x1fda;" horiz-adv-x="1269" 
d="M1046 2048v-2048h-309v2048h309zM636 1580h-128l-319 440v28h291l156 -439v-29z" />
    <glyph glyph-name="uni1FDB" unicode="&#x1fdb;" horiz-adv-x="1205" 
d="M982 2048v-2048h-309v2048h309zM292 1728v29l154 439h321v-28l-319 -440h-156z" />
    <glyph glyph-name="uni0406" unicode="&#x406;" horiz-adv-x="759" 
d="M534 2048v-2048h-309v2048h309z" />
    <glyph glyph-name="uni0407" unicode="&#x407;" horiz-adv-x="759" 
d="M534 2048v-2048h-309v2048h309zM86 2289q-71 0 -124 52.5t-53 121.5q0 75 53 125t124 50q75 0 125.5 -50t50.5 -125q0 -69 -50.5 -121.5t-125.5 -52.5zM674 2289q-71 0 -124 52.5t-53 121.5q0 75 53 125t124 50q75 0 125.5 -50t50.5 -125q0 -69 -50.5 -121.5
t-125.5 -52.5z" />
    <glyph glyph-name="uniE00C" unicode="&#xe00c;" horiz-adv-x="1282" 
d="M124 1782v266h1034v-266h-1034zM124 0v266h1034v-266h-1034zM796 2048v-2048h-310v2048h310z" />
    <glyph glyph-name="uniE00D" unicode="&#xe00d;" horiz-adv-x="1282" 
d="M124 1782v266h1034v-266h-1034zM124 0v266h1034v-266h-1034zM796 2048v-2048h-310v2048h310zM348 2289q-71 0 -124 52.5t-53 121.5q0 75 53 125t124 50q75 0 125.5 -50t50.5 -125q0 -69 -50.5 -121.5t-125.5 -52.5zM936 2289q-71 0 -124 52.5t-53 121.5q0 75 53 125
t124 50q75 0 125.5 -50t50.5 -125q0 -69 -50.5 -121.5t-125.5 -52.5z" />
    <glyph glyph-name="uniE00E" unicode="&#xe00e;" horiz-adv-x="1282" 
d="M124 1782v266h1034v-266h-1034zM124 0v266h1034v-266h-1034zM796 2048v-2048h-310v2048h310zM518 2680l287 320h311l-357 -320h-241zM353 2202q-70 0 -122 51t-52 118q0 73 52 121.5t122 48.5q73 0 122.5 -48.5t49.5 -121.5q0 -67 -49.5 -118t-122.5 -51zM932 2202
q-69 0 -121 51t-52 118q0 73 52 121.5t121 48.5q74 0 123.5 -48.5t49.5 -121.5q0 -67 -49.5 -118t-123.5 -51z" />
    <glyph glyph-name="uniE00F" unicode="&#xe00f;" horiz-adv-x="1282" 
d="M124 1782v266h1034v-266h-1034zM124 0v266h1034v-266h-1034zM796 2048v-2048h-310v2048h310zM181 960v207h919v-207h-919z" />
    <glyph glyph-name="uniE010" unicode="&#xe010;" horiz-adv-x="1282" 
d="M124 1782v266h1034v-266h-1034zM124 0v266h1034v-266h-1034zM796 2048v-2048h-310v2048h310zM411 -521l-201 6q0 166 89.5 265t221.5 99q61 0 107 -20.5t86.5 -47t81 -47t90.5 -20.5q58 0 94.5 44t36.5 109l197 -13q0 -167 -90 -262.5t-221 -96.5q-71 0 -117.5 20.5
t-82.5 47t-74 47.5t-91 21q-56 0 -91.5 -43.5t-35.5 -108.5z" />
    <glyph glyph-name="uniE011" unicode="&#xe011;" horiz-adv-x="1282" 
d="M124 1782v266h1034v-266h-1034zM124 0v266h1034v-266h-1034zM796 2048v-2048h-310v2048h310zM525 2253l-309 461h315l233 -461h-239z" />
    <glyph glyph-name="uniE012" unicode="&#xe012;" horiz-adv-x="1282" 
d="M124 1782v266h1034v-266h-1034zM124 0v266h1034v-266h-1034zM796 2048v-2048h-310v2048h310zM518 2253l234 461h315l-310 -461h-239z" />
    <glyph glyph-name="uniE013" unicode="&#xe013;" horiz-adv-x="1282" 
d="M124 1782v266h1034v-266h-1034zM124 0v266h1034v-266h-1034zM796 2048v-2048h-310v2048h310zM436 2232h-270v15l351 424h249l352 -424v-15h-271l-205 268z" />
    <glyph glyph-name="uniE014" unicode="&#xe014;" horiz-adv-x="1282" 
d="M124 1782v266h1034v-266h-1034zM124 0v266h1034v-266h-1034zM796 2048v-2048h-310v2048h310zM341 2234l-201 6q0 166 89.5 265t221.5 99q61 0 107 -20.5t86.5 -47t81 -47t90.5 -20.5q58 0 94.5 44t36.5 109l197 -13q0 -167 -90 -262.5t-221 -96.5q-71 0 -117.5 20.5
t-82.5 47t-74 47.5t-91 21q-56 0 -91.5 -43.5t-35.5 -108.5z" />
    <glyph glyph-name="uniE015" unicode="&#xe015;" horiz-adv-x="1282" 
d="M124 1782v266h1034v-266h-1034zM124 0v266h1034v-266h-1034zM796 2048v-2048h-310v2048h310zM1116 2560v-210h-949v210h949z" />
    <glyph glyph-name="uniE016" unicode="&#xe016;" horiz-adv-x="1282" 
d="M124 1782v266h1034v-266h-1034zM124 0v266h1034v-266h-1034zM796 2048v-2048h-310v2048h310zM838 2568h246q0 -169 -119.5 -274.5t-322.5 -105.5q-202 0 -321 105.5t-119 274.5h245q0 -75 44 -132.5t151 -57.5q105 0 150.5 57t45.5 133z" />
    <glyph glyph-name="uniE017" unicode="&#xe017;" horiz-adv-x="1282" 
d="M124 1782v266h1034v-266h-1034zM124 0v266h1034v-266h-1034zM796 2048v-2048h-310v2048h310zM968 -591q-126 0 -209.5 67.5t-91.5 196.5q-5 76 25 153t101 146t188 122l178 -94q-92 -59 -159 -125t-67 -150q0 -46 23 -72t79 -26q41 0 73 11t52 21l26 -190
q-35 -21 -89.5 -40.5t-128.5 -19.5z" />
    <glyph glyph-name="uniE018" unicode="&#xe018;" horiz-adv-x="1282" 
d="M124 1782v266h1034v-266h-1034zM124 0v266h1034v-266h-1034zM796 2048v-2048h-310v2048h310zM642 2285q-78 0 -133.5 52.5t-55.5 125.5q0 74 55.5 126.5t133.5 52.5t133.5 -52.5t55.5 -126.5q0 -73 -55.5 -125.5t-133.5 -52.5z" />
    <glyph glyph-name="uniE019" unicode="&#xe019;" horiz-adv-x="1282" 
d="M124 1782v266h1034v-266h-1034zM124 0v266h1034v-266h-1034zM796 2048v-2048h-310v2048h310zM436 2671l206 -268l205 268h271v-15l-352 -424h-249l-351 424v15h270z" />
    <glyph glyph-name="uniE01A" unicode="&#xe01a;" horiz-adv-x="1282" 
d="M124 1782v266h1034v-266h-1034zM124 0v266h1034v-266h-1034zM796 2048v-2048h-310v2048h310zM380 2253l-337 371l175 90l290 -372zM826 2253l-266 371l201 90l209 -372z" />
    <glyph glyph-name="uniE01B" unicode="&#xe01b;" horiz-adv-x="1282" 
d="M124 1782v266h1034v-266h-1034zM124 0v266h1034v-266h-1034zM796 2048v-2048h-310v2048h310zM198 2301q0 168 119 277t323 109t322 -109t118 -277h-245q0 77 -45.5 134.5t-149.5 57.5q-108 0 -152.5 -58.5t-43.5 -133.5h-246z" />
    <glyph glyph-name="uniE01C" unicode="&#xe01c;" horiz-adv-x="1282" 
d="M124 1782v266h1034v-266h-1034zM124 0v266h1034v-266h-1034zM796 2048v-2048h-310v2048h310zM764 2260h-236l-8 204q106 5 150 28.5t43 68.5q1 54 -60.5 77t-149.5 23l9 165q227 0 344.5 -72t116.5 -194q1 -99 -64.5 -145.5t-144.5 -58.5v-96z" />
    <glyph glyph-name="uniE01D" unicode="&#xe01d;" horiz-adv-x="1282" 
d="M124 1782v266h1034v-266h-1034zM124 0v266h1034v-266h-1034zM796 2048v-2048h-310v2048h310zM641 -530q-78 0 -133.5 52.5t-55.5 125.5q0 74 55.5 126.5t133.5 52.5t133.5 -52.5t55.5 -126.5q0 -73 -55.5 -125.5t-133.5 -52.5z" />
    <glyph glyph-name="uniE01E" unicode="&#xe01e;" horiz-adv-x="1726" 
d="M567 1782v266h1034v-266h-1034zM567 0v266h1034v-266h-1034zM1239 2048v-2048h-310v2048h310zM481 2048v-118q0 -82 -29.5 -153t-84 -128t-131.5 -97l-112 98q40 37 64.5 80t36 94.5t11.5 113.5v110h245z" />
    <glyph glyph-name="uniE01F" unicode="&#xe01f;" horiz-adv-x="1697" 
d="M538 1782v266h1034v-266h-1034zM538 0v266h1034v-266h-1034zM1210 2048v-2048h-310v2048h310zM125 1930v118h246v-110q0 -60 11 -111.5t35.5 -95t64.5 -81.5l-112 -98q-113 60 -179 157.5t-66 220.5z" />
    <glyph glyph-name="uniE020" unicode="&#xe020;" horiz-adv-x="2258" 
d="M1100 1782v266h1034v-266h-1034zM1100 0v266h1034v-266h-1034zM1772 2048v-2048h-310v2048h310zM1001 1604v-20h-129l-320 436v28h292zM488 2048v-112q1 -80 -29 -151t-87.5 -130t-138.5 -103l-109 84q55 63 84 136.5t29 171.5v104h251z" />
    <glyph glyph-name="uniE021" unicode="&#xe021;" horiz-adv-x="2163" 
d="M1005 1782v266h1034v-266h-1034zM1005 0v266h1034v-266h-1034zM1677 2048v-2048h-310v2048h310zM918 1607v-24h-130l-319 437v28h295zM123 1930v118h247v-110q0 -90 25.5 -160.5t86.5 -127.5l-112 -98q-114 60 -180.5 157.5t-66.5 220.5z" />
    <glyph glyph-name="uniE022" unicode="&#xe022;" horiz-adv-x="2156" 
d="M998 1782v266h1034v-266h-1034zM998 0v266h1034v-266h-1034zM1670 2048v-2048h-310v2048h310zM510 1583v24l158 441h291v-28l-319 -437h-130zM483 2048v-118q0 -82 -30 -153t-85.5 -128t-131.5 -97l-111 98q58 57 84.5 127.5t26.5 160.5v110h247z" />
    <glyph glyph-name="uniE023" unicode="&#xe023;" horiz-adv-x="2202" 
d="M1043 1782v266h1034v-266h-1034zM1043 0v266h1034v-266h-1034zM1715 2048v-2048h-310v2048h310zM542 1583v24l153 441h295v-28l-320 -437h-128zM125 1930v118h246v-110q0 -93 27 -162.5t83 -125.5l-111 -98q-112 59 -178.5 156t-66.5 222z" />
    <glyph glyph-name="uniE024" unicode="&#xe024;" horiz-adv-x="1988" 
d="M830 1782v266h1034v-266h-1034zM830 0v266h1034v-266h-1034zM1502 2048v-2048h-310v2048h310zM771 2378l138 -42q0 -99 -65 -173.5t-167 -74.5q-55 0 -94.5 14.5t-72 34t-66.5 34.5t-80 15q-44 0 -73.5 -35t-29.5 -85l-138 37q0 99 63.5 177t165.5 78q47 0 85 -14.5
t74 -35t73.5 -35.5t80.5 -15t74.5 34.5t31.5 85.5zM648 2019v-101q0 -86 -47.5 -171.5t-133.5 -138.5l-117 79q48 50 66.5 108t18.5 123v101h213z" />
    <glyph glyph-name="uniE025" unicode="&#xe025;" horiz-adv-x="2009" 
d="M850 1782v266h1034v-266h-1034zM850 0v266h1034v-266h-1034zM1522 2048v-2048h-310v2048h310zM426 1918v101h213v-101q0 -65 18.5 -123t66.5 -108l-121 -79q-84 53 -130.5 138t-46.5 172zM771 2378l138 -42q0 -99 -65 -173.5t-167 -74.5q-55 0 -94.5 14.5t-72 34
t-66.5 34.5t-80 15q-44 0 -73.5 -35t-29.5 -85l-138 37q0 99 63.5 177t165.5 78q47 0 85 -14.5t74 -35t73.5 -35.5t80.5 -15t74.5 34.5t31.5 85.5z" />
    <glyph glyph-name="uniE026" unicode="&#xe026;" horiz-adv-x="1282" 
d="M124 1782v266h1034v-266h-1034zM124 0v266h1034v-266h-1034zM796 2048v-2048h-310v2048h310zM838 2568h246q0 -169 -119.5 -274.5t-322.5 -105.5q-202 0 -321 105.5t-119 274.5h245q0 -75 44 -132.5t151 -57.5q105 0 150.5 57t45.5 133z" />
    <glyph glyph-name="uniE027" unicode="&#xe027;" horiz-adv-x="1282" 
d="M124 1782v266h1034v-266h-1034zM124 0v266h1034v-266h-1034zM796 2048v-2048h-310v2048h310zM1116 2560v-210h-949v210h949z" />
    <glyph glyph-name="uniE028" unicode="&#xe028;" horiz-adv-x="1830" 
d="M672 1782v266h1034v-266h-1034zM672 0v266h1034v-266h-1034zM1344 2048v-2048h-310v2048h310zM571 1580h-128l-319 440v28h291l156 -439v-29z" />
    <glyph glyph-name="uniE029" unicode="&#xe029;" horiz-adv-x="1766" 
d="M608 1782v266h1034v-266h-1034zM608 0v266h1034v-266h-1034zM1280 2048v-2048h-310v2048h310zM227 1728v29l154 439h321v-28l-319 -440h-156z" />
    <glyph glyph-name="uniE02A" unicode="&#xe02a;" horiz-adv-x="1282" 
d="M124 1782v266h1034v-266h-1034zM124 0v266h1034v-266h-1034zM796 2048v-2048h-310v2048h310z" />
    <glyph glyph-name="uniE02B" unicode="&#xe02b;" horiz-adv-x="1282" 
d="M124 1782v266h1034v-266h-1034zM124 0v266h1034v-266h-1034zM796 2048v-2048h-310v2048h310zM348 2289q-71 0 -124 52.5t-53 121.5q0 75 53 125t124 50q75 0 125.5 -50t50.5 -125q0 -69 -50.5 -121.5t-125.5 -52.5zM936 2289q-71 0 -124 52.5t-53 121.5q0 75 53 125
t124 50q75 0 125.5 -50t50.5 -125q0 -69 -50.5 -121.5t-125.5 -52.5z" />
    <glyph glyph-name="uni004A" unicode="J" horiz-adv-x="1554" 
d="M1021 2048h308v-1452q0 -197 -77.5 -337t-217.5 -213.5t-328 -73.5q-173 0 -310.5 63t-217 183.5t-79.5 293.5h307q0 -85 39.5 -147t109 -96.5t159.5 -34.5q98 0 166.5 41.5t104.5 122.5t36 198v1452z" />
    <glyph glyph-name="uni0134" unicode="&#x134;" horiz-adv-x="1554" 
d="M1021 2048h308v-1452q0 -197 -77.5 -337t-217.5 -213.5t-328 -73.5q-173 0 -310.5 63t-217 183.5t-79.5 293.5h307q0 -85 39.5 -147t109 -96.5t159.5 -34.5q98 0 166.5 41.5t104.5 122.5t36 198v1452zM969 2232h-270v15l351 424h249l352 -424v-15h-271l-205 268z" />
    <glyph glyph-name="uni0248" unicode="&#x248;" horiz-adv-x="1554" 
d="M1021 2048h308v-1452q0 -197 -77.5 -337t-217.5 -213.5t-328 -73.5q-173 0 -310.5 63t-217 183.5t-79.5 293.5h307q0 -85 39.5 -147t109 -96.5t159.5 -34.5q98 0 166.5 41.5t104.5 122.5t36 198v1452zM714 1115v207h919v-207h-919z" />
    <glyph glyph-name="uni037F" unicode="&#x37f;" horiz-adv-x="1554" 
d="M1021 2048h308v-1452q0 -197 -77.5 -337t-217.5 -213.5t-328 -73.5q-173 0 -310.5 63t-217 183.5t-79.5 293.5h307q0 -85 39.5 -147t109 -96.5t159.5 -34.5q98 0 166.5 41.5t104.5 122.5t36 198v1452z" />
    <glyph glyph-name="uni0408" unicode="&#x408;" horiz-adv-x="1554" 
d="M1021 2048h308v-1452q0 -197 -77.5 -337t-217.5 -213.5t-328 -73.5q-173 0 -310.5 63t-217 183.5t-79.5 293.5h307q0 -85 39.5 -147t109 -96.5t159.5 -34.5q98 0 166.5 41.5t104.5 122.5t36 198v1452z" />
    <glyph glyph-name="uni004B" unicode="K" horiz-adv-x="1871" 
d="M225 0v2048h309v-978h25l859 978h389l-826 -922l829 -1126h-372l-662 915l-242 -278v-637h-309z" />
    <glyph glyph-name="uni0136" unicode="&#x136;" horiz-adv-x="1871" 
d="M225 0v2048h309v-978h25l859 978h389l-826 -922l829 -1126h-372l-662 915l-242 -278v-637h-309zM672 -671l116 510h293l-187 -510h-222z" />
    <glyph glyph-name="uni01E8" unicode="&#x1e8;" horiz-adv-x="1871" 
d="M225 0v2048h309v-978h25l859 978h389l-826 -922l829 -1126h-372l-662 915l-242 -278v-637h-309zM736 2671l206 -268l205 268h271v-15l-352 -424h-249l-351 424v15h270z" />
    <glyph glyph-name="uni1E30" unicode="&#x1e30;" horiz-adv-x="1871" 
d="M225 0v2048h309v-978h25l859 978h389l-826 -922l829 -1126h-372l-662 915l-242 -278v-637h-309zM818 2253l234 461h315l-310 -461h-239z" />
    <glyph glyph-name="uni1E32" unicode="&#x1e32;" horiz-adv-x="1871" 
d="M225 0v2048h309v-978h25l859 978h389l-826 -922l829 -1126h-372l-662 915l-242 -278v-637h-309zM934 -529q-78 0 -133.5 52.5t-55.5 125.5q0 74 55.5 126.5t133.5 52.5t133.5 -52.5t55.5 -126.5q0 -73 -55.5 -125.5t-133.5 -52.5z" />
    <glyph glyph-name="uni1E34" unicode="&#x1e34;" horiz-adv-x="1871" 
d="M225 0v2048h309v-978h25l859 978h389l-826 -922l829 -1126h-372l-662 915l-242 -278v-637h-309zM1409 -252v-210h-949v210h949z" />
    <glyph glyph-name="uni04A0" unicode="&#x4a0;" horiz-adv-x="2197" 
d="M1734 0l-691 918h-212v-918h-309v1789h-491v259h800v-865h106l797 865h383l-851 -926l846 -1122h-378z" />
    <glyph glyph-name="uni049A" unicode="&#x49a;" horiz-adv-x="2085" 
d="M1440 0l-692 918h-212v-918h-309v2048h309v-865h106l797 865h383l-850 -926l845 -1122h-377zM1905 218v-740h-296v740h296z" />
    <glyph glyph-name="uni0198" unicode="&#x198;" horiz-adv-x="1946" 
d="M225 0v2048h309v-971h25l766 834q88 95 189.5 134t206.5 24.5t202 -78.5l-113 -225q-72 43 -137.5 30t-140.5 -93l-550 -586l855 -1117h-373l-675 900l-255 -282v-618h-309z" />
    <glyph glyph-name="uni039A" unicode="&#x39a;" horiz-adv-x="1871" 
d="M225 0v2048h309v-978h25l859 978h389l-826 -922l829 -1126h-372l-662 915l-242 -278v-637h-309z" />
    <glyph glyph-name="uni004C" unicode="L" horiz-adv-x="1589" 
d="M225 0v2048h309v-1782h928v-266h-1237z" />
    <glyph glyph-name="uni0139" unicode="&#x139;" horiz-adv-x="1589" 
d="M225 0v2048h309v-1782h928v-266h-1237zM255 2253l234 461h315l-310 -461h-239z" />
    <glyph glyph-name="uni013B" unicode="&#x13b;" horiz-adv-x="1589" 
d="M225 0v2048h309v-1782h928v-266h-1237zM581 -672l116 510h293l-187 -510h-222z" />
    <glyph glyph-name="uni013D" unicode="&#x13d;" horiz-adv-x="1589" 
d="M225 0v2048h309v-1782h928v-266h-1237zM868 1626v521h268l-70 -521h-198z" />
    <glyph glyph-name="uni1E36" unicode="&#x1e36;" horiz-adv-x="1589" 
d="M225 0v2048h309v-1782h928v-266h-1237zM843 -530q-78 0 -133.5 52.5t-55.5 125.5q0 74 55.5 126.5t133.5 52.5t133.5 -52.5t55.5 -126.5q0 -73 -55.5 -125.5t-133.5 -52.5z" />
    <glyph glyph-name="uni1E38" unicode="&#x1e38;" horiz-adv-x="1589" 
d="M225 0v2048h309v-1782h928v-266h-1237zM843 -530q-78 0 -133.5 52.5t-55.5 125.5q0 74 55.5 126.5t133.5 52.5t133.5 -52.5t55.5 -126.5q0 -73 -55.5 -125.5t-133.5 -52.5zM853 2560v-210h-949v210h949z" />
    <glyph glyph-name="uni1E3A" unicode="&#x1e3a;" horiz-adv-x="1589" 
d="M225 0v2048h309v-1782h928v-266h-1237zM1318 -253v-210h-949v210h949z" />
    <glyph glyph-name="uni1E3C" unicode="&#x1e3c;" horiz-adv-x="1589" 
d="M225 0v2048h309v-1782h928v-266h-1237zM638 -567h-270v15l351 424h249l352 -424v-15h-271l-205 268z" />
    <glyph glyph-name="uni0141" unicode="&#x141;" horiz-adv-x="1606" 
d="M904 1294v-199l-850 -256v199zM254 0v2048h309v-1782h927v-266h-1236z" />
    <glyph glyph-name="uni023D" unicode="&#x23d;" horiz-adv-x="1589" 
d="M225 0v2048h309v-1782h928v-266h-1237zM-81 960v207h919v-207h-919z" />
    <glyph glyph-name="uni01C8" unicode="&#x1c8;" horiz-adv-x="2290" 
d="M225 0v2048h309v-1782h928v-266h-1237zM1790 1536h299v-1634q0 -154 -56 -261t-164.5 -162t-269.5 -53h-27.5h-30.5v258q14 0 24.5 -0.5t23.5 -0.5q106 0 153.5 57t47.5 164v1632zM1938 1773q-78 0 -133.5 52.5t-55.5 125.5q0 74 55.5 126.5t133.5 52.5t133.5 -52.5
t55.5 -126.5q0 -73 -55.5 -125.5t-133.5 -52.5z" />
    <glyph glyph-name="uni004D" unicode="M" horiz-adv-x="2528" 
d="M225 2048h375l652 -1592h24l652 1592h375v-2048h-294v1482h-19l-604 -1479h-244l-604 1480h-19v-1483h-294v2048z" />
    <glyph glyph-name="uni1E3E" unicode="&#x1e3e;" horiz-adv-x="2528" 
d="M225 2048h375l652 -1592h24l652 1592h375v-2048h-294v1482h-19l-604 -1479h-244l-604 1480h-19v-1483h-294v2048zM1141 2253l234 461h315l-310 -461h-239z" />
    <glyph glyph-name="uni1E40" unicode="&#x1e40;" horiz-adv-x="2528" 
d="M225 2048h375l652 -1592h24l652 1592h375v-2048h-294v1482h-19l-604 -1479h-244l-604 1480h-19v-1483h-294v2048zM1264 2285q-78 0 -133.5 52.5t-55.5 125.5q0 74 55.5 126.5t133.5 52.5t133.5 -52.5t55.5 -126.5q0 -73 -55.5 -125.5t-133.5 -52.5z" />
    <glyph glyph-name="uni1E42" unicode="&#x1e42;" horiz-adv-x="2528" 
d="M225 2048h375l652 -1592h24l652 1592h375v-2048h-294v1482h-19l-604 -1479h-244l-604 1480h-19v-1483h-294v2048zM1264 -530q-78 0 -133.5 52.5t-55.5 125.5q0 74 55.5 126.5t133.5 52.5t133.5 -52.5t55.5 -126.5q0 -73 -55.5 -125.5t-133.5 -52.5z" />
    <glyph glyph-name="uni04CD" unicode="&#x4cd;" horiz-adv-x="2590" 
d="M225 2048h375l652 -1592h24l652 1592h375v-2048h-294v1482h-19l-604 -1479h-244l-604 1480h-19v-1483h-294v2048zM2573 182v-205q-1 -95 -23 -187t-64 -177t-102 -160l-209 60q33 75 62 146.5t47.5 146.5t18.5 160v216h270z" />
    <glyph glyph-name="uni039C" unicode="&#x39c;" horiz-adv-x="2528" 
d="M225 2048h375l652 -1592h24l652 1592h375v-2048h-294v1482h-19l-604 -1479h-244l-604 1480h-19v-1483h-294v2048z" />
    <glyph glyph-name="uni03FA" unicode="&#x3fa;" horiz-adv-x="2528" 
d="M225 2048h375l652 -1592h24l652 1592h375v-2048h-294v1482h-19l-604 -1479h-244l-604 1480h-19v-1483h-294v2048z" />
    <glyph glyph-name="uni041C" unicode="&#x41c;" horiz-adv-x="2528" 
d="M225 2048h375l652 -1592h24l652 1592h375v-2048h-294v1482h-19l-604 -1479h-244l-604 1480h-19v-1483h-294v2048z" />
    <glyph glyph-name="uni004E" unicode="N" horiz-adv-x="2103" 
d="M1878 2048v-2048h-284l-1041 1502h-19v-1502h-309v2048h286l1042 -1504h19v1504h306z" />
    <glyph glyph-name="uni00D1" unicode="&#xd1;" horiz-adv-x="2103" 
d="M1878 2048v-2048h-284l-1041 1502h-19v-1502h-309v2048h286l1042 -1504h19v1504h306zM751 2234l-201 6q0 166 89.5 265t221.5 99q61 0 107 -20.5t86.5 -47t81 -47t90.5 -20.5q58 0 94.5 44t36.5 109l197 -13q0 -167 -90 -262.5t-221 -96.5q-71 0 -117.5 20.5t-82.5 47
t-74 47.5t-91 21q-56 0 -91.5 -43.5t-35.5 -108.5z" />
    <glyph glyph-name="uni0143" unicode="&#x143;" horiz-adv-x="2103" 
d="M1878 2048v-2048h-284l-1041 1502h-19v-1502h-309v2048h286l1042 -1504h19v1504h306zM929 2253l234 461h315l-310 -461h-239z" />
    <glyph glyph-name="uni0145" unicode="&#x145;" horiz-adv-x="2103" 
d="M1878 2048v-2048h-284l-1041 1502h-19v-1502h-309v2048h286l1042 -1504h19v1504h306zM790 -672l116 510h293l-187 -510h-222z" />
    <glyph glyph-name="uni0147" unicode="&#x147;" horiz-adv-x="2103" 
d="M1878 2048v-2048h-284l-1041 1502h-19v-1502h-309v2048h286l1042 -1504h19v1504h306zM846 2671l206 -268l205 268h271v-15l-352 -424h-249l-351 424v15h270z" />
    <glyph glyph-name="uni01F8" unicode="&#x1f8;" horiz-adv-x="2103" 
d="M1878 2048v-2048h-284l-1041 1502h-19v-1502h-309v2048h286l1042 -1504h19v1504h306zM936 2253l-309 461h315l233 -461h-239z" />
    <glyph glyph-name="uni1E44" unicode="&#x1e44;" horiz-adv-x="2103" 
d="M1878 2048v-2048h-284l-1041 1502h-19v-1502h-309v2048h286l1042 -1504h19v1504h306zM1052 2285q-78 0 -133.5 52.5t-55.5 125.5q0 74 55.5 126.5t133.5 52.5t133.5 -52.5t55.5 -126.5q0 -73 -55.5 -125.5t-133.5 -52.5z" />
    <glyph glyph-name="uni1E46" unicode="&#x1e46;" horiz-adv-x="2103" 
d="M1878 2048v-2048h-284l-1041 1502h-19v-1502h-309v2048h286l1042 -1504h19v1504h306zM1052 -530q-78 0 -133.5 52.5t-55.5 125.5q0 74 55.5 126.5t133.5 52.5t133.5 -52.5t55.5 -126.5q0 -73 -55.5 -125.5t-133.5 -52.5z" />
    <glyph glyph-name="uni1E48" unicode="&#x1e48;" horiz-adv-x="2103" 
d="M1878 2048v-2048h-284l-1041 1502h-19v-1502h-309v2048h286l1042 -1504h19v1504h306zM1526 -253v-210h-949v210h949z" />
    <glyph glyph-name="uni1E4A" unicode="&#x1e4a;" horiz-adv-x="2103" 
d="M1878 2048v-2048h-284l-1041 1502h-19v-1502h-309v2048h286l1042 -1504h19v1504h306zM847 -567h-270v15l351 424h249l352 -424v-15h-271l-205 268z" />
    <glyph glyph-name="uni019D" unicode="&#x19d;" horiz-adv-x="2127" 
d="M249 0h309v-141q0 -115 -36.5 -197.5t-99 -135.5t-143.5 -77.5t-170 -24.5q-37 0 -82 1.5t-75 9.5v245q17 -3 38 -4.5t41 -1.5q92 0 155 39.5t63 148.5v138zM1902 2048v-2048h-284l-1041 1502h-19v-1502h-309v2048h286l1042 -1504h19v1504h306z" />
    <glyph glyph-name="uni014A" unicode="&#x14a;" horiz-adv-x="2103" 
d="M1594 0h284v-137q0 -153 -62 -252.5t-168.5 -148t-241.5 -48.5q-37 0 -75 2.5t-68 12.5v243q20 -4 46.5 -7t53.5 -3q99 0 165 44.5t66 157.5v136zM1878 2048v-2048h-284l-1041 1502h-19v-1502h-309v2048h286l1042 -1504h19v1504h306z" />
    <glyph glyph-name="uni0418" unicode="&#x418;" horiz-adv-x="2103" 
d="M225 2048h306v-1504h19l1042 1504h286v-2048h-309v1502h-19l-1040 -1502h-285v2048z" />
    <glyph glyph-name="uni040D" unicode="&#x40d;" horiz-adv-x="2103" 
d="M225 2048h306v-1504h19l1042 1504h286v-2048h-309v1502h-19l-1040 -1502h-285v2048zM935 2253l-309 461h315l233 -461h-239z" />
    <glyph glyph-name="uni0419" unicode="&#x419;" horiz-adv-x="2103" 
d="M225 2048h306v-1504h19l1042 1504h286v-2048h-309v1502h-19l-1040 -1502h-285v2048zM1248 2568h246q0 -169 -119.5 -274.5t-322.5 -105.5q-202 0 -321 105.5t-119 274.5h245q0 -75 44 -132.5t151 -57.5q105 0 150.5 57t45.5 133z" />
    <glyph glyph-name="uni04E2" unicode="&#x4e2;" horiz-adv-x="2103" 
d="M225 2048h306v-1504h19l1042 1504h286v-2048h-309v1502h-19l-1040 -1502h-285v2048zM1526 2560v-210h-949v210h949z" />
    <glyph glyph-name="uni04E4" unicode="&#x4e4;" horiz-adv-x="2103" 
d="M225 2048h306v-1504h19l1042 1504h286v-2048h-309v1502h-19l-1040 -1502h-285v2048zM758 2289q-71 0 -124 52.5t-53 121.5q0 75 53 125t124 50q75 0 125.5 -50t50.5 -125q0 -69 -50.5 -121.5t-125.5 -52.5zM1346 2289q-71 0 -124 52.5t-53 121.5q0 75 53 125t124 50
q75 0 125.5 -50t50.5 -125q0 -69 -50.5 -121.5t-125.5 -52.5z" />
    <glyph glyph-name="uni048A" unicode="&#x48a;" horiz-adv-x="2103" 
d="M225 2048h306v-1504h19l1042 1504h286v-2048h-309v1502h-19l-1040 -1502h-285v2048zM1248 2568h246q0 -169 -119.5 -274.5t-322.5 -105.5q-202 0 -321 105.5t-119 274.5h245q0 -75 44 -132.5t151 -57.5q105 0 150.5 57t45.5 133zM2146 182v-205q-1 -95 -23 -187t-64 -177
t-102 -160l-209 60q33 75 62 146.5t47.5 146.5t18.5 160v216h270z" />
    <glyph glyph-name="uni0376" unicode="&#x376;" horiz-adv-x="2141" 
d="M243 2048h306v-1504h19l1042 1504h286v-2048h-309v1502h-19l-1040 -1502h-285v2048z" />
    <glyph glyph-name="uni039D" unicode="&#x39d;" horiz-adv-x="2103" 
d="M1878 2048v-2048h-284l-1041 1502h-19v-1502h-309v2048h286l1042 -1504h19v1504h306z" />
    <glyph glyph-name="uni01CB" unicode="&#x1cb;" horiz-adv-x="2753" 
d="M1878 2048v-2048h-284l-1041 1502h-19v-1502h-309v2048h286l1042 -1504h19v1504h306zM2253 1536h299v-1634q0 -154 -56 -261t-164.5 -162t-269.5 -53h-27.5h-30.5v258q14 0 24.5 -0.5t23.5 -0.5q106 0 153.5 57t47.5 164v1632zM2401 1773q-78 0 -133.5 52.5t-55.5 125.5
q0 74 55.5 126.5t133.5 52.5t133.5 -52.5t55.5 -126.5q0 -73 -55.5 -125.5t-133.5 -52.5z" />
    <glyph glyph-name="uni004F" unicode="O" horiz-adv-x="2163" 
d="M2004 1024q0 -328 -120 -563.5t-328.5 -362t-473.5 -126.5q-266 0 -474.5 126.5t-328.5 362.5t-120 563q0 328 120 563.5t328.5 362t474.5 126.5q265 0 473.5 -126.5t328.5 -362t120 -563.5zM1698 1024q0 250 -80.5 421.5t-220 260t-315.5 88.5q-177 0 -316 -88.5
t-219.5 -260t-80.5 -421.5t80.5 -421.5t219.5 -260t316 -88.5q176 0 315.5 88.5t220 260t80.5 421.5z" />
    <glyph glyph-name="uni00D6" unicode="&#xd6;" horiz-adv-x="2163" 
d="M2004 1024q0 -328 -120 -563.5t-328.5 -362t-473.5 -126.5q-266 0 -474.5 126.5t-328.5 362.5t-120 563q0 328 120 563.5t328.5 362t474.5 126.5q265 0 473.5 -126.5t328.5 -362t120 -563.5zM1698 1024q0 250 -80.5 421.5t-220 260t-315.5 88.5q-177 0 -316 -88.5
t-219.5 -260t-80.5 -421.5t80.5 -421.5t219.5 -260t316 -88.5q176 0 315.5 88.5t220 260t80.5 421.5zM788 2289q-71 0 -124 52.5t-53 121.5q0 75 53 125t124 50q75 0 125.5 -50t50.5 -125q0 -69 -50.5 -121.5t-125.5 -52.5zM1376 2289q-71 0 -124 52.5t-53 121.5
q0 75 53 125t124 50q75 0 125.5 -50t50.5 -125q0 -69 -50.5 -121.5t-125.5 -52.5z" />
    <glyph glyph-name="uni00D5" unicode="&#xd5;" horiz-adv-x="2163" 
d="M2004 1024q0 -328 -120 -563.5t-328.5 -362t-473.5 -126.5q-266 0 -474.5 126.5t-328.5 362.5t-120 563q0 328 120 563.5t328.5 362t474.5 126.5q265 0 473.5 -126.5t328.5 -362t120 -563.5zM1698 1024q0 250 -80.5 421.5t-220 260t-315.5 88.5q-177 0 -316 -88.5
t-219.5 -260t-80.5 -421.5t80.5 -421.5t219.5 -260t316 -88.5q176 0 315.5 88.5t220 260t80.5 421.5zM781 2252l-201 6q0 166 89.5 265t221.5 99q61 0 107 -20.5t86.5 -47t81 -47t90.5 -20.5q58 0 94.5 44t36.5 109l197 -13q0 -167 -90 -262.5t-221 -96.5q-71 0 -117.5 20.5
t-82.5 47t-74 47.5t-91 21q-56 0 -91.5 -43.5t-35.5 -108.5z" />
    <glyph glyph-name="uni00D8" unicode="&#xd8;" horiz-adv-x="2163" 
d="M442 -89l-166 114l1438 2108l167 -114zM2004 1024q0 -328 -120 -563.5t-328.5 -362t-473.5 -126.5q-266 0 -474.5 126.5t-328.5 362.5t-120 563q0 328 120 563.5t328.5 362t474.5 126.5q265 0 473.5 -126.5t328.5 -362t120 -563.5zM1698 1024q0 250 -80.5 421.5t-220 260
t-315.5 88.5q-177 0 -316 -88.5t-219.5 -260t-80.5 -421.5t80.5 -421.5t219.5 -260t316 -88.5q176 0 315.5 88.5t220 260t80.5 421.5z" />
    <glyph glyph-name="uni01A0" unicode="&#x1a0;" horiz-adv-x="2217" 
d="M1930 2180h248q0 -277 -132 -429t-401 -152v204q152 0 218.5 99.5t66.5 277.5zM2004 1024q0 -328 -120 -563.5t-328.5 -362t-473.5 -126.5q-266 0 -474.5 126.5t-328.5 362.5t-120 563q0 328 120 563.5t328.5 362t474.5 126.5q265 0 473.5 -126.5t328.5 -362t120 -563.5z
M1698 1024q0 250 -80.5 421.5t-220 260t-315.5 88.5q-177 0 -316 -88.5t-219.5 -260t-80.5 -421.5t80.5 -421.5t219.5 -260t316 -88.5q176 0 315.5 88.5t220 260t80.5 421.5z" />
    <glyph glyph-name="uni00D2" unicode="&#xd2;" horiz-adv-x="2163" 
d="M2004 1024q0 -328 -120 -563.5t-328.5 -362t-473.5 -126.5q-266 0 -474.5 126.5t-328.5 362.5t-120 563q0 328 120 563.5t328.5 362t474.5 126.5q265 0 473.5 -126.5t328.5 -362t120 -563.5zM1698 1024q0 250 -80.5 421.5t-220 260t-315.5 88.5q-177 0 -316 -88.5
t-219.5 -260t-80.5 -421.5t80.5 -421.5t219.5 -260t316 -88.5q176 0 315.5 88.5t220 260t80.5 421.5zM965 2253l-309 461h315l233 -461h-239z" />
    <glyph glyph-name="uni00D3" unicode="&#xd3;" horiz-adv-x="2163" 
d="M2004 1024q0 -328 -120 -563.5t-328.5 -362t-473.5 -126.5q-266 0 -474.5 126.5t-328.5 362.5t-120 563q0 328 120 563.5t328.5 362t474.5 126.5q265 0 473.5 -126.5t328.5 -362t120 -563.5zM1698 1024q0 250 -80.5 421.5t-220 260t-315.5 88.5q-177 0 -316 -88.5
t-219.5 -260t-80.5 -421.5t80.5 -421.5t219.5 -260t316 -88.5q176 0 315.5 88.5t220 260t80.5 421.5zM958 2253l234 461h315l-310 -461h-239z" />
    <glyph glyph-name="uni00D4" unicode="&#xd4;" horiz-adv-x="2163" 
d="M2004 1024q0 -328 -120 -563.5t-328.5 -362t-473.5 -126.5q-266 0 -474.5 126.5t-328.5 362.5t-120 563q0 328 120 563.5t328.5 362t474.5 126.5q265 0 473.5 -126.5t328.5 -362t120 -563.5zM1698 1024q0 250 -80.5 421.5t-220 260t-315.5 88.5q-177 0 -316 -88.5
t-219.5 -260t-80.5 -421.5t80.5 -421.5t219.5 -260t316 -88.5q176 0 315.5 88.5t220 260t80.5 421.5zM876 2232h-270v15l351 424h249l352 -424v-15h-271l-205 268z" />
    <glyph glyph-name="uni014C" unicode="&#x14c;" horiz-adv-x="2163" 
d="M2004 1024q0 -328 -120 -563.5t-328.5 -362t-473.5 -126.5q-266 0 -474.5 126.5t-328.5 362.5t-120 563q0 328 120 563.5t328.5 362t474.5 126.5q265 0 473.5 -126.5t328.5 -362t120 -563.5zM1698 1024q0 250 -80.5 421.5t-220 260t-315.5 88.5q-177 0 -316 -88.5
t-219.5 -260t-80.5 -421.5t80.5 -421.5t219.5 -260t316 -88.5q176 0 315.5 88.5t220 260t80.5 421.5zM1556 2560v-210h-949v210h949z" />
    <glyph glyph-name="uni014E" unicode="&#x14e;" horiz-adv-x="2163" 
d="M2004 1024q0 -328 -120 -563.5t-328.5 -362t-473.5 -126.5q-266 0 -474.5 126.5t-328.5 362.5t-120 563q0 328 120 563.5t328.5 362t474.5 126.5q265 0 473.5 -126.5t328.5 -362t120 -563.5zM1698 1024q0 250 -80.5 421.5t-220 260t-315.5 88.5q-177 0 -316 -88.5
t-219.5 -260t-80.5 -421.5t80.5 -421.5t219.5 -260t316 -88.5q176 0 315.5 88.5t220 260t80.5 421.5zM1278 2568h246q0 -169 -119.5 -274.5t-322.5 -105.5q-202 0 -321 105.5t-119 274.5h245q0 -75 44 -132.5t151 -57.5q105 0 150.5 57t45.5 133z" />
    <glyph glyph-name="uni0150" unicode="&#x150;" horiz-adv-x="2163" 
d="M2004 1024q0 -328 -120 -563.5t-328.5 -362t-473.5 -126.5q-266 0 -474.5 126.5t-328.5 362.5t-120 563q0 328 120 563.5t328.5 362t474.5 126.5q265 0 473.5 -126.5t328.5 -362t120 -563.5zM1698 1024q0 250 -80.5 421.5t-220 260t-315.5 88.5q-177 0 -316 -88.5
t-219.5 -260t-80.5 -421.5t80.5 -421.5t219.5 -260t316 -88.5q176 0 315.5 88.5t220 260t80.5 421.5zM1146 2219l311 421h296l-368 -421h-239zM701 2219l238 421h293l-307 -421h-224z" />
    <glyph glyph-name="uni01D1" unicode="&#x1d1;" horiz-adv-x="2163" 
d="M2004 1024q0 -328 -120 -563.5t-328.5 -362t-473.5 -126.5q-266 0 -474.5 126.5t-328.5 362.5t-120 563q0 328 120 563.5t328.5 362t474.5 126.5q265 0 473.5 -126.5t328.5 -362t120 -563.5zM1698 1024q0 250 -80.5 421.5t-220 260t-315.5 88.5q-177 0 -316 -88.5
t-219.5 -260t-80.5 -421.5t80.5 -421.5t219.5 -260t316 -88.5q176 0 315.5 88.5t220 260t80.5 421.5zM876 2671l206 -268l205 268h271v-15l-352 -424h-249l-351 424v15h270z" />
    <glyph glyph-name="uni01EA" unicode="&#x1ea;" horiz-adv-x="2163" 
d="M2004 1024q0 -328 -120 -563.5t-328.5 -362t-473.5 -126.5q-266 0 -474.5 126.5t-328.5 362.5t-120 563q0 328 120 563.5t328.5 362t474.5 126.5q265 0 473.5 -126.5t328.5 -362t120 -563.5zM1698 1024q0 250 -80.5 421.5t-220 260t-315.5 88.5q-177 0 -316 -88.5
t-219.5 -260t-80.5 -421.5t80.5 -421.5t219.5 -260t316 -88.5q176 0 315.5 88.5t220 260t80.5 421.5zM1105 -596q-126 0 -209.5 67.5t-91.5 196.5q-5 76 25 153t101 146t188 122l178 -94q-92 -59 -159 -125t-67 -150q0 -46 23 -72t79 -26q41 0 73 11t52 21l26 -190
q-35 -21 -89.5 -40.5t-128.5 -19.5z" />
    <glyph glyph-name="uni01EC" unicode="&#x1ec;" horiz-adv-x="2163" 
d="M2004 1024q0 -328 -120 -563.5t-328.5 -362t-473.5 -126.5q-266 0 -474.5 126.5t-328.5 362.5t-120 563q0 328 120 563.5t328.5 362t474.5 126.5q265 0 473.5 -126.5t328.5 -362t120 -563.5zM1698 1024q0 250 -80.5 421.5t-220 260t-315.5 88.5q-177 0 -316 -88.5
t-219.5 -260t-80.5 -421.5t80.5 -421.5t219.5 -260t316 -88.5q176 0 315.5 88.5t220 260t80.5 421.5zM1105 -596q-126 0 -209.5 67.5t-91.5 196.5q-5 76 25 153t101 146t188 122l178 -94q-92 -59 -159 -125t-67 -150q0 -46 23 -72t79 -26q41 0 73 11t52 21l26 -190
q-35 -21 -89.5 -40.5t-128.5 -19.5zM1556 2560v-210h-949v210h949z" />
    <glyph glyph-name="uni020C" unicode="&#x20c;" horiz-adv-x="2163" 
d="M2004 1024q0 -328 -120 -563.5t-328.5 -362t-473.5 -126.5q-266 0 -474.5 126.5t-328.5 362.5t-120 563q0 328 120 563.5t328.5 362t474.5 126.5q265 0 473.5 -126.5t328.5 -362t120 -563.5zM1698 1024q0 250 -80.5 421.5t-220 260t-315.5 88.5q-177 0 -316 -88.5
t-219.5 -260t-80.5 -421.5t80.5 -421.5t219.5 -260t316 -88.5q176 0 315.5 88.5t220 260t80.5 421.5zM820 2253l-337 371l175 90l290 -372zM1266 2253l-266 371l201 90l209 -372z" />
    <glyph glyph-name="uni020E" unicode="&#x20e;" horiz-adv-x="2163" 
d="M2004 1024q0 -328 -120 -563.5t-328.5 -362t-473.5 -126.5q-266 0 -474.5 126.5t-328.5 362.5t-120 563q0 328 120 563.5t328.5 362t474.5 126.5q265 0 473.5 -126.5t328.5 -362t120 -563.5zM1698 1024q0 250 -80.5 421.5t-220 260t-315.5 88.5q-177 0 -316 -88.5
t-219.5 -260t-80.5 -421.5t80.5 -421.5t219.5 -260t316 -88.5q176 0 315.5 88.5t220 260t80.5 421.5zM638 2301q0 168 119 277t323 109t322 -109t118 -277h-245q0 77 -45.5 134.5t-149.5 57.5q-108 0 -152.5 -58.5t-43.5 -133.5h-246z" />
    <glyph glyph-name="uni022A" unicode="&#x22a;" horiz-adv-x="2163" 
d="M2004 1024q0 -328 -120 -563.5t-328.5 -362t-473.5 -126.5q-266 0 -474.5 126.5t-328.5 362.5t-120 563q0 328 120 563.5t328.5 362t474.5 126.5q265 0 473.5 -126.5t328.5 -362t120 -563.5zM1698 1024q0 250 -80.5 421.5t-220 260t-315.5 88.5q-177 0 -316 -88.5
t-219.5 -260t-80.5 -421.5t80.5 -421.5t219.5 -260t316 -88.5q176 0 315.5 88.5t220 260t80.5 421.5zM788 2289q-71 0 -124 52.5t-53 121.5q0 75 53 125t124 50q75 0 125.5 -50t50.5 -125q0 -69 -50.5 -121.5t-125.5 -52.5zM1376 2289q-71 0 -124 52.5t-53 121.5
q0 75 53 125t124 50q75 0 125.5 -50t50.5 -125q0 -69 -50.5 -121.5t-125.5 -52.5zM1556 3072v-210h-949v210h949z" />
    <glyph glyph-name="uni022C" unicode="&#x22c;" horiz-adv-x="2163" 
d="M2004 1024q0 -328 -120 -563.5t-328.5 -362t-473.5 -126.5q-266 0 -474.5 126.5t-328.5 362.5t-120 563q0 328 120 563.5t328.5 362t474.5 126.5q265 0 473.5 -126.5t328.5 -362t120 -563.5zM1698 1024q0 250 -80.5 421.5t-220 260t-315.5 88.5q-177 0 -316 -88.5
t-219.5 -260t-80.5 -421.5t80.5 -421.5t219.5 -260t316 -88.5q176 0 315.5 88.5t220 260t80.5 421.5zM1338 2550l139 -37q-1 -101 -66 -176t-167 -75q-75 0 -122 25t-89 50t-103 25q-43 0 -72.5 -37.5t-29.5 -85.5l-138 38q0 98 64 176t164 78q62 0 111 -24t97 -48.5
t106 -24.5q42 0 74 33t32 83zM1559 2905v-217h-953v217h953z" />
    <glyph glyph-name="uni022E" unicode="&#x22e;" horiz-adv-x="2163" 
d="M2004 1024q0 -328 -120 -563.5t-328.5 -362t-473.5 -126.5q-266 0 -474.5 126.5t-328.5 362.5t-120 563q0 328 120 563.5t328.5 362t474.5 126.5q265 0 473.5 -126.5t328.5 -362t120 -563.5zM1698 1024q0 250 -80.5 421.5t-220 260t-315.5 88.5q-177 0 -316 -88.5
t-219.5 -260t-80.5 -421.5t80.5 -421.5t219.5 -260t316 -88.5q176 0 315.5 88.5t220 260t80.5 421.5zM1082 2285q-78 0 -133.5 52.5t-55.5 125.5q0 74 55.5 126.5t133.5 52.5t133.5 -52.5t55.5 -126.5q0 -73 -55.5 -125.5t-133.5 -52.5z" />
    <glyph glyph-name="uni0230" unicode="&#x230;" horiz-adv-x="2163" 
d="M2004 1024q0 -328 -120 -563.5t-328.5 -362t-473.5 -126.5q-266 0 -474.5 126.5t-328.5 362.5t-120 563q0 328 120 563.5t328.5 362t474.5 126.5q265 0 473.5 -126.5t328.5 -362t120 -563.5zM1698 1024q0 250 -80.5 421.5t-220 260t-315.5 88.5q-177 0 -316 -88.5
t-219.5 -260t-80.5 -421.5t80.5 -421.5t219.5 -260t316 -88.5q176 0 315.5 88.5t220 260t80.5 421.5zM1082 2310q-78 0 -133.5 52.5t-55.5 125.5q0 74 55.5 126.5t133.5 52.5t133.5 -52.5t55.5 -126.5q0 -73 -55.5 -125.5t-133.5 -52.5zM1539 3064v-210h-949v210h949z" />
    <glyph glyph-name="uni1E4C" unicode="&#x1e4c;" horiz-adv-x="2163" 
d="M2004 1024q0 -328 -120 -563.5t-328.5 -362t-473.5 -126.5q-266 0 -474.5 126.5t-328.5 362.5t-120 563q0 328 120 563.5t328.5 362t474.5 126.5q265 0 473.5 -126.5t328.5 -362t120 -563.5zM1698 1024q0 250 -80.5 421.5t-220 260t-315.5 88.5q-177 0 -316 -88.5
t-219.5 -260t-80.5 -421.5t80.5 -421.5t219.5 -260t316 -88.5q176 0 315.5 88.5t220 260t80.5 421.5zM932 2680l287 320h311l-357 -320h-241zM784 2228l-198 7q0 160 88.5 257t218.5 97q60 0 105.5 -20t85 -46t80 -46t90.5 -20q56 0 92 43t37 107l194 -13q-1 -163 -89 -256
t-218 -93q-70 0 -116 20t-81.5 46t-73 46t-90.5 20q-54 0 -89.5 -42.5t-35.5 -106.5z" />
    <glyph glyph-name="uni1E4E" unicode="&#x1e4e;" horiz-adv-x="2163" 
d="M2004 1024q0 -328 -120 -563.5t-328.5 -362t-473.5 -126.5q-266 0 -474.5 126.5t-328.5 362.5t-120 563q0 328 120 563.5t328.5 362t474.5 126.5q265 0 473.5 -126.5t328.5 -362t120 -563.5zM1698 1024q0 250 -80.5 421.5t-220 260t-315.5 88.5q-177 0 -316 -88.5
t-219.5 -260t-80.5 -421.5t80.5 -421.5t219.5 -260t316 -88.5q176 0 315.5 88.5t220 260t80.5 421.5zM1337 2542l139 -37q0 -102 -65.5 -176.5t-166.5 -74.5q-75 0 -122 25t-89.5 50t-102.5 25q-43 0 -72.5 -36t-29.5 -87l-138 38q0 98 63 176t165 78q62 0 111 -24t97 -48.5
t106 -24.5q42 0 73.5 34t31.5 82zM595 2782q0 64 43.5 110t123.5 46q81 0 126.5 -44.5t45.5 -111.5q0 -65 -45 -108.5t-127 -43.5q-78 0 -122.5 43.5t-44.5 108.5zM1228 2780q0 66 45 112t126 46q78 0 123 -46t45 -110q0 -65 -43.5 -110.5t-125.5 -45.5q-80 0 -125 44
t-45 110z" />
    <glyph glyph-name="uni1E50" unicode="&#x1e50;" horiz-adv-x="2163" 
d="M2004 1024q0 -328 -120 -563.5t-328.5 -362t-473.5 -126.5q-266 0 -474.5 126.5t-328.5 362.5t-120 563q0 328 120 563.5t328.5 362t474.5 126.5q265 0 473.5 -126.5t328.5 -362t120 -563.5zM1698 1024q0 250 -80.5 421.5t-220 260t-315.5 88.5q-177 0 -316 -88.5
t-219.5 -260t-80.5 -421.5t80.5 -421.5t219.5 -260t316 -88.5q176 0 315.5 88.5t220 260t80.5 421.5zM967 2654l-341 321h317l293 -321h-269zM1556 2507v-210h-948v210h948z" />
    <glyph glyph-name="uni1E52" unicode="&#x1e52;" horiz-adv-x="2163" 
d="M2004 1024q0 -328 -120 -563.5t-328.5 -362t-473.5 -126.5q-266 0 -474.5 126.5t-328.5 362.5t-120 563q0 328 120 563.5t328.5 362t474.5 126.5q265 0 473.5 -126.5t328.5 -362t120 -563.5zM1698 1024q0 250 -80.5 421.5t-220 260t-315.5 88.5q-177 0 -316 -88.5
t-219.5 -260t-80.5 -421.5t80.5 -421.5t219.5 -260t316 -88.5q176 0 315.5 88.5t220 260t80.5 421.5zM929 2654l293 321h318l-341 -321h-270zM1556 2507v-210h-948v210h948z" />
    <glyph glyph-name="uni1ECC" unicode="&#x1ecc;" horiz-adv-x="2163" 
d="M2004 1024q0 -328 -120 -563.5t-328.5 -362t-473.5 -126.5q-266 0 -474.5 126.5t-328.5 362.5t-120 563q0 328 120 563.5t328.5 362t474.5 126.5q265 0 473.5 -126.5t328.5 -362t120 -563.5zM1698 1024q0 250 -80.5 421.5t-220 260t-315.5 88.5q-177 0 -316 -88.5
t-219.5 -260t-80.5 -421.5t80.5 -421.5t219.5 -260t316 -88.5q176 0 315.5 88.5t220 260t80.5 421.5zM1081 -530q-78 0 -133.5 52.5t-55.5 125.5q0 74 55.5 126.5t133.5 52.5t133.5 -52.5t55.5 -126.5q0 -73 -55.5 -125.5t-133.5 -52.5z" />
    <glyph glyph-name="uni1ECE" unicode="&#x1ece;" horiz-adv-x="2163" 
d="M2004 1024q0 -328 -120 -563.5t-328.5 -362t-473.5 -126.5q-266 0 -474.5 126.5t-328.5 362.5t-120 563q0 328 120 563.5t328.5 362t474.5 126.5q265 0 473.5 -126.5t328.5 -362t120 -563.5zM1698 1024q0 250 -80.5 421.5t-220 260t-315.5 88.5q-177 0 -316 -88.5
t-219.5 -260t-80.5 -421.5t80.5 -421.5t219.5 -260t316 -88.5q176 0 315.5 88.5t220 260t80.5 421.5zM1204 2260h-236l-8 204q106 5 150 28.5t43 68.5q1 54 -60.5 77t-149.5 23l9 165q227 0 344.5 -72t116.5 -194q1 -99 -64.5 -145.5t-144.5 -58.5v-96z" />
    <glyph glyph-name="uni1ED0" unicode="&#x1ed0;" horiz-adv-x="2163" 
d="M2004 1024q0 -328 -120 -563.5t-328.5 -362t-473.5 -126.5q-266 0 -474.5 126.5t-328.5 362.5t-120 563q0 328 120 563.5t328.5 362t474.5 126.5q265 0 473.5 -126.5t328.5 -362t120 -563.5zM1698 1024q0 250 -80.5 421.5t-220 260t-315.5 88.5q-177 0 -316 -88.5
t-219.5 -260t-80.5 -421.5t80.5 -421.5t219.5 -260t316 -88.5q176 0 315.5 88.5t220 260t80.5 421.5zM564 2232l406 347h223l407 -347h-294l-222 198l-224 -198h-296zM1493 2454l209 365h305l-295 -365h-219z" />
    <glyph glyph-name="uni1ED2" unicode="&#x1ed2;" horiz-adv-x="2163" 
d="M2004 1024q0 -328 -120 -563.5t-328.5 -362t-473.5 -126.5q-266 0 -474.5 126.5t-328.5 362.5t-120 563q0 328 120 563.5t328.5 362t474.5 126.5q265 0 473.5 -126.5t328.5 -362t120 -563.5zM1698 1024q0 250 -80.5 421.5t-220 260t-315.5 88.5q-177 0 -316 -88.5
t-219.5 -260t-80.5 -421.5t80.5 -421.5t219.5 -260t316 -88.5q176 0 315.5 88.5t220 260t80.5 421.5zM1191 2574l408 -347h-295l-222 198l-223 -198h-294l403 347h223zM463 2816l206 -367h-215l-298 367h307z" />
    <glyph glyph-name="uni1ED4" unicode="&#x1ed4;" horiz-adv-x="2163" 
d="M2004 1024q0 -328 -120 -563.5t-328.5 -362t-473.5 -126.5q-266 0 -474.5 126.5t-328.5 362.5t-120 563q0 328 120 563.5t328.5 362t474.5 126.5q265 0 473.5 -126.5t328.5 -362t120 -563.5zM1698 1024q0 250 -80.5 421.5t-220 260t-315.5 88.5q-177 0 -316 -88.5
t-219.5 -260t-80.5 -421.5t80.5 -421.5t219.5 -260t316 -88.5q176 0 315.5 88.5t220 260t80.5 421.5zM1212 2556l385 -347h-263l-256 227l-253 -227h-263l384 347h266zM1654 2396h-186l-6 172q84 6 124 23t40 58q0 48 -52 66.5t-131 18.5l9 142q188 0 285 -60.5t97 -164.5
q0 -85 -56 -125.5t-124 -49.5v-80z" />
    <glyph glyph-name="uni1ED6" unicode="&#x1ed6;" horiz-adv-x="2163" 
d="M2004 1024q0 -328 -120 -563.5t-328.5 -362t-473.5 -126.5q-266 0 -474.5 126.5t-328.5 362.5t-120 563q0 328 120 563.5t328.5 362t474.5 126.5q265 0 473.5 -126.5t328.5 -362t120 -563.5zM1698 1024q0 250 -80.5 421.5t-220 260t-315.5 88.5q-177 0 -316 -88.5
t-219.5 -260t-80.5 -421.5t80.5 -421.5t219.5 -260t316 -88.5q176 0 315.5 88.5t220 260t80.5 421.5zM1181 2516l415 -327h-264l-253 198l-252 -198h-265l415 327h204zM1317 2864l124 -39q0 -81 -61 -148.5t-154 -67.5q-50 0 -86.5 14t-66 33t-60.5 33t-71 14
q-39 0 -70.5 -31t-31.5 -68l-120 32q0 80 59.5 149t152.5 69q41 0 76.5 -13.5t68.5 -31t67 -31.5t72 -14q39 0 70 31.5t31 68.5z" />
    <glyph glyph-name="uni1ED8" unicode="&#x1ed8;" horiz-adv-x="2163" 
d="M2004 1024q0 -328 -120 -563.5t-328.5 -362t-473.5 -126.5q-266 0 -474.5 126.5t-328.5 362.5t-120 563q0 328 120 563.5t328.5 362t474.5 126.5q265 0 473.5 -126.5t328.5 -362t120 -563.5zM1698 1024q0 250 -80.5 421.5t-220 260t-315.5 88.5q-177 0 -316 -88.5
t-219.5 -260t-80.5 -421.5t80.5 -421.5t219.5 -260t316 -88.5q176 0 315.5 88.5t220 260t80.5 421.5zM876 2232h-270v15l351 424h249l352 -424v-15h-271l-205 268zM1081 -530q-78 0 -133.5 52.5t-55.5 125.5q0 74 55.5 126.5t133.5 52.5t133.5 -52.5t55.5 -126.5
q0 -73 -55.5 -125.5t-133.5 -52.5z" />
    <glyph glyph-name="uni1EDA" unicode="&#x1eda;" horiz-adv-x="2217" 
d="M1930 2180h248q0 -277 -132 -429t-401 -152v204q152 0 218.5 99.5t66.5 277.5zM2004 1024q0 -328 -120 -563.5t-328.5 -362t-473.5 -126.5q-266 0 -474.5 126.5t-328.5 362.5t-120 563q0 328 120 563.5t328.5 362t474.5 126.5q265 0 473.5 -126.5t328.5 -362t120 -563.5z
M1698 1024q0 250 -80.5 421.5t-220 260t-315.5 88.5q-177 0 -316 -88.5t-219.5 -260t-80.5 -421.5t80.5 -421.5t219.5 -260t316 -88.5q176 0 315.5 88.5t220 260t80.5 421.5zM958 2253l234 461h315l-310 -461h-239z" />
    <glyph glyph-name="uni1EDC" unicode="&#x1edc;" horiz-adv-x="2217" 
d="M1930 2180h248q0 -277 -132 -429t-401 -152v204q152 0 218.5 99.5t66.5 277.5zM2004 1024q0 -328 -120 -563.5t-328.5 -362t-473.5 -126.5q-266 0 -474.5 126.5t-328.5 362.5t-120 563q0 328 120 563.5t328.5 362t474.5 126.5q265 0 473.5 -126.5t328.5 -362t120 -563.5z
M1698 1024q0 250 -80.5 421.5t-220 260t-315.5 88.5q-177 0 -316 -88.5t-219.5 -260t-80.5 -421.5t80.5 -421.5t219.5 -260t316 -88.5q176 0 315.5 88.5t220 260t80.5 421.5zM965 2253l-309 461h315l233 -461h-239z" />
    <glyph glyph-name="uni1EDE" unicode="&#x1ede;" horiz-adv-x="2217" 
d="M1930 2180h248q0 -277 -132 -429t-401 -152v204q152 0 218.5 99.5t66.5 277.5zM2004 1024q0 -328 -120 -563.5t-328.5 -362t-473.5 -126.5q-266 0 -474.5 126.5t-328.5 362.5t-120 563q0 328 120 563.5t328.5 362t474.5 126.5q265 0 473.5 -126.5t328.5 -362t120 -563.5z
M1698 1024q0 250 -80.5 421.5t-220 260t-315.5 88.5q-177 0 -316 -88.5t-219.5 -260t-80.5 -421.5t80.5 -421.5t219.5 -260t316 -88.5q176 0 315.5 88.5t220 260t80.5 421.5zM1204 2260h-236l-8 204q106 5 150 28.5t43 68.5q1 54 -60.5 77t-149.5 23l9 165q227 0 344.5 -72
t116.5 -194q1 -99 -64.5 -145.5t-144.5 -58.5v-96z" />
    <glyph glyph-name="uni1EE0" unicode="&#x1ee0;" horiz-adv-x="2217" 
d="M1930 2180h248q0 -277 -132 -429t-401 -152v204q152 0 218.5 99.5t66.5 277.5zM2004 1024q0 -328 -120 -563.5t-328.5 -362t-473.5 -126.5q-266 0 -474.5 126.5t-328.5 362.5t-120 563q0 328 120 563.5t328.5 362t474.5 126.5q265 0 473.5 -126.5t328.5 -362t120 -563.5z
M1698 1024q0 250 -80.5 421.5t-220 260t-315.5 88.5q-177 0 -316 -88.5t-219.5 -260t-80.5 -421.5t80.5 -421.5t219.5 -260t316 -88.5q176 0 315.5 88.5t220 260t80.5 421.5zM781 2234l-201 6q0 166 89.5 265t221.5 99q61 0 107 -20.5t86.5 -47t81 -47t90.5 -20.5
q58 0 94.5 44t36.5 109l197 -13q0 -167 -90 -262.5t-221 -96.5q-71 0 -117.5 20.5t-82.5 47t-74 47.5t-91 21q-56 0 -91.5 -43.5t-35.5 -108.5z" />
    <glyph glyph-name="uni1EE2" unicode="&#x1ee2;" horiz-adv-x="2217" 
d="M1930 2180h248q0 -277 -132 -429t-401 -152v204q152 0 218.5 99.5t66.5 277.5zM2004 1024q0 -328 -120 -563.5t-328.5 -362t-473.5 -126.5q-266 0 -474.5 126.5t-328.5 362.5t-120 563q0 328 120 563.5t328.5 362t474.5 126.5q265 0 473.5 -126.5t328.5 -362t120 -563.5z
M1698 1024q0 250 -80.5 421.5t-220 260t-315.5 88.5q-177 0 -316 -88.5t-219.5 -260t-80.5 -421.5t80.5 -421.5t219.5 -260t316 -88.5q176 0 315.5 88.5t220 260t80.5 421.5zM1081 -530q-78 0 -133.5 52.5t-55.5 125.5q0 74 55.5 126.5t133.5 52.5t133.5 -52.5t55.5 -126.5
q0 -73 -55.5 -125.5t-133.5 -52.5z" />
    <glyph glyph-name="uni01FE" unicode="&#x1fe;" horiz-adv-x="2163" 
d="M442 -89l-166 114l1438 2108l167 -114zM2004 1024q0 -328 -120 -563.5t-328.5 -362t-473.5 -126.5q-266 0 -474.5 126.5t-328.5 362.5t-120 563q0 328 120 563.5t328.5 362t474.5 126.5q265 0 473.5 -126.5t328.5 -362t120 -563.5zM1698 1024q0 250 -80.5 421.5t-220 260
t-315.5 88.5q-177 0 -316 -88.5t-219.5 -260t-80.5 -421.5t80.5 -421.5t219.5 -260t316 -88.5q176 0 315.5 88.5t220 260t80.5 421.5zM958 2253l234 461h315l-310 -461h-239z" />
    <glyph glyph-name="uni039F" unicode="&#x39f;" horiz-adv-x="2163" 
d="M2004 1024q0 -328 -120 -563.5t-328.5 -362t-473.5 -126.5q-266 0 -474.5 126.5t-328.5 362.5t-120 563q0 328 120 563.5t328.5 362t474.5 126.5q265 0 473.5 -126.5t328.5 -362t120 -563.5zM1698 1024q0 250 -80.5 421.5t-220 260t-315.5 88.5q-177 0 -316 -88.5
t-219.5 -260t-80.5 -421.5t80.5 -421.5t219.5 -260t316 -88.5q176 0 315.5 88.5t220 260t80.5 421.5z" />
    <glyph glyph-name="uni038C" unicode="&#x38c;" horiz-adv-x="2222" 
d="M2086 1024q0 -328 -120 -563.5t-328.5 -362t-473.5 -126.5q-266 0 -474.5 126.5t-328.5 362.5t-120 563q0 328 120 563.5t328.5 362t474.5 126.5q265 0 473.5 -126.5t328.5 -362t120 -563.5zM1780 1024q0 250 -80.5 421.5t-220 260t-315.5 88.5q-177 0 -316 -88.5
t-219.5 -260t-80.5 -421.5t80.5 -421.5t219.5 -260t316 -88.5q176 0 315.5 88.5t220 260t80.5 421.5zM-21 1712l81 470h297l-185 -470h-193z" />
    <glyph glyph-name="uni1F48" unicode="&#x1f48;" horiz-adv-x="2298" 
d="M2162 1024q0 -328 -120 -563.5t-328.5 -362t-473.5 -126.5q-266 0 -474.5 126.5t-328.5 362.5t-120 563q0 328 120 563.5t328.5 362t474.5 126.5q265 0 473.5 -126.5t328.5 -362t120 -563.5zM1856 1024q0 250 -80.5 421.5t-220 260t-315.5 88.5q-177 0 -316 -88.5
t-219.5 -260t-80.5 -421.5t80.5 -421.5t219.5 -260t316 -88.5q176 0 315.5 88.5t220 260t80.5 421.5zM337 2048v-118q0 -82 -29.5 -153t-84 -128t-131.5 -97l-112 98q40 37 64.5 80t36 94.5t11.5 113.5v110h245z" />
    <glyph glyph-name="uni1F49" unicode="&#x1f49;" horiz-adv-x="2394" 
d="M2258 1024q0 -328 -120 -563.5t-328.5 -362t-473.5 -126.5q-266 0 -474.5 126.5t-328.5 362.5t-120 563q0 328 120 563.5t328.5 362t474.5 126.5q265 0 473.5 -126.5t328.5 -362t120 -563.5zM1952 1024q0 250 -80.5 421.5t-220 260t-315.5 88.5q-177 0 -316 -88.5
t-219.5 -260t-80.5 -421.5t80.5 -421.5t219.5 -260t316 -88.5q176 0 315.5 88.5t220 260t80.5 421.5zM105 1930v118h246v-110q0 -60 11 -111.5t35.5 -95t64.5 -81.5l-112 -98q-113 60 -179 157.5t-66 220.5z" />
    <glyph glyph-name="uni1F4A" unicode="&#x1f4a;" horiz-adv-x="2834" 
d="M2698 1024q0 -328 -120 -563.5t-328.5 -362t-473.5 -126.5q-266 0 -474.5 126.5t-328.5 362.5t-120 563q0 328 120 563.5t328.5 362t474.5 126.5q265 0 473.5 -126.5t328.5 -362t120 -563.5zM2392 1024q0 250 -80.5 421.5t-220 260t-315.5 88.5q-177 0 -316 -88.5
t-219.5 -260t-80.5 -421.5t80.5 -421.5t219.5 -260t316 -88.5q176 0 315.5 88.5t220 260t80.5 421.5zM859 1604v-20h-129l-320 436v28h292zM346 2048v-112q1 -80 -29 -151t-87.5 -130t-138.5 -103l-109 84q55 63 84 136.5t29 171.5v104h251z" />
    <glyph glyph-name="uni1F4B" unicode="&#x1f4b;" horiz-adv-x="2705" 
d="M2569 1024q0 -328 -120 -563.5t-328.5 -362t-473.5 -126.5q-266 0 -474.5 126.5t-328.5 362.5t-120 563q0 328 120 563.5t328.5 362t474.5 126.5q265 0 473.5 -126.5t328.5 -362t120 -563.5zM2263 1024q0 250 -80.5 421.5t-220 260t-315.5 88.5q-177 0 -316 -88.5
t-219.5 -260t-80.5 -421.5t80.5 -421.5t219.5 -260t316 -88.5q176 0 315.5 88.5t220 260t80.5 421.5zM743 1607v-24h-130l-319 437v28h295zM-52 1930v118h247v-110q0 -90 25.5 -160.5t86.5 -127.5l-112 -98q-114 60 -180.5 157.5t-66.5 220.5z" />
    <glyph glyph-name="uni1F4C" unicode="&#x1f4c;" horiz-adv-x="2604" 
d="M2468 1024q0 -328 -120 -563.5t-328.5 -362t-473.5 -126.5q-266 0 -474.5 126.5t-328.5 362.5t-120 563q0 328 120 563.5t328.5 362t474.5 126.5q265 0 473.5 -126.5t328.5 -362t120 -563.5zM2162 1024q0 250 -80.5 421.5t-220 260t-315.5 88.5q-177 0 -316 -88.5
t-219.5 -260t-80.5 -421.5t80.5 -421.5t219.5 -260t316 -88.5q176 0 315.5 88.5t220 260t80.5 421.5zM370 1583v24l158 441h291v-28l-319 -437h-130zM343 2048v-118q0 -82 -30 -153t-85.5 -128t-131.5 -97l-111 98q58 57 84.5 127.5t26.5 160.5v110h247z" />
    <glyph glyph-name="uni1F4D" unicode="&#x1f4d;" horiz-adv-x="2636" 
d="M2500 1024q0 -328 -120 -563.5t-328.5 -362t-473.5 -126.5q-266 0 -474.5 126.5t-328.5 362.5t-120 563q0 328 120 563.5t328.5 362t474.5 126.5q265 0 473.5 -126.5t328.5 -362t120 -563.5zM2194 1024q0 250 -80.5 421.5t-220 260t-315.5 88.5q-177 0 -316 -88.5
t-219.5 -260t-80.5 -421.5t80.5 -421.5t219.5 -260t316 -88.5q176 0 315.5 88.5t220 260t80.5 421.5zM401 1583v24l153 441h295v-28l-320 -437h-128zM-16 1930v118h246v-110q0 -93 27 -162.5t83 -125.5l-111 -98q-112 59 -178.5 156t-66.5 222z" />
    <glyph glyph-name="uni1FF8" unicode="&#x1ff8;" horiz-adv-x="2406" 
d="M2270 1024q0 -328 -120 -563.5t-328.5 -362t-473.5 -126.5q-266 0 -474.5 126.5t-328.5 362.5t-120 563q0 328 120 563.5t328.5 362t474.5 126.5q265 0 473.5 -126.5t328.5 -362t120 -563.5zM1964 1024q0 250 -80.5 421.5t-220 260t-315.5 88.5q-177 0 -316 -88.5
t-219.5 -260t-80.5 -421.5t80.5 -421.5t219.5 -260t316 -88.5q176 0 315.5 88.5t220 260t80.5 421.5zM429 1580h-128l-319 440v28h291l156 -439v-29z" />
    <glyph glyph-name="uni03F4" unicode="&#x3f4;" horiz-adv-x="2163" 
d="M1738 1147v-242q-139 -63 -252.5 -74t-212 8.5t-192 50t-192 53.5t-212 18.5t-252.5 -56.5v242q139 62 252.5 72t212 -9.5t192 -50t192 -53t212 -17.5t252.5 58zM2004 1024q0 -328 -120 -563.5t-328.5 -362t-473.5 -126.5q-266 0 -474.5 126.5t-328.5 362.5t-120 563
q0 328 120 563.5t328.5 362t474.5 126.5q265 0 473.5 -126.5t328.5 -362t120 -563.5zM1698 1024q0 250 -80.5 421.5t-220 260t-315.5 88.5q-177 0 -316 -88.5t-219.5 -260t-80.5 -421.5t80.5 -421.5t219.5 -260t316 -88.5q176 0 315.5 88.5t220 260t80.5 421.5z" />
    <glyph glyph-name="uni1FF9" unicode="&#x1ff9;" horiz-adv-x="2213" 
d="M2077 1024q0 -328 -120 -563.5t-328.5 -362t-473.5 -126.5q-266 0 -474.5 126.5t-328.5 362.5t-120 563q0 328 120 563.5t328.5 362t474.5 126.5q265 0 473.5 -126.5t328.5 -362t120 -563.5zM1771 1024q0 250 -80.5 421.5t-220 260t-315.5 88.5q-177 0 -316 -88.5
t-219.5 -260t-80.5 -421.5t80.5 -421.5t219.5 -260t316 -88.5q176 0 315.5 88.5t220 260t80.5 421.5zM108 1728v29l154 439h321v-28l-319 -440h-156z" />
    <glyph glyph-name="uni041E" unicode="&#x41e;" horiz-adv-x="2163" 
d="M2004 1024q0 -328 -120 -563.5t-328.5 -362t-473.5 -126.5q-266 0 -474.5 126.5t-328.5 362.5t-120 563q0 328 120 563.5t328.5 362t474.5 126.5q265 0 473.5 -126.5t328.5 -362t120 -563.5zM1698 1024q0 250 -80.5 421.5t-220 260t-315.5 88.5q-177 0 -316 -88.5
t-219.5 -260t-80.5 -421.5t80.5 -421.5t219.5 -260t316 -88.5q176 0 315.5 88.5t220 260t80.5 421.5z" />
    <glyph glyph-name="uni04E6" unicode="&#x4e6;" horiz-adv-x="2163" 
d="M2004 1024q0 -328 -120 -563.5t-328.5 -362t-473.5 -126.5q-266 0 -474.5 126.5t-328.5 362.5t-120 563q0 328 120 563.5t328.5 362t474.5 126.5q265 0 473.5 -126.5t328.5 -362t120 -563.5zM1698 1024q0 250 -80.5 421.5t-220 260t-315.5 88.5q-177 0 -316 -88.5
t-219.5 -260t-80.5 -421.5t80.5 -421.5t219.5 -260t316 -88.5q176 0 315.5 88.5t220 260t80.5 421.5zM788 2289q-71 0 -124 52.5t-53 121.5q0 75 53 125t124 50q75 0 125.5 -50t50.5 -125q0 -69 -50.5 -121.5t-125.5 -52.5zM1376 2289q-71 0 -124 52.5t-53 121.5
q0 75 53 125t124 50q75 0 125.5 -50t50.5 -125q0 -69 -50.5 -121.5t-125.5 -52.5z" />
    <glyph glyph-name="uni019F" unicode="&#x19f;" horiz-adv-x="2163" 
d="M1738 1147v-242q-139 -63 -252.5 -74t-212 8.5t-192 50t-192 53.5t-212 18.5t-252.5 -56.5v242q139 62 252.5 72t212 -9.5t192 -50t192 -53t212 -17.5t252.5 58zM2004 1024q0 -328 -120 -563.5t-328.5 -362t-473.5 -126.5q-266 0 -474.5 126.5t-328.5 362.5t-120 563
q0 328 120 563.5t328.5 362t474.5 126.5q265 0 473.5 -126.5t328.5 -362t120 -563.5zM1698 1024q0 250 -80.5 421.5t-220 260t-315.5 88.5q-177 0 -316 -88.5t-219.5 -260t-80.5 -421.5t80.5 -421.5t219.5 -260t316 -88.5q176 0 315.5 88.5t220 260t80.5 421.5z" />
    <glyph glyph-name="uni04E8" unicode="&#x4e8;" horiz-adv-x="2163" 
d="M1738 1147v-242q-139 -63 -252.5 -74t-212 8.5t-192 50t-192 53.5t-212 18.5t-252.5 -56.5v242q139 62 252.5 72t212 -9.5t192 -50t192 -53t212 -17.5t252.5 58zM2004 1024q0 -328 -120 -563.5t-328.5 -362t-473.5 -126.5q-266 0 -474.5 126.5t-328.5 362.5t-120 563
q0 328 120 563.5t328.5 362t474.5 126.5q265 0 473.5 -126.5t328.5 -362t120 -563.5zM1698 1024q0 250 -80.5 421.5t-220 260t-315.5 88.5q-177 0 -316 -88.5t-219.5 -260t-80.5 -421.5t80.5 -421.5t219.5 -260t316 -88.5q176 0 315.5 88.5t220 260t80.5 421.5z" />
    <glyph glyph-name="uni04EA" unicode="&#x4ea;" horiz-adv-x="2163" 
d="M1738 1147v-242q-139 -63 -252.5 -74t-212 8.5t-192 50t-192 53.5t-212 18.5t-252.5 -56.5v242q139 62 252.5 72t212 -9.5t192 -50t192 -53t212 -17.5t252.5 58zM2004 1024q0 -328 -120 -563.5t-328.5 -362t-473.5 -126.5q-266 0 -474.5 126.5t-328.5 362.5t-120 563
q0 328 120 563.5t328.5 362t474.5 126.5q265 0 473.5 -126.5t328.5 -362t120 -563.5zM1698 1024q0 250 -80.5 421.5t-220 260t-315.5 88.5q-177 0 -316 -88.5t-219.5 -260t-80.5 -421.5t80.5 -421.5t219.5 -260t316 -88.5q176 0 315.5 88.5t220 260t80.5 421.5zM788 2289
q-71 0 -124 52.5t-53 121.5q0 75 53 125t124 50q75 0 125.5 -50t50.5 -125q0 -69 -50.5 -121.5t-125.5 -52.5zM1376 2289q-71 0 -124 52.5t-53 121.5q0 75 53 125t124 50q75 0 125.5 -50t50.5 -125q0 -69 -50.5 -121.5t-125.5 -52.5z" />
    <glyph glyph-name="uni0152" unicode="&#x152;" horiz-adv-x="2745" 
d="M1072 0q-269 0 -475 125t-322 354.5t-116 543.5q0 317 116 547t322 354t475 124h1484v-266h-974v-624h908v-265h-908v-627h986v-266h-1496zM1272 266v1516h-200q-180 0 -317 -90t-214 -260t-77 -409q0 -237 77 -406.5t214 -260t317 -90.5h200z" />
    <glyph glyph-name="uni0050" unicode="P" horiz-adv-x="1800" 
d="M225 0v2048h730q239 0 396 -87t235 -237.5t78 -338.5q0 -189 -78.5 -339.5t-236 -238t-395.5 -87.5h-502v262h474q151 0 245 52.5t138 143.5t44 207t-44 206t-138.5 141t-248.5 51h-388v-1783h-309z" />
    <glyph glyph-name="uni1E54" unicode="&#x1e54;" horiz-adv-x="1800" 
d="M225 0v2048h730q239 0 396 -87t235 -237.5t78 -338.5q0 -189 -78.5 -339.5t-236 -238t-395.5 -87.5h-502v262h474q151 0 245 52.5t138 143.5t44 207t-44 206t-138.5 141t-248.5 51h-388v-1783h-309zM771 2253l234 461h315l-310 -461h-239z" />
    <glyph glyph-name="uni1E56" unicode="&#x1e56;" horiz-adv-x="1800" 
d="M225 0v2048h730q239 0 396 -87t235 -237.5t78 -338.5q0 -189 -78.5 -339.5t-236 -238t-395.5 -87.5h-502v262h474q151 0 245 52.5t138 143.5t44 207t-44 206t-138.5 141t-248.5 51h-388v-1783h-309zM895 2285q-78 0 -133.5 52.5t-55.5 125.5q0 74 55.5 126.5t133.5 52.5
t133.5 -52.5t55.5 -126.5q0 -73 -55.5 -125.5t-133.5 -52.5z" />
    <glyph glyph-name="uni048E" unicode="&#x48e;" horiz-adv-x="1813" 
d="M1106 1326l446 -685l-183 -119l-447 688zM228 0v2048h730q239 0 396 -87t235 -237.5t78 -338.5q0 -189 -78 -339.5t-235.5 -238t-395.5 -87.5h-503v262h474q151 0 245 52.5t138 143.5t44 207t-44 206t-138.5 141t-247.5 51h-388v-1783h-310z" />
    </font>
</defs>
</svg>
