<?xml version="1.0" standalone="no"?>
<!DOCTYPE svg PUBLIC "-//W3C//DTD SVG 1.1//EN" "http://www.w3.org/Graphics/SVG/1.1/DTD/svg11.dtd" >
<svg xmlns="http://www.w3.org/2000/svg" xmlns:xlink="http://www.w3.org/1999/xlink" version="1.1">
<metadata>
Created by FontForge 20191125 at Thu Jan 23 22:42:53 2020
 By convertio
Copyright 2020 The Inter Project Authors (https://github.com/rsms/inter)
</metadata>
<defs>
<font id="Inter-SemiBold" horiz-adv-x="0" >
  <font-face 
    font-family="Inter SemiBold"
    font-weight="600"
    font-stretch="normal"
    units-per-em="2816"
    panose-1="2 11 5 2 3 0 0 0 0 4"
    ascent="2252"
    descent="-564"
    x-height="1536"
    cap-height="2048"
    bbox="-2182 -900 7274 3168"
    underline-thickness="192"
    underline-position="-560"
    unicode-range="U+0020-1F852"
  />
<missing-glyph horiz-adv-x="2904" 
d="M277 -640v512h2350v-512h-2350zM277 1472v512h2350v-512h-2350zM277 2176v512h2350v-512h-2350zM277 64v512h2350v-512h-2350zM277 768v512h2350v-512h-2350z" />
    <glyph glyph-name="uni24B6" unicode="A&#x20dd;" horiz-adv-x="3912" 
d="M1402 0h-396l721 2048h458l722 -2048h-396l-547 1628h-16zM1415 803h1080v-298h-1080v298zM1956 -900q-319 0 -607.5 97t-529 273.5t-417 417t-273.5 529t-97 607.5t97 607.5t273.5 529t417 417t529 273.5t607.5 97t607.5 -97t529 -273.5t417 -417t273.5 -529t97 -607.5
t-97 -607.5t-273.5 -529t-417 -417t-529 -273.5t-607.5 -97zM1956 -633q275 0 523.5 84t455.5 236t359 359t235.5 455.5t83.5 522.5q0 275 -83.5 523.5t-235.5 455.5t-359 359t-455.5 235.5t-523.5 83.5t-523 -83.5t-455.5 -235.5t-359.5 -359t-235.5 -455.5t-83.5 -523.5
q0 -274 83.5 -522.5t235.5 -455.5t359.5 -359t455.5 -236t523 -84z" />
    <glyph glyph-name="uni24B7" unicode="B&#x20dd;" horiz-adv-x="3912" 
d="M1272 0v2048h784q222 0 369.5 -69.5t221 -189.5t73.5 -272q0 -125 -48 -213.5t-129 -143.5t-181 -79v-20q109 -6 209.5 -66.5t164.5 -170.5t64 -266q0 -159 -77 -285.5t-232 -199.5t-390 -73h-829zM1643 310h399q202 0 291.5 77.5t89.5 199.5q0 91 -45 164.5t-128 116
t-198 42.5h-409v-600zM1643 1177h367q96 0 173 35.5t121.5 101t44.5 155.5q0 119 -83.5 196t-247.5 77h-375v-565zM1956 -900q-319 0 -607.5 97t-529 273.5t-417 417t-273.5 529t-97 607.5t97 607.5t273.5 529t417 417t529 273.5t607.5 97t607.5 -97t529 -273.5t417 -417
t273.5 -529t97 -607.5t-97 -607.5t-273.5 -529t-417 -417t-529 -273.5t-607.5 -97zM1956 -633q275 0 523.5 84t455.5 236t359 359t235.5 455.5t83.5 522.5q0 275 -83.5 523.5t-235.5 455.5t-359 359t-455.5 235.5t-523.5 83.5t-523 -83.5t-455.5 -235.5t-359.5 -359
t-235.5 -455.5t-83.5 -523.5q0 -274 83.5 -522.5t235.5 -455.5t359.5 -359t455.5 -236t523 -84z" />
    <glyph glyph-name="uni24B8" unicode="C&#x20dd;" horiz-adv-x="3912" 
d="M2858 1357h-374q-16 92 -59 163.5t-107 121.5t-145.5 75.5t-175.5 25.5q-167 0 -296 -83.5t-202 -244t-73 -391.5q0 -235 73.5 -395.5t202 -242t294.5 -81.5q92 0 172.5 24.5t145 72.5t109 118t61.5 160l374 -2q-21 -146 -90.5 -274t-181.5 -225.5t-262 -152t-333 -54.5
q-270 0 -482 125t-334 361t-122 566q0 331 123 566.5t335 360.5t480 125q171 0 318 -48t262 -140.5t189.5 -226t97.5 -304.5zM1956 -900q-319 0 -607.5 97t-529 273.5t-417 417t-273.5 529t-97 607.5t97 607.5t273.5 529t417 417t529 273.5t607.5 97t607.5 -97t529 -273.5
t417 -417t273.5 -529t97 -607.5t-97 -607.5t-273.5 -529t-417 -417t-529 -273.5t-607.5 -97zM1956 -633q275 0 523.5 84t455.5 236t359 359t235.5 455.5t83.5 522.5q0 275 -83.5 523.5t-235.5 455.5t-359 359t-455.5 235.5t-523.5 83.5t-523 -83.5t-455.5 -235.5
t-359.5 -359t-235.5 -455.5t-83.5 -523.5q0 -274 83.5 -522.5t235.5 -455.5t359.5 -359t455.5 -236t523 -84z" />
    <glyph glyph-name="uni24B9" unicode="D&#x20dd;" horiz-adv-x="3912" 
d="M1969 0h-694v2048h708q305 0 524.5 -122.5t337.5 -351.5t118 -548q0 -320 -118.5 -550t-341 -353t-534.5 -123zM1646 321h305q214 0 357 78.5t215 235t72 391.5t-72 390.5t-212.5 233t-348.5 77.5h-316v-1406zM1956 -900q-319 0 -607.5 97t-529 273.5t-417 417
t-273.5 529t-97 607.5t97 607.5t273.5 529t417 417t529 273.5t607.5 97t607.5 -97t529 -273.5t417 -417t273.5 -529t97 -607.5t-97 -607.5t-273.5 -529t-417 -417t-529 -273.5t-607.5 -97zM1956 -633q275 0 523.5 84t455.5 236t359 359t235.5 455.5t83.5 522.5
q0 275 -83.5 523.5t-235.5 455.5t-359 359t-455.5 235.5t-523.5 83.5t-523 -83.5t-455.5 -235.5t-359.5 -359t-235.5 -455.5t-83.5 -523.5q0 -274 83.5 -522.5t235.5 -455.5t359.5 -359t455.5 -236t523 -84z" />
    <glyph glyph-name="uni24BA" unicode="E&#x20dd;" horiz-adv-x="3912" 
d="M1286 0v2048h1332v-311h-961v-556h892v-311h-892v-559h969v-311h-1340zM1956 -900q-319 0 -607.5 97t-529 273.5t-417 417t-273.5 529t-97 607.5t97 607.5t273.5 529t417 417t529 273.5t607.5 97t607.5 -97t529 -273.5t417 -417t273.5 -529t97 -607.5t-97 -607.5
t-273.5 -529t-417 -417t-529 -273.5t-607.5 -97zM1956 -633q275 0 523.5 84t455.5 236t359 359t235.5 455.5t83.5 522.5q0 275 -83.5 523.5t-235.5 455.5t-359 359t-455.5 235.5t-523.5 83.5t-523 -83.5t-455.5 -235.5t-359.5 -359t-235.5 -455.5t-83.5 -523.5
q0 -274 83.5 -522.5t235.5 -455.5t359.5 -359t455.5 -236t523 -84z" />
    <glyph glyph-name="uni24BB" unicode="F&#x20dd;" horiz-adv-x="3912" 
d="M1300 0v2048h1312v-311h-941v-556h851v-311h-851v-870h-371zM1956 -900q-319 0 -607.5 97t-529 273.5t-417 417t-273.5 529t-97 607.5t97 607.5t273.5 529t417 417t529 273.5t607.5 97t607.5 -97t529 -273.5t417 -417t273.5 -529t97 -607.5t-97 -607.5t-273.5 -529
t-417 -417t-529 -273.5t-607.5 -97zM1956 -633q275 0 523.5 84t455.5 236t359 359t235.5 455.5t83.5 522.5q0 275 -83.5 523.5t-235.5 455.5t-359 359t-455.5 235.5t-523.5 83.5t-523 -83.5t-455.5 -235.5t-359.5 -359t-235.5 -455.5t-83.5 -523.5q0 -274 83.5 -522.5
t235.5 -455.5t359.5 -359t455.5 -236t523 -84z" />
    <glyph glyph-name="uni24BC" unicode="G&#x20dd;" horiz-adv-x="3912" 
d="M2470 1394q-25 81 -68.5 145.5t-104 110.5t-138.5 69.5t-170 23.5q-165 0 -294 -83t-202.5 -243.5t-73.5 -390.5q0 -232 73 -393t203 -244.5t302 -83.5q156 0 270.5 60t176.5 170.5t62 259.5l84 -13h-556v290h831v-246q0 -263 -112 -455t-308 -295.5t-450 -103.5
q-283 0 -496.5 127.5t-333 363t-119.5 559.5q0 248 70.5 443t197.5 331.5t298 208t372 71.5q170 0 317 -49.5t261.5 -140.5t188.5 -216t97 -276h-378zM1956 -900q-319 0 -607.5 97t-529 273.5t-417 417t-273.5 529t-97 607.5t97 607.5t273.5 529t417 417t529 273.5t607.5 97
t607.5 -97t529 -273.5t417 -417t273.5 -529t97 -607.5t-97 -607.5t-273.5 -529t-417 -417t-529 -273.5t-607.5 -97zM1956 -633q275 0 523.5 84t455.5 236t359 359t235.5 455.5t83.5 522.5q0 275 -83.5 523.5t-235.5 455.5t-359 359t-455.5 235.5t-523.5 83.5t-523 -83.5
t-455.5 -235.5t-359.5 -359t-235.5 -455.5t-83.5 -523.5q0 -274 83.5 -522.5t235.5 -455.5t359.5 -359t455.5 -236t523 -84z" />
    <glyph glyph-name="uni24BD" unicode="H&#x20dd;" horiz-adv-x="3912" 
d="M1104 0v2048h371v-867h949v867h372v-2048h-372v870h-949v-870h-371zM1956 -900q-319 0 -607.5 97t-529 273.5t-417 417t-273.5 529t-97 607.5t97 607.5t273.5 529t417 417t529 273.5t607.5 97t607.5 -97t529 -273.5t417 -417t273.5 -529t97 -607.5t-97 -607.5
t-273.5 -529t-417 -417t-529 -273.5t-607.5 -97zM1956 -633q275 0 523.5 84t455.5 236t359 359t235.5 455.5t83.5 522.5q0 275 -83.5 523.5t-235.5 455.5t-359 359t-455.5 235.5t-523.5 83.5t-523 -83.5t-455.5 -235.5t-359.5 -359t-235.5 -455.5t-83.5 -523.5
q0 -274 83.5 -522.5t235.5 -455.5t359.5 -359t455.5 -236t523 -84z" />
    <glyph glyph-name="uni24BE" unicode="I&#x20dd;" horiz-adv-x="3912" 
d="M2142 2048v-2048h-371v2048h371zM1956 -900q-319 0 -607.5 97t-529 273.5t-417 417t-273.5 529t-97 607.5t97 607.5t273.5 529t417 417t529 273.5t607.5 97t607.5 -97t529 -273.5t417 -417t273.5 -529t97 -607.5t-97 -607.5t-273.5 -529t-417 -417t-529 -273.5
t-607.5 -97zM1956 -633q275 0 523.5 84t455.5 236t359 359t235.5 455.5t83.5 522.5q0 275 -83.5 523.5t-235.5 455.5t-359 359t-455.5 235.5t-523.5 83.5t-523 -83.5t-455.5 -235.5t-359.5 -359t-235.5 -455.5t-83.5 -523.5q0 -274 83.5 -522.5t235.5 -455.5t359.5 -359
t455.5 -236t523 -84z" />
    <glyph glyph-name="uni24BF" unicode="J&#x20dd;" horiz-adv-x="3912" 
d="M2172 2048h368v-1440q-1 -198 -84 -340.5t-231.5 -219t-345.5 -76.5q-180 0 -323.5 64.5t-227.5 191.5t-84 316h369q1 -83 36.5 -143t98.5 -92t145 -32q89 0 151 37.5t94.5 111.5t33.5 182v1440zM1956 -900q-319 0 -607.5 97t-529 273.5t-417 417t-273.5 529t-97 607.5
t97 607.5t273.5 529t417 417t529 273.5t607.5 97t607.5 -97t529 -273.5t417 -417t273.5 -529t97 -607.5t-97 -607.5t-273.5 -529t-417 -417t-529 -273.5t-607.5 -97zM1956 -633q275 0 523.5 84t455.5 236t359 359t235.5 455.5t83.5 522.5q0 275 -83.5 523.5t-235.5 455.5
t-359 359t-455.5 235.5t-523.5 83.5t-523 -83.5t-455.5 -235.5t-359.5 -359t-235.5 -455.5t-83.5 -523.5q0 -274 83.5 -522.5t235.5 -455.5t359.5 -359t455.5 -236t523 -84z" />
    <glyph glyph-name="uni24C0" unicode="K&#x20dd;" horiz-adv-x="3912" 
d="M1198 0v2048h371v-941h25l799 941h453l-792 -919l799 -1129h-446l-611 878l-227 -268v-610h-371zM1956 -900q-319 0 -607.5 97t-529 273.5t-417 417t-273.5 529t-97 607.5t97 607.5t273.5 529t417 417t529 273.5t607.5 97t607.5 -97t529 -273.5t417 -417t273.5 -529
t97 -607.5t-97 -607.5t-273.5 -529t-417 -417t-529 -273.5t-607.5 -97zM1956 -633q275 0 523.5 84t455.5 236t359 359t235.5 455.5t83.5 522.5q0 275 -83.5 523.5t-235.5 455.5t-359 359t-455.5 235.5t-523.5 83.5t-523 -83.5t-455.5 -235.5t-359.5 -359t-235.5 -455.5
t-83.5 -523.5q0 -274 83.5 -522.5t235.5 -455.5t359.5 -359t455.5 -236t523 -84z" />
    <glyph glyph-name="uni24C1" unicode="L&#x20dd;" horiz-adv-x="3912" 
d="M1372 0v2048h371v-1737h902v-311h-1273zM1956 -900q-319 0 -607.5 97t-529 273.5t-417 417t-273.5 529t-97 607.5t97 607.5t273.5 529t417 417t529 273.5t607.5 97t607.5 -97t529 -273.5t417 -417t273.5 -529t97 -607.5t-97 -607.5t-273.5 -529t-417 -417t-529 -273.5
t-607.5 -97zM1956 -633q275 0 523.5 84t455.5 236t359 359t235.5 455.5t83.5 522.5q0 275 -83.5 523.5t-235.5 455.5t-359 359t-455.5 235.5t-523.5 83.5t-523 -83.5t-455.5 -235.5t-359.5 -359t-235.5 -455.5t-83.5 -523.5q0 -274 83.5 -522.5t235.5 -455.5t359.5 -359
t455.5 -236t523 -84z" />
    <glyph glyph-name="uni24C2" unicode="M&#x20dd;" horiz-adv-x="3912" 
d="M882 2048h454l608 -1484h24l608 1484h454v-2048h-356v1407h-19l-566 -1401h-266l-566 1404h-19v-1410h-356v2048zM1956 -900q-319 0 -607.5 97t-529 273.5t-417 417t-273.5 529t-97 607.5t97 607.5t273.5 529t417 417t529 273.5t607.5 97t607.5 -97t529 -273.5t417 -417
t273.5 -529t97 -607.5t-97 -607.5t-273.5 -529t-417 -417t-529 -273.5t-607.5 -97zM1956 -633q275 0 523.5 84t455.5 236t359 359t235.5 455.5t83.5 522.5q0 275 -83.5 523.5t-235.5 455.5t-359 359t-455.5 235.5t-523.5 83.5t-523 -83.5t-455.5 -235.5t-359.5 -359
t-235.5 -455.5t-83.5 -523.5q0 -274 83.5 -522.5t235.5 -455.5t359.5 -359t455.5 -236t523 -84z" />
    <glyph glyph-name="uni24C3" unicode="N&#x20dd;" horiz-adv-x="3912" 
d="M2798 2048v-2048h-330l-965 1395h-17v-1395h-371v2048h332l964 -1396h18v1396h369zM1956 -900q-319 0 -607.5 97t-529 273.5t-417 417t-273.5 529t-97 607.5t97 607.5t273.5 529t417 417t529 273.5t607.5 97t607.5 -97t529 -273.5t417 -417t273.5 -529t97 -607.5
t-97 -607.5t-273.5 -529t-417 -417t-529 -273.5t-607.5 -97zM1956 -633q275 0 523.5 84t455.5 236t359 359t235.5 455.5t83.5 522.5q0 275 -83.5 523.5t-235.5 455.5t-359 359t-455.5 235.5t-523.5 83.5t-523 -83.5t-455.5 -235.5t-359.5 -359t-235.5 -455.5t-83.5 -523.5
q0 -274 83.5 -522.5t235.5 -455.5t359.5 -359t455.5 -236t523 -84z" />
    <glyph glyph-name="uni24C4" unicode="O&#x20dd;" horiz-adv-x="3912" 
d="M2897 1024q0 -331 -123.5 -566.5t-336 -360.5t-481.5 -125t-481.5 125.5t-336 361t-123.5 565.5q0 331 123.5 566.5t336 360.5t481.5 125t481.5 -125t336 -360.5t123.5 -566.5zM2524 1024q0 233 -72.5 393.5t-200.5 243t-295 82.5t-295 -82.5t-200.5 -243t-72.5 -393.5
t72.5 -393.5t200.5 -243t295 -82.5t295 82.5t200.5 243t72.5 393.5zM1956 -900q-319 0 -607.5 97t-529 273.5t-417 417t-273.5 529t-97 607.5t97 607.5t273.5 529t417 417t529 273.5t607.5 97t607.5 -97t529 -273.5t417 -417t273.5 -529t97 -607.5t-97 -607.5t-273.5 -529
t-417 -417t-529 -273.5t-607.5 -97zM1956 -633q275 0 523.5 84t455.5 236t359 359t235.5 455.5t83.5 522.5q0 275 -83.5 523.5t-235.5 455.5t-359 359t-455.5 235.5t-523.5 83.5t-523 -83.5t-455.5 -235.5t-359.5 -359t-235.5 -455.5t-83.5 -523.5q0 -274 83.5 -522.5
t235.5 -455.5t359.5 -359t455.5 -236t523 -84z" />
    <glyph glyph-name="uni24C5" unicode="P&#x20dd;" horiz-adv-x="3912" 
d="M1303 0v2048h768q236 0 396.5 -88t243 -241.5t82.5 -348.5q0 -197 -83 -350t-245 -240.5t-399 -87.5h-509v305h459q138 0 226 48t130.5 132t42.5 193t-42.5 192t-131 129.5t-227.5 46.5h-340v-1738h-371zM1956 -900q-319 0 -607.5 97t-529 273.5t-417 417t-273.5 529
t-97 607.5t97 607.5t273.5 529t417 417t529 273.5t607.5 97t607.5 -97t529 -273.5t417 -417t273.5 -529t97 -607.5t-97 -607.5t-273.5 -529t-417 -417t-529 -273.5t-607.5 -97zM1956 -633q275 0 523.5 84t455.5 236t359 359t235.5 455.5t83.5 522.5q0 275 -83.5 523.5
t-235.5 455.5t-359 359t-455.5 235.5t-523.5 83.5t-523 -83.5t-455.5 -235.5t-359.5 -359t-235.5 -455.5t-83.5 -523.5q0 -274 83.5 -522.5t235.5 -455.5t359.5 -359t455.5 -236t523 -84z" />
    <glyph glyph-name="uni24C6" unicode="Q&#x20dd;" horiz-adv-x="3912" 
d="M1829 688h336l199 -258l142 -168l341 -438h-360l-232 294l-99 140zM2896 1024q0 -331 -123.5 -566.5t-336 -360.5t-481.5 -125t-481.5 125.5t-336 361t-123.5 565.5q0 331 123.5 566.5t336 360.5t481.5 125t481.5 -125t336 -360.5t123.5 -566.5zM2523 1024
q0 233 -72.5 393.5t-200.5 243t-295 82.5t-295 -82.5t-200.5 -243t-72.5 -393.5t72.5 -393.5t200.5 -243t295 -82.5t295 82.5t200.5 243t72.5 393.5zM1956 -900q-319 0 -607.5 97t-529 273.5t-417 417t-273.5 529t-97 607.5t97 607.5t273.5 529t417 417t529 273.5t607.5 97
t607.5 -97t529 -273.5t417 -417t273.5 -529t97 -607.5t-97 -607.5t-273.5 -529t-417 -417t-529 -273.5t-607.5 -97zM1956 -633q275 0 523.5 84t455.5 236t359 359t235.5 455.5t83.5 522.5q0 275 -83.5 523.5t-235.5 455.5t-359 359t-455.5 235.5t-523.5 83.5t-523 -83.5
t-455.5 -235.5t-359.5 -359t-235.5 -455.5t-83.5 -523.5q0 -274 83.5 -522.5t235.5 -455.5t359.5 -359t455.5 -236t523 -84z" />
    <glyph glyph-name="uni24C7" unicode="R&#x20dd;" horiz-adv-x="3912" 
d="M1242 0v2048h768q236 0 396.5 -82t243 -229.5t82.5 -343.5q0 -197 -83.5 -341.5t-245.5 -223t-398 -78.5h-547v308h497q138 0 226 38.5t130.5 113t42.5 183.5t-43 186.5t-131 118t-227 40.5h-340v-1738h-371zM2300 928l507 -928h-414l-498 928h405zM1956 -900
q-319 0 -607.5 97t-529 273.5t-417 417t-273.5 529t-97 607.5t97 607.5t273.5 529t417 417t529 273.5t607.5 97t607.5 -97t529 -273.5t417 -417t273.5 -529t97 -607.5t-97 -607.5t-273.5 -529t-417 -417t-529 -273.5t-607.5 -97zM1956 -633q275 0 523.5 84t455.5 236
t359 359t235.5 455.5t83.5 522.5q0 275 -83.5 523.5t-235.5 455.5t-359 359t-455.5 235.5t-523.5 83.5t-523 -83.5t-455.5 -235.5t-359.5 -359t-235.5 -455.5t-83.5 -523.5q0 -274 83.5 -522.5t235.5 -455.5t359.5 -359t455.5 -236t523 -84z" />
    <glyph glyph-name="uni24C8" unicode="S&#x20dd;" horiz-adv-x="3912" 
d="M2357 1485q-14 131 -117.5 204t-268.5 73q-116 0 -199 -35t-127 -95t-45 -137q0 -64 29.5 -111t80.5 -79.5t113 -54.5t125 -37l192 -48q116 -27 223.5 -73t193 -116t135.5 -169t50 -232q0 -180 -92 -316.5t-265.5 -213t-419.5 -76.5q-239 0 -414.5 74t-274 216
t-106.5 346h365q8 -107 66 -178t151.5 -106t209.5 -35q121 0 212.5 36.5t143.5 102t53 153.5q-1 80 -47 132.5t-128.5 88t-192.5 63.5l-233 60q-253 65 -399.5 197.5t-146.5 352.5q0 181 98.5 317t268.5 211.5t385 75.5q218 0 382.5 -75.5t258.5 -209t97 -306.5h-357z
M1956 -900q-319 0 -607.5 97t-529 273.5t-417 417t-273.5 529t-97 607.5t97 607.5t273.5 529t417 417t529 273.5t607.5 97t607.5 -97t529 -273.5t417 -417t273.5 -529t97 -607.5t-97 -607.5t-273.5 -529t-417 -417t-529 -273.5t-607.5 -97zM1956 -633q275 0 523.5 84
t455.5 236t359 359t235.5 455.5t83.5 522.5q0 275 -83.5 523.5t-235.5 455.5t-359 359t-455.5 235.5t-523.5 83.5t-523 -83.5t-455.5 -235.5t-359.5 -359t-235.5 -455.5t-83.5 -523.5q0 -274 83.5 -522.5t235.5 -455.5t359.5 -359t455.5 -236t523 -84z" />
    <glyph glyph-name="uni24C9" unicode="T&#x20dd;" horiz-adv-x="3912" 
d="M1139 1737v311h1634v-311h-633v-1737h-368v1737h-633zM1956 -900q-319 0 -607.5 97t-529 273.5t-417 417t-273.5 529t-97 607.5t97 607.5t273.5 529t417 417t529 273.5t607.5 97t607.5 -97t529 -273.5t417 -417t273.5 -529t97 -607.5t-97 -607.5t-273.5 -529t-417 -417
t-529 -273.5t-607.5 -97zM1956 -633q275 0 523.5 84t455.5 236t359 359t235.5 455.5t83.5 522.5q0 275 -83.5 523.5t-235.5 455.5t-359 359t-455.5 235.5t-523.5 83.5t-523 -83.5t-455.5 -235.5t-359.5 -359t-235.5 -455.5t-83.5 -523.5q0 -274 83.5 -522.5t235.5 -455.5
t359.5 -359t455.5 -236t523 -84z" />
    <glyph glyph-name="uni24CA" unicode="U&#x20dd;" horiz-adv-x="3912" 
d="M2416 2048h371v-1338q0 -220 -103.5 -387t-290.5 -260.5t-437 -93.5q-251 0 -438 93.5t-290 260.5t-103 387v1338h371v-1307q0 -128 56.5 -228t159.5 -156.5t244 -56.5t244.5 56.5t159.5 156.5t56 228v1307zM1956 -900q-319 0 -607.5 97t-529 273.5t-417 417t-273.5 529
t-97 607.5t97 607.5t273.5 529t417 417t529 273.5t607.5 97t607.5 -97t529 -273.5t417 -417t273.5 -529t97 -607.5t-97 -607.5t-273.5 -529t-417 -417t-529 -273.5t-607.5 -97zM1956 -633q275 0 523.5 84t455.5 236t359 359t235.5 455.5t83.5 522.5q0 275 -83.5 523.5
t-235.5 455.5t-359 359t-455.5 235.5t-523.5 83.5t-523 -83.5t-455.5 -235.5t-359.5 -359t-235.5 -455.5t-83.5 -523.5q0 -274 83.5 -522.5t235.5 -455.5t359.5 -359t455.5 -236t523 -84z" />
    <glyph glyph-name="uni24CB" unicode="V&#x20dd;" horiz-adv-x="3912" 
d="M1413 2048l533 -1612h21l532 1612h408l-722 -2048h-458l-721 2048h407zM1956 -900q-319 0 -607.5 97t-529 273.5t-417 417t-273.5 529t-97 607.5t97 607.5t273.5 529t417 417t529 273.5t607.5 97t607.5 -97t529 -273.5t417 -417t273.5 -529t97 -607.5t-97 -607.5
t-273.5 -529t-417 -417t-529 -273.5t-607.5 -97zM1956 -633q275 0 523.5 84t455.5 236t359 359t235.5 455.5t83.5 522.5q0 275 -83.5 523.5t-235.5 455.5t-359 359t-455.5 235.5t-523.5 83.5t-523 -83.5t-455.5 -235.5t-359.5 -359t-235.5 -455.5t-83.5 -523.5
q0 -274 83.5 -522.5t235.5 -455.5t359.5 -359t455.5 -236t523 -84z" />
    <glyph glyph-name="uni24CC" unicode="W&#x20dd;" horiz-adv-x="3912" 
d="M1171 0l-578 2048h399l369 -1505h19l394 1505h363l395 -1506h18l369 1506h399l-578 -2048h-366l-410 1437h-16l-411 -1437h-366zM1956 -900q-319 0 -607.5 97t-529 273.5t-417 417t-273.5 529t-97 607.5t97 607.5t273.5 529t417 417t529 273.5t607.5 97t607.5 -97
t529 -273.5t417 -417t273.5 -529t97 -607.5t-97 -607.5t-273.5 -529t-417 -417t-529 -273.5t-607.5 -97zM1956 -633q275 0 523.5 84t455.5 236t359 359t235.5 455.5t83.5 522.5q0 275 -83.5 523.5t-235.5 455.5t-359 359t-455.5 235.5t-523.5 83.5t-523 -83.5t-455.5 -235.5
t-359.5 -359t-235.5 -455.5t-83.5 -523.5q0 -274 83.5 -522.5t235.5 -455.5t359.5 -359t455.5 -236t523 -84z" />
    <glyph glyph-name="uni24CD" unicode="X&#x20dd;" horiz-adv-x="3912" 
d="M1497 2048l451 -750h16l453 750h423l-631 -1024l641 -1024h-430l-456 745h-16l-456 -745h-428l647 1024l-639 1024h425zM1956 -900q-319 0 -607.5 97t-529 273.5t-417 417t-273.5 529t-97 607.5t97 607.5t273.5 529t417 417t529 273.5t607.5 97t607.5 -97t529 -273.5
t417 -417t273.5 -529t97 -607.5t-97 -607.5t-273.5 -529t-417 -417t-529 -273.5t-607.5 -97zM1956 -633q275 0 523.5 84t455.5 236t359 359t235.5 455.5t83.5 522.5q0 275 -83.5 523.5t-235.5 455.5t-359 359t-455.5 235.5t-523.5 83.5t-523 -83.5t-455.5 -235.5
t-359.5 -359t-235.5 -455.5t-83.5 -523.5q0 -274 83.5 -522.5t235.5 -455.5t359.5 -359t455.5 -236t523 -84z" />
    <glyph glyph-name="uni24CE" unicode="Y&#x20dd;" horiz-adv-x="3912" 
d="M1026 2048h419l501 -906h20l501 906h419l-745 -1284v-764h-370v764zM1956 -900q-319 0 -607.5 97t-529 273.5t-417 417t-273.5 529t-97 607.5t97 607.5t273.5 529t417 417t529 273.5t607.5 97t607.5 -97t529 -273.5t417 -417t273.5 -529t97 -607.5t-97 -607.5
t-273.5 -529t-417 -417t-529 -273.5t-607.5 -97zM1956 -633q275 0 523.5 84t455.5 236t359 359t235.5 455.5t83.5 522.5q0 275 -83.5 523.5t-235.5 455.5t-359 359t-455.5 235.5t-523.5 83.5t-523 -83.5t-455.5 -235.5t-359.5 -359t-235.5 -455.5t-83.5 -523.5
q0 -274 83.5 -522.5t235.5 -455.5t359.5 -359t455.5 -236t523 -84z" />
    <glyph glyph-name="uni24CF" unicode="Z&#x20dd;" horiz-adv-x="3912" 
d="M1201 0v231l1050 1506h-1056v311h1516v-231l-1049 -1506h1055v-311h-1516zM1956 -900q-319 0 -607.5 97t-529 273.5t-417 417t-273.5 529t-97 607.5t97 607.5t273.5 529t417 417t529 273.5t607.5 97t607.5 -97t529 -273.5t417 -417t273.5 -529t97 -607.5t-97 -607.5
t-273.5 -529t-417 -417t-529 -273.5t-607.5 -97zM1956 -633q275 0 523.5 84t455.5 236t359 359t235.5 455.5t83.5 522.5q0 275 -83.5 523.5t-235.5 455.5t-359 359t-455.5 235.5t-523.5 83.5t-523 -83.5t-455.5 -235.5t-359.5 -359t-235.5 -455.5t-83.5 -523.5
q0 -274 83.5 -522.5t235.5 -455.5t359.5 -359t455.5 -236t523 -84z" />
    <glyph glyph-name="uni24EA" unicode="&#x30;&#x20dd;" horiz-adv-x="3912" 
d="M1956 -39q-247 0 -423.5 125.5t-271 363t-94.5 572.5q1 335 95.5 570.5t271 359.5t422.5 124t423 -124t271.5 -360t94.5 -570q0 -336 -94.5 -573.5t-271 -362.5t-423.5 -125zM1956 274q192 0 303.5 189.5t111.5 558.5q0 244 -51 410t-144 250.5t-220 84.5
q-191 0 -302 -189.5t-112 -555.5q-1 -245 49.5 -412t143.5 -251.5t221 -84.5zM1956 -900q-319 0 -607.5 97t-529 273.5t-417 417t-273.5 529t-97 607.5t97 607.5t273.5 529t417 417t529 273.5t607.5 97t607.5 -97t529 -273.5t417 -417t273.5 -529t97 -607.5t-97 -607.5
t-273.5 -529t-417 -417t-529 -273.5t-607.5 -97zM1956 -633q275 0 523.5 84t455.5 236t359 359t235.5 455.5t83.5 522.5q0 275 -83.5 523.5t-235.5 455.5t-359 359t-455.5 235.5t-523.5 83.5t-523 -83.5t-455.5 -235.5t-359.5 -359t-235.5 -455.5t-83.5 -523.5
q0 -274 83.5 -522.5t235.5 -455.5t359.5 -359t455.5 -236t523 -84z" />
    <glyph glyph-name="uni2460" unicode="&#x31;&#x20dd;" horiz-adv-x="3912" 
d="M2192 2048v-2048h-371v1687h-12l-479 -306v340l509 327h353zM1956 -900q-319 0 -607.5 97t-529 273.5t-417 417t-273.5 529t-97 607.5t97 607.5t273.5 529t417 417t529 273.5t607.5 97t607.5 -97t529 -273.5t417 -417t273.5 -529t97 -607.5t-97 -607.5t-273.5 -529
t-417 -417t-529 -273.5t-607.5 -97zM1956 -633q275 0 523.5 84t455.5 236t359 359t235.5 455.5t83.5 522.5q0 275 -83.5 523.5t-235.5 455.5t-359 359t-455.5 235.5t-523.5 83.5t-523 -83.5t-455.5 -235.5t-359.5 -359t-235.5 -455.5t-83.5 -523.5q0 -274 83.5 -522.5
t235.5 -455.5t359.5 -359t455.5 -236t523 -84z" />
    <glyph glyph-name="uni2461" unicode="&#x32;&#x20dd;" horiz-adv-x="3912" 
d="M1262 0v268l711 697q102 103 170 183t102 155t34 160q0 97 -44 166.5t-121 107.5t-175 38q-101 0 -177 -41.5t-117.5 -117.5t-41.5 -181h-353q0 195 89 339t245.5 223t359.5 79q206 0 362 -77t242.5 -211t86.5 -306q0 -115 -44 -226t-154.5 -246t-309.5 -327l-353 -359
v-14h892v-310h-1404zM1956 -900q-319 0 -607.5 97t-529 273.5t-417 417t-273.5 529t-97 607.5t97 607.5t273.5 529t417 417t529 273.5t607.5 97t607.5 -97t529 -273.5t417 -417t273.5 -529t97 -607.5t-97 -607.5t-273.5 -529t-417 -417t-529 -273.5t-607.5 -97zM1956 -633
q275 0 523.5 84t455.5 236t359 359t235.5 455.5t83.5 522.5q0 275 -83.5 523.5t-235.5 455.5t-359 359t-455.5 235.5t-523.5 83.5t-523 -83.5t-455.5 -235.5t-359.5 -359t-235.5 -455.5t-83.5 -523.5q0 -274 83.5 -522.5t235.5 -455.5t359.5 -359t455.5 -236t523 -84z" />
    <glyph glyph-name="uni2462" unicode="&#x33;&#x20dd;" horiz-adv-x="3912" 
d="M1953 -28q-216 0 -383.5 74t-264.5 206t-103 305h376q5 -83 55 -144.5t133 -95.5t186 -34q110 0 195 38.5t133 107.5t47 159q1 93 -48 164t-141.5 111t-222.5 40h-181v286h181q107 0 187.5 37t126.5 104.5t45 156.5q1 87 -38.5 151.5t-111 100.5t-167.5 36
q-94 0 -174 -34t-129 -96.5t-52 -148.5h-357q4 172 99.5 302.5t255.5 204t359 73.5q205 0 356.5 -76.5t234.5 -205.5t83 -285q1 -173 -101.5 -290t-268.5 -153v-16q216 -30 331.5 -159.5t114.5 -321.5q0 -172 -97.5 -307.5t-268 -212.5t-390.5 -77zM1956 -900
q-319 0 -607.5 97t-529 273.5t-417 417t-273.5 529t-97 607.5t97 607.5t273.5 529t417 417t529 273.5t607.5 97t607.5 -97t529 -273.5t417 -417t273.5 -529t97 -607.5t-97 -607.5t-273.5 -529t-417 -417t-529 -273.5t-607.5 -97zM1956 -633q275 0 523.5 84t455.5 236
t359 359t235.5 455.5t83.5 522.5q0 275 -83.5 523.5t-235.5 455.5t-359 359t-455.5 235.5t-523.5 83.5t-523 -83.5t-455.5 -235.5t-359.5 -359t-235.5 -455.5t-83.5 -523.5q0 -274 83.5 -522.5t235.5 -455.5t359.5 -359t455.5 -236t523 -84z" />
    <glyph glyph-name="uni2463" unicode="&#x34;&#x20dd;" horiz-adv-x="3912" 
d="M1047 380v295l869 1373h246v-420h-150l-585 -927v-16h1213v-305h-1593zM2024 0v470l4 132v1446h350v-2048h-354zM1956 -900q-319 0 -607.5 97t-529 273.5t-417 417t-273.5 529t-97 607.5t97 607.5t273.5 529t417 417t529 273.5t607.5 97t607.5 -97t529 -273.5t417 -417
t273.5 -529t97 -607.5t-97 -607.5t-273.5 -529t-417 -417t-529 -273.5t-607.5 -97zM1956 -633q275 0 523.5 84t455.5 236t359 359t235.5 455.5t83.5 522.5q0 275 -83.5 523.5t-235.5 455.5t-359 359t-455.5 235.5t-523.5 83.5t-523 -83.5t-455.5 -235.5t-359.5 -359
t-235.5 -455.5t-83.5 -523.5q0 -274 83.5 -522.5t235.5 -455.5t359.5 -359t455.5 -236t523 -84z" />
    <glyph glyph-name="uni2464" unicode="&#x35;&#x20dd;" horiz-adv-x="3912" 
d="M1942 -28q-200 0 -358 75.5t-250.5 207.5t-98.5 302h360q10 -126 109 -205.5t238 -79.5q109 0 194 50t134 139t48 203q1 116 -49 206t-137 141.5t-200 51.5q-92 1 -181 -34t-141 -92l-335 55l107 1056h1188v-310h-881l-59 -543h12q57 67 161 111.5t228 44.5
q186 0 332 -87.5t230 -240.5t84 -350q0 -203 -93.5 -361.5t-259 -249t-382.5 -90.5zM1956 -900q-319 0 -607.5 97t-529 273.5t-417 417t-273.5 529t-97 607.5t97 607.5t273.5 529t417 417t529 273.5t607.5 97t607.5 -97t529 -273.5t417 -417t273.5 -529t97 -607.5
t-97 -607.5t-273.5 -529t-417 -417t-529 -273.5t-607.5 -97zM1956 -633q275 0 523.5 84t455.5 236t359 359t235.5 455.5t83.5 522.5q0 275 -83.5 523.5t-235.5 455.5t-359 359t-455.5 235.5t-523.5 83.5t-523 -83.5t-455.5 -235.5t-359.5 -359t-235.5 -455.5t-83.5 -523.5
q0 -274 83.5 -522.5t235.5 -455.5t359.5 -359t455.5 -236t523 -84z" />
    <glyph glyph-name="uni2465" unicode="&#x36;&#x20dd;" horiz-adv-x="3912" 
d="M1970 -28q-147 1 -286.5 51.5t-251.5 165t-178 305t-66 472.5q0 265 56 472t161 350.5t253.5 218.5t332.5 75q193 0 342.5 -76.5t241.5 -209t114 -300.5h-365q-28 122 -114.5 193.5t-218.5 71.5q-213 0 -327.5 -186t-115.5 -513h14q49 88 127 151t176.5 97.5t208.5 34.5
q180 0 323.5 -86t227.5 -236.5t83 -344.5q1 -202 -92 -362.5t-259 -252.5t-387 -91zM1968 272q109 0 195 53t136 143t49 202q1 110 -47.5 199t-133.5 141t-194 52q-81 0 -151 -31t-122 -85.5t-81.5 -126t-30.5 -152.5q1 -107 50 -197t135 -144t195 -54zM1956 -900
q-319 0 -607.5 97t-529 273.5t-417 417t-273.5 529t-97 607.5t97 607.5t273.5 529t417 417t529 273.5t607.5 97t607.5 -97t529 -273.5t417 -417t273.5 -529t97 -607.5t-97 -607.5t-273.5 -529t-417 -417t-529 -273.5t-607.5 -97zM1956 -633q275 0 523.5 84t455.5 236
t359 359t235.5 455.5t83.5 522.5q0 275 -83.5 523.5t-235.5 455.5t-359 359t-455.5 235.5t-523.5 83.5t-523 -83.5t-455.5 -235.5t-359.5 -359t-235.5 -455.5t-83.5 -523.5q0 -274 83.5 -522.5t235.5 -455.5t359.5 -359t455.5 -236t523 -84z" />
    <glyph glyph-name="uni2466" unicode="&#x37;&#x20dd;" horiz-adv-x="3912" 
d="M1448 0l871 1724v14h-1011v310h1395v-317l-870 -1731h-385zM1956 -900q-319 0 -607.5 97t-529 273.5t-417 417t-273.5 529t-97 607.5t97 607.5t273.5 529t417 417t529 273.5t607.5 97t607.5 -97t529 -273.5t417 -417t273.5 -529t97 -607.5t-97 -607.5t-273.5 -529
t-417 -417t-529 -273.5t-607.5 -97zM1956 -633q275 0 523.5 84t455.5 236t359 359t235.5 455.5t83.5 522.5q0 275 -83.5 523.5t-235.5 455.5t-359 359t-455.5 235.5t-523.5 83.5t-523 -83.5t-455.5 -235.5t-359.5 -359t-235.5 -455.5t-83.5 -523.5q0 -274 83.5 -522.5
t235.5 -455.5t359.5 -359t455.5 -236t523 -84z" />
    <glyph glyph-name="uni2467" unicode="&#x38;&#x20dd;" horiz-adv-x="3912" 
d="M1956 -28q-223 0 -395.5 75t-270 205.5t-96.5 296.5q-1 129 56 237t154.5 180.5t217.5 92.5v14q-158 35 -255.5 161.5t-96.5 292.5q-1 158 88 282t244 195.5t354 71.5q197 0 351.5 -71.5t244 -195.5t89.5 -282q0 -166 -98.5 -292.5t-253.5 -161.5v-14
q120 -20 216.5 -92.5t154 -180.5t57.5 -237q0 -166 -98 -296.5t-269.5 -205.5t-393.5 -75zM1956 258q115 0 200 39.5t132 111.5t48 166q-1 98 -50.5 173.5t-135 118.5t-194.5 43q-110 0 -196 -43t-135.5 -118.5t-48.5 -173.5q-1 -94 46 -165.5t132.5 -111.5t201.5 -40z
M1956 1191q94 0 166.5 38t114.5 106t43 157q-1 88 -42 154.5t-114 103t-168 36.5q-97 0 -170.5 -36.5t-114 -103t-39.5 -154.5q-1 -89 40.5 -156.5t115 -106t168.5 -38.5zM1956 -900q-319 0 -607.5 97t-529 273.5t-417 417t-273.5 529t-97 607.5t97 607.5t273.5 529t417 417
t529 273.5t607.5 97t607.5 -97t529 -273.5t417 -417t273.5 -529t97 -607.5t-97 -607.5t-273.5 -529t-417 -417t-529 -273.5t-607.5 -97zM1956 -633q275 0 523.5 84t455.5 236t359 359t235.5 455.5t83.5 522.5q0 275 -83.5 523.5t-235.5 455.5t-359 359t-455.5 235.5
t-523.5 83.5t-523 -83.5t-455.5 -235.5t-359.5 -359t-235.5 -455.5t-83.5 -523.5q0 -274 83.5 -522.5t235.5 -455.5t359.5 -359t455.5 -236t523 -84z" />
    <glyph glyph-name="uni2468" unicode="&#x39;&#x20dd;" horiz-adv-x="3912" 
d="M1939 2082q147 -1 286.5 -52t251.5 -165t178 -305t66 -473q0 -264 -56.5 -471.5t-161 -350.5t-252.5 -218t-333 -75q-194 0 -343.5 76t-241.5 208t-113 302h365q28 -122 114.5 -193.5t218.5 -71.5q213 0 328 185t115 514h-14q-49 -88 -127 -151.5t-176.5 -97.5
t-208.5 -34q-180 0 -324 86t-227.5 236.5t-83.5 344.5q0 202 92.5 362t258.5 252.5t388 91.5zM1940 1782q-108 0 -194.5 -53t-136 -143t-49.5 -202q0 -110 48.5 -199.5t133.5 -141.5t194 -52q81 0 151 31.5t122 86.5t81.5 126.5t29.5 150.5q0 107 -49.5 197t-135 144.5
t-195.5 54.5zM1956 -900q-319 0 -607.5 97t-529 273.5t-417 417t-273.5 529t-97 607.5t97 607.5t273.5 529t417 417t529 273.5t607.5 97t607.5 -97t529 -273.5t417 -417t273.5 -529t97 -607.5t-97 -607.5t-273.5 -529t-417 -417t-529 -273.5t-607.5 -97zM1956 -633
q275 0 523.5 84t455.5 236t359 359t235.5 455.5t83.5 522.5q0 275 -83.5 523.5t-235.5 455.5t-359 359t-455.5 235.5t-523.5 83.5t-523 -83.5t-455.5 -235.5t-359.5 -359t-235.5 -455.5t-83.5 -523.5q0 -274 83.5 -522.5t235.5 -455.5t359.5 -359t455.5 -236t523 -84z" />
    <glyph glyph-name="uniE12B" unicode="&#xe06b;&#x20dd;" horiz-adv-x="3912" 
d="M2259 1831l152 -91l-766 -1522l-144 101zM1956 -38q-247 1 -423.5 126t-271 363t-94.5 573q1 334 95.5 570t271 360t422.5 124t423 -124.5t271.5 -360t94.5 -569.5q0 -336 -94.5 -573.5t-271 -363t-423.5 -125.5zM1956 275q192 0 303.5 190t111.5 559q0 244 -51 410
t-144 250.5t-220 84.5q-191 0 -302 -189.5t-112 -555.5q-1 -246 49.5 -413t143.5 -251.5t221 -84.5zM1956 -900q-319 0 -607.5 97t-529 273.5t-417 417t-273.5 529t-97 607.5t97 607.5t273.5 529t417 417t529 273.5t607.5 97t607.5 -97t529 -273.5t417 -417t273.5 -529
t97 -607.5t-97 -607.5t-273.5 -529t-417 -417t-529 -273.5t-607.5 -97zM1956 -633q275 0 523.5 84t455.5 236t359 359t235.5 455.5t83.5 522.5q0 275 -83.5 523.5t-235.5 455.5t-359 359t-455.5 235.5t-523.5 83.5t-523 -83.5t-455.5 -235.5t-359.5 -359t-235.5 -455.5
t-83.5 -523.5q0 -274 83.5 -522.5t235.5 -455.5t359.5 -359t455.5 -236t523 -84z" />
    <glyph glyph-name="uniE12C" unicode="&#xe06c;&#x20dd;" horiz-adv-x="3912" 
d="M2226 2048v-2048h-372v1574h-17q-20 -31 -76 -66.5t-143.5 -60.5t-203.5 -25v300q106 0 189 37t141.5 92t90.5 109t35 88h356zM1956 -900q-319 0 -607.5 97t-529 273.5t-417 417t-273.5 529t-97 607.5t97 607.5t273.5 529t417 417t529 273.5t607.5 97t607.5 -97
t529 -273.5t417 -417t273.5 -529t97 -607.5t-97 -607.5t-273.5 -529t-417 -417t-529 -273.5t-607.5 -97zM1956 -633q275 0 523.5 84t455.5 236t359 359t235.5 455.5t83.5 522.5q0 275 -83.5 523.5t-235.5 455.5t-359 359t-455.5 235.5t-523.5 83.5t-523 -83.5t-455.5 -235.5
t-359.5 -359t-235.5 -455.5t-83.5 -523.5q0 -274 83.5 -522.5t235.5 -455.5t359.5 -359t455.5 -236t523 -84z" />
    <glyph glyph-name="uniE12D" unicode="&#xe06d;&#x20dd;" horiz-adv-x="3912" 
d="M1202 557h375q7 -86 58 -147.5t134 -94t185 -32.5q108 0 193 37.5t133.5 108t48.5 171.5q0 93 -46.5 169.5t-141.5 122t-243 45.5h-203v267l474 520v14h-866v310h1334v-268l-550 -592v-16q152 -12 268.5 -64t195.5 -133t119 -182t40 -212q0 -180 -98.5 -317t-270 -214.5
t-390.5 -77.5q-210 0 -376.5 72t-265.5 203.5t-107 309.5zM1956 -900q-319 0 -607.5 97t-529 273.5t-417 417t-273.5 529t-97 607.5t97 607.5t273.5 529t417 417t529 273.5t607.5 97t607.5 -97t529 -273.5t417 -417t273.5 -529t97 -607.5t-97 -607.5t-273.5 -529t-417 -417
t-529 -273.5t-607.5 -97zM1956 -633q275 0 523.5 84t455.5 236t359 359t235.5 455.5t83.5 522.5q0 275 -83.5 523.5t-235.5 455.5t-359 359t-455.5 235.5t-523.5 83.5t-523 -83.5t-455.5 -235.5t-359.5 -359t-235.5 -455.5t-83.5 -523.5q0 -274 83.5 -522.5t235.5 -455.5
t359.5 -359t455.5 -236t523 -84z" />
    <glyph glyph-name="uniE12E" unicode="&#xe06e;&#x20dd;" horiz-adv-x="3912" 
d="M1107 380v295l783 1373h359l-765 -1347v-16h1216v-305h-1593zM2084 0v467l8 135v678h341v-1280h-349zM1956 -900q-319 0 -607.5 97t-529 273.5t-417 417t-273.5 529t-97 607.5t97 607.5t273.5 529t417 417t529 273.5t607.5 97t607.5 -97t529 -273.5t417 -417t273.5 -529
t97 -607.5t-97 -607.5t-273.5 -529t-417 -417t-529 -273.5t-607.5 -97zM1956 -633q275 0 523.5 84t455.5 236t359 359t235.5 455.5t83.5 522.5q0 275 -83.5 523.5t-235.5 455.5t-359 359t-455.5 235.5t-523.5 83.5t-523 -83.5t-455.5 -235.5t-359.5 -359t-235.5 -455.5
t-83.5 -523.5q0 -274 83.5 -522.5t235.5 -455.5t359.5 -359t455.5 -236t523 -84z" />
    <glyph glyph-name="uniE12F" unicode="&#xe06f;&#x20dd;" horiz-adv-x="3912" 
d="M1246 659q2 104 29.5 209.5t87.5 224t157 261.5l470 694h380l-511 -748q37 10 77 16.5t82 6.5q187 0 333.5 -85t230.5 -235t84 -345q0 -203 -91.5 -357.5t-251 -241.5t-362.5 -87q-199 0 -361.5 84t-258.5 238t-95 365zM1607 651q0 -111 44.5 -197t124 -135t183.5 -49
q103 0 182 48.5t124 134t45 196.5t-45 196.5t-124 134t-182 48.5q-104 0 -183.5 -48t-124 -133t-44.5 -196zM1956 -900q-319 0 -607.5 97t-529 273.5t-417 417t-273.5 529t-97 607.5t97 607.5t273.5 529t417 417t529 273.5t607.5 97t607.5 -97t529 -273.5t417 -417
t273.5 -529t97 -607.5t-97 -607.5t-273.5 -529t-417 -417t-529 -273.5t-607.5 -97zM1956 -633q275 0 523.5 84t455.5 236t359 359t235.5 455.5t83.5 522.5q0 275 -83.5 523.5t-235.5 455.5t-359 359t-455.5 235.5t-523.5 83.5t-523 -83.5t-455.5 -235.5t-359.5 -359
t-235.5 -455.5t-83.5 -523.5q0 -274 83.5 -522.5t235.5 -455.5t359.5 -359t455.5 -236t523 -84z" />
    <glyph glyph-name="uniE130" unicode="&#xe070;&#x20dd;" horiz-adv-x="3912" 
d="M1246 1390q0 203 91 357.5t250.5 241.5t363.5 87q198 0 360.5 -83.5t259 -237.5t94.5 -366q-1 -104 -29 -209.5t-88 -224t-156 -261.5l-470 -694h-381l512 750q-38 -11 -77.5 -18t-81.5 -7q-188 0 -334.5 85t-230 235t-83.5 345zM1602 1399q0 -111 45 -196.5t124 -134
t182 -48.5t182.5 48t124.5 133t45 196q0 112 -45 197.5t-124.5 134.5t-182.5 49t-182.5 -48.5t-124 -134t-44.5 -196.5zM1956 -900q-319 0 -607.5 97t-529 273.5t-417 417t-273.5 529t-97 607.5t97 607.5t273.5 529t417 417t529 273.5t607.5 97t607.5 -97t529 -273.5
t417 -417t273.5 -529t97 -607.5t-97 -607.5t-273.5 -529t-417 -417t-529 -273.5t-607.5 -97zM1956 -633q275 0 523.5 84t455.5 236t359 359t235.5 455.5t83.5 522.5q0 275 -83.5 523.5t-235.5 455.5t-359 359t-455.5 235.5t-523.5 83.5t-523 -83.5t-455.5 -235.5
t-359.5 -359t-235.5 -455.5t-83.5 -523.5q0 -274 83.5 -522.5t235.5 -455.5t359.5 -359t455.5 -236t523 -84z" />
    <glyph glyph-name="uniE131" unicode="&#x21;&#x20dd;" horiz-adv-x="3912" 
d="M2150 2048l-33 -1446h-322l-32 1446h387zM1956 -22q-91 0 -155.5 64t-64.5 156q0 90 64.5 154t155.5 64q89 0 154.5 -64t65.5 -154q0 -61 -30.5 -111t-80 -79.5t-109.5 -29.5zM1956 -900q-319 0 -607.5 97t-529 273.5t-417 417t-273.5 529t-97 607.5t97 607.5t273.5 529
t417 417t529 273.5t607.5 97t607.5 -97t529 -273.5t417 -417t273.5 -529t97 -607.5t-97 -607.5t-273.5 -529t-417 -417t-529 -273.5t-607.5 -97zM1956 -633q275 0 523.5 84t455.5 236t359 359t235.5 455.5t83.5 522.5q0 275 -83.5 523.5t-235.5 455.5t-359 359t-455.5 235.5
t-523.5 83.5t-523 -83.5t-455.5 -235.5t-359.5 -359t-235.5 -455.5t-83.5 -523.5q0 -274 83.5 -522.5t235.5 -455.5t359.5 -359t455.5 -236t523 -84z" />
    <glyph glyph-name="uniE132" unicode="&#x3f;&#x20dd;" horiz-adv-x="3912" 
d="M1765 602v26q1 181 34.5 288t95.5 172.5t151 120.5q61 38 109.5 83.5t76.5 102t28 126.5q0 79 -37 137t-99.5 90t-139.5 32q-71 0 -134.5 -30.5t-105 -92t-46.5 -155.5h-356q5 190 92.5 318t232 192t319.5 64q191 0 336.5 -67t227 -190.5t81.5 -292.5q0 -114 -36.5 -204
t-103.5 -160t-159 -125q-81 -50 -132.5 -104t-76 -126.5t-25.5 -178.5v-26h-333zM1939 -22q-90 0 -155 64t-65 156q0 90 65 154t155 64q89 0 154.5 -64t65.5 -154q0 -61 -30.5 -111t-80 -79.5t-109.5 -29.5zM1956 -900q-319 0 -607.5 97t-529 273.5t-417 417t-273.5 529
t-97 607.5t97 607.5t273.5 529t417 417t529 273.5t607.5 97t607.5 -97t529 -273.5t417 -417t273.5 -529t97 -607.5t-97 -607.5t-273.5 -529t-417 -417t-529 -273.5t-607.5 -97zM1956 -633q275 0 523.5 84t455.5 236t359 359t235.5 455.5t83.5 522.5q0 275 -83.5 523.5
t-235.5 455.5t-359 359t-455.5 235.5t-523.5 83.5t-523 -83.5t-455.5 -235.5t-359.5 -359t-235.5 -455.5t-83.5 -523.5q0 -274 83.5 -522.5t235.5 -455.5t359.5 -359t455.5 -236t523 -84z" />
    <glyph glyph-name="uniE133" unicode="&#x23;&#x20dd;" horiz-adv-x="3912" 
d="M2008 0l336 2048h280l-336 -2048h-280zM1085 528l47 280h1576l-47 -280h-1576zM1288 0l336 2048h280l-336 -2048h-280zM1204 1240l46 280h1576l-46 -280h-1576zM1956 -900q-319 0 -607.5 97t-529 273.5t-417 417t-273.5 529t-97 607.5t97 607.5t273.5 529t417 417
t529 273.5t607.5 97t607.5 -97t529 -273.5t417 -417t273.5 -529t97 -607.5t-97 -607.5t-273.5 -529t-417 -417t-529 -273.5t-607.5 -97zM1956 -633q275 0 523.5 84t455.5 236t359 359t235.5 455.5t83.5 522.5q0 275 -83.5 523.5t-235.5 455.5t-359 359t-455.5 235.5
t-523.5 83.5t-523 -83.5t-455.5 -235.5t-359.5 -359t-235.5 -455.5t-83.5 -523.5q0 -274 83.5 -522.5t235.5 -455.5t359.5 -359t455.5 -236t523 -84z" />
    <glyph glyph-name="uniE134" unicode="&#x2d;&#x20dd;" horiz-adv-x="3912" 
d="M2417 1173v-298h-922v298h922zM1956 -900q-319 0 -607.5 97t-529 273.5t-417 417t-273.5 529t-97 607.5t97 607.5t273.5 529t417 417t529 273.5t607.5 97t607.5 -97t529 -273.5t417 -417t273.5 -529t97 -607.5t-97 -607.5t-273.5 -529t-417 -417t-529 -273.5t-607.5 -97z
M1956 -633q275 0 523.5 84t455.5 236t359 359t235.5 455.5t83.5 522.5q0 275 -83.5 523.5t-235.5 455.5t-359 359t-455.5 235.5t-523.5 83.5t-523 -83.5t-455.5 -235.5t-359.5 -359t-235.5 -455.5t-83.5 -523.5q0 -274 83.5 -522.5t235.5 -455.5t359.5 -359t455.5 -236
t523 -84z" />
    <glyph glyph-name="uniE135" unicode="&#x3c;&#x20dd;" horiz-adv-x="3912" 
d="M1232 861v288l1368 632v-355l-972 -417l11 19v-46l-11 19l972 -417v-355zM1956 -900q-319 0 -607.5 97t-529 273.5t-417 417t-273.5 529t-97 607.5t97 607.5t273.5 529t417 417t529 273.5t607.5 97t607.5 -97t529 -273.5t417 -417t273.5 -529t97 -607.5t-97 -607.5
t-273.5 -529t-417 -417t-529 -273.5t-607.5 -97zM1956 -633q275 0 523.5 84t455.5 236t359 359t235.5 455.5t83.5 522.5q0 275 -83.5 523.5t-235.5 455.5t-359 359t-455.5 235.5t-523.5 83.5t-523 -83.5t-455.5 -235.5t-359.5 -359t-235.5 -455.5t-83.5 -523.5
q0 -274 83.5 -522.5t235.5 -455.5t359.5 -359t455.5 -236t523 -84z" />
    <glyph glyph-name="uniE136" unicode="&#x3e;&#x20dd;" horiz-adv-x="3912" 
d="M2680 861l-1368 -632v355l972 417l-11 -19v46l11 -19l-972 417v355l1368 -632v-288zM1956 -900q-319 0 -607.5 97t-529 273.5t-417 417t-273.5 529t-97 607.5t97 607.5t273.5 529t417 417t529 273.5t607.5 97t607.5 -97t529 -273.5t417 -417t273.5 -529t97 -607.5
t-97 -607.5t-273.5 -529t-417 -417t-529 -273.5t-607.5 -97zM1956 -633q275 0 523.5 84t455.5 236t359 359t235.5 455.5t83.5 522.5q0 275 -83.5 523.5t-235.5 455.5t-359 359t-455.5 235.5t-523.5 83.5t-523 -83.5t-455.5 -235.5t-359.5 -359t-235.5 -455.5t-83.5 -523.5
q0 -274 83.5 -522.5t235.5 -455.5t359.5 -359t455.5 -236t523 -84z" />
    <glyph glyph-name="uniE137" unicode="&#x3d;&#x20dd;" horiz-adv-x="3912" 
d="M1291 1189v309h1331v-309h-1331zM1291 549v309h1331v-309h-1331zM1956 -900q-319 0 -607.5 97t-529 273.5t-417 417t-273.5 529t-97 607.5t97 607.5t273.5 529t417 417t529 273.5t607.5 97t607.5 -97t529 -273.5t417 -417t273.5 -529t97 -607.5t-97 -607.5t-273.5 -529
t-417 -417t-529 -273.5t-607.5 -97zM1956 -633q275 0 523.5 84t455.5 236t359 359t235.5 455.5t83.5 522.5q0 275 -83.5 523.5t-235.5 455.5t-359 359t-455.5 235.5t-523.5 83.5t-523 -83.5t-455.5 -235.5t-359.5 -359t-235.5 -455.5t-83.5 -523.5q0 -274 83.5 -522.5
t235.5 -455.5t359.5 -359t455.5 -236t523 -84z" />
    <glyph glyph-name="uni2295" unicode="&#x2b;&#x20dd;" horiz-adv-x="3912" 
d="M1799 328v1384h314v-1384h-314zM1264 863v314h1384v-314h-1384zM1956 -900q-319 0 -607.5 97t-529 273.5t-417 417t-273.5 529t-97 607.5t97 607.5t273.5 529t417 417t529 273.5t607.5 97t607.5 -97t529 -273.5t417 -417t273.5 -529t97 -607.5t-97 -607.5t-273.5 -529
t-417 -417t-529 -273.5t-607.5 -97zM1956 -633q275 0 523.5 84t455.5 236t359 359t235.5 455.5t83.5 522.5q0 275 -83.5 523.5t-235.5 455.5t-359 359t-455.5 235.5t-523.5 83.5t-523 -83.5t-455.5 -235.5t-359.5 -359t-235.5 -455.5t-83.5 -523.5q0 -274 83.5 -522.5
t235.5 -455.5t359.5 -359t455.5 -236t523 -84z" />
    <glyph glyph-name="uni2296" unicode="&#x2212;&#x20dd;" horiz-adv-x="3912" 
d="M2636 1181v-314h-1360v314h1360zM1956 -900q-319 0 -607.5 97t-529 273.5t-417 417t-273.5 529t-97 607.5t97 607.5t273.5 529t417 417t529 273.5t607.5 97t607.5 -97t529 -273.5t417 -417t273.5 -529t97 -607.5t-97 -607.5t-273.5 -529t-417 -417t-529 -273.5
t-607.5 -97zM1956 -633q275 0 523.5 84t455.5 236t359 359t235.5 455.5t83.5 522.5q0 275 -83.5 523.5t-235.5 455.5t-359 359t-455.5 235.5t-523.5 83.5t-523 -83.5t-455.5 -235.5t-359.5 -359t-235.5 -455.5t-83.5 -523.5q0 -274 83.5 -522.5t235.5 -455.5t359.5 -359
t455.5 -236t523 -84z" />
    <glyph glyph-name="uni2297" unicode="&#xd7;&#x20dd;" horiz-adv-x="3912" 
d="M2430 312l-1173 1171l226 227l1172 -1173zM1483 312l-226 225l1173 1173l225 -227zM1956 -900q-319 0 -607.5 97t-529 273.5t-417 417t-273.5 529t-97 607.5t97 607.5t273.5 529t417 417t529 273.5t607.5 97t607.5 -97t529 -273.5t417 -417t273.5 -529t97 -607.5
t-97 -607.5t-273.5 -529t-417 -417t-529 -273.5t-607.5 -97zM1956 -633q275 0 523.5 84t455.5 236t359 359t235.5 455.5t83.5 522.5q0 275 -83.5 523.5t-235.5 455.5t-359 359t-455.5 235.5t-523.5 83.5t-523 -83.5t-455.5 -235.5t-359.5 -359t-235.5 -455.5t-83.5 -523.5
q0 -274 83.5 -522.5t235.5 -455.5t359.5 -359t455.5 -236t523 -84z" />
    <glyph glyph-name="uni2A38" unicode="&#xf7;&#x20dd;" horiz-adv-x="3912" 
d="M2636 1174v-301h-1360v301h1360zM1956 261q-92 0 -156.5 64.5t-64.5 156.5q0 90 64.5 154t156.5 64q90 0 154 -64t64 -154q0 -92 -64 -156.5t-154 -64.5zM1956 1348q-61 0 -111.5 29.5t-80 80t-29.5 111.5q0 90 64.5 154t156.5 64q90 0 154 -64t64 -154q0 -91 -64 -156
t-154 -65zM1956 -900q-319 0 -607.5 97t-529 273.5t-417 417t-273.5 529t-97 607.5t97 607.5t273.5 529t417 417t529 273.5t607.5 97t607.5 -97t529 -273.5t417 -417t273.5 -529t97 -607.5t-97 -607.5t-273.5 -529t-417 -417t-529 -273.5t-607.5 -97zM1956 -633
q275 0 523.5 84t455.5 236t359 359t235.5 455.5t83.5 522.5q0 275 -83.5 523.5t-235.5 455.5t-359 359t-455.5 235.5t-523.5 83.5t-523 -83.5t-455.5 -235.5t-359.5 -359t-235.5 -455.5t-83.5 -523.5q0 -274 83.5 -522.5t235.5 -455.5t359.5 -359t455.5 -236t523 -84z" />
    <glyph glyph-name="uniE138" unicode="&#x2191;&#x20dd;" horiz-adv-x="3912" 
d="M1809 0v1501l-567 -569l-208 206l924 922l922 -922l-204 -206l-569 569v-1501h-298zM1956 -900q-319 0 -607.5 97t-529 273.5t-417 417t-273.5 529t-97 607.5t97 607.5t273.5 529t417 417t529 273.5t607.5 97t607.5 -97t529 -273.5t417 -417t273.5 -529t97 -607.5
t-97 -607.5t-273.5 -529t-417 -417t-529 -273.5t-607.5 -97zM1956 -633q275 0 523.5 84t455.5 236t359 359t235.5 455.5t83.5 522.5q0 275 -83.5 523.5t-235.5 455.5t-359 359t-455.5 235.5t-523.5 83.5t-523 -83.5t-455.5 -235.5t-359.5 -359t-235.5 -455.5t-83.5 -523.5
q0 -274 83.5 -522.5t235.5 -455.5t359.5 -359t455.5 -236t523 -84z" />
    <glyph glyph-name="uniE139" unicode="&#x2193;&#x20dd;" horiz-adv-x="3912" 
d="M2105 2048v-1501l567 569l208 -206l-924 -922l-922 922l204 206l569 -569v1501h298zM1956 -900q-319 0 -607.5 97t-529 273.5t-417 417t-273.5 529t-97 607.5t97 607.5t273.5 529t417 417t529 273.5t607.5 97t607.5 -97t529 -273.5t417 -417t273.5 -529t97 -607.5
t-97 -607.5t-273.5 -529t-417 -417t-529 -273.5t-607.5 -97zM1956 -633q275 0 523.5 84t455.5 236t359 359t235.5 455.5t83.5 522.5q0 275 -83.5 523.5t-235.5 455.5t-359 359t-455.5 235.5t-523.5 83.5t-523 -83.5t-455.5 -235.5t-359.5 -359t-235.5 -455.5t-83.5 -523.5
q0 -274 83.5 -522.5t235.5 -455.5t359.5 -359t455.5 -236t523 -84z" />
    <glyph glyph-name="uniE13A" unicode="&#x2190;&#x20dd;" horiz-adv-x="3912" 
d="M1898 54l-970 970l970 970l206 -204l-617 -617h1499v-298h-1499l617 -616zM1956 -900q-319 0 -607.5 97t-529 273.5t-417 417t-273.5 529t-97 607.5t97 607.5t273.5 529t417 417t529 273.5t607.5 97t607.5 -97t529 -273.5t417 -417t273.5 -529t97 -607.5t-97 -607.5
t-273.5 -529t-417 -417t-529 -273.5t-607.5 -97zM1956 -633q275 0 523.5 84t455.5 236t359 359t235.5 455.5t83.5 522.5q0 275 -83.5 523.5t-235.5 455.5t-359 359t-455.5 235.5t-523.5 83.5t-523 -83.5t-455.5 -235.5t-359.5 -359t-235.5 -455.5t-83.5 -523.5
q0 -274 83.5 -522.5t235.5 -455.5t359.5 -359t455.5 -236t523 -84z" />
    <glyph glyph-name="uniE13B" unicode="&#x2192;&#x20dd;" horiz-adv-x="3912" 
d="M2016 54l-206 204l617 617h-1499v298h1499l-617 616l206 205l970 -970zM1956 -900q-319 0 -607.5 97t-529 273.5t-417 417t-273.5 529t-97 607.5t97 607.5t273.5 529t417 417t529 273.5t607.5 97t607.5 -97t529 -273.5t417 -417t273.5 -529t97 -607.5t-97 -607.5
t-273.5 -529t-417 -417t-529 -273.5t-607.5 -97zM1956 -633q275 0 523.5 84t455.5 236t359 359t235.5 455.5t83.5 522.5q0 275 -83.5 523.5t-235.5 455.5t-359 359t-455.5 235.5t-523.5 83.5t-523 -83.5t-455.5 -235.5t-359.5 -359t-235.5 -455.5t-83.5 -523.5
q0 -274 83.5 -522.5t235.5 -455.5t359.5 -359t455.5 -236t523 -84z" />
    <glyph glyph-name="uniE13C" unicode="&#x2713;&#x20dd;" horiz-adv-x="3912" 
d="M998 980l238 241l485 -477l1049 1045l240 -241l-1289 -1284zM1956 -900q-319 0 -607.5 97t-529 273.5t-417 417t-273.5 529t-97 607.5t97 607.5t273.5 529t417 417t529 273.5t607.5 97t607.5 -97t529 -273.5t417 -417t273.5 -529t97 -607.5t-97 -607.5t-273.5 -529
t-417 -417t-529 -273.5t-607.5 -97zM1956 -633q275 0 523.5 84t455.5 236t359 359t235.5 455.5t83.5 522.5q0 275 -83.5 523.5t-235.5 455.5t-359 359t-455.5 235.5t-523.5 83.5t-523 -83.5t-455.5 -235.5t-359.5 -359t-235.5 -455.5t-83.5 -523.5q0 -274 83.5 -522.5
t235.5 -455.5t359.5 -359t455.5 -236t523 -84z" />
    <glyph glyph-name="uniE13D" unicode="&#x2717;&#x20dd;" horiz-adv-x="3912" 
d="M1441 270l-241 241l1273 1267l241 -241zM2471 270l-1273 1267l241 241l1273 -1267zM1956 -900q-319 0 -607.5 97t-529 273.5t-417 417t-273.5 529t-97 607.5t97 607.5t273.5 529t417 417t529 273.5t607.5 97t607.5 -97t529 -273.5t417 -417t273.5 -529t97 -607.5
t-97 -607.5t-273.5 -529t-417 -417t-529 -273.5t-607.5 -97zM1956 -633q275 0 523.5 84t455.5 236t359 359t235.5 455.5t83.5 522.5q0 275 -83.5 523.5t-235.5 455.5t-359 359t-455.5 235.5t-523.5 83.5t-523 -83.5t-455.5 -235.5t-359.5 -359t-235.5 -455.5t-83.5 -523.5
q0 -274 83.5 -522.5t235.5 -455.5t359.5 -359t455.5 -236t523 -84z" />
    <glyph glyph-name="u1F130" unicode="A&#x20de;" horiz-adv-x="3912" 
d="M1402 0h-396l721 2048h458l722 -2048h-396l-547 1628h-16zM1415 803h1080v-298h-1080v298zM444 -832q-168 0 -256 88t-88 256v3024q0 168 88 256t256 88h3024q168 0 256 -88t88 -256v-3024q0 -168 -88 -256t-256 -88h-3024zM421 -565h3071q24 0 38.5 15t14.5 38v3072
q0 24 -14.5 38.5t-38.5 14.5h-3071q-24 0 -39 -14.5t-15 -38.5v-3072q0 -23 15 -38t39 -15z" />
    <glyph glyph-name="u1F131" unicode="B&#x20de;" horiz-adv-x="3912" 
d="M1231 0v2048h784q222 0 369.5 -69.5t221 -189.5t73.5 -272q0 -125 -48 -213.5t-129 -143.5t-181 -79v-20q109 -6 209.5 -66.5t164.5 -170.5t64 -266q0 -159 -77 -285.5t-232 -199.5t-390 -73h-829zM1602 310h399q202 0 291.5 77.5t89.5 199.5q0 91 -45 164.5t-128 116
t-198 42.5h-409v-600zM1602 1177h367q96 0 173 35.5t121.5 101t44.5 155.5q0 119 -83.5 196t-247.5 77h-375v-565zM444 -832q-168 0 -256 88t-88 256v3024q0 168 88 256t256 88h3024q168 0 256 -88t88 -256v-3024q0 -168 -88 -256t-256 -88h-3024zM421 -565h3071
q24 0 38.5 15t14.5 38v3072q0 24 -14.5 38.5t-38.5 14.5h-3071q-24 0 -39 -14.5t-15 -38.5v-3072q0 -23 15 -38t39 -15z" />
    <glyph glyph-name="u1F132" unicode="C&#x20de;" horiz-adv-x="3912" 
d="M2858 1357h-374q-16 92 -59 163.5t-107 121.5t-145.5 75.5t-175.5 25.5q-167 0 -296 -83.5t-202 -244t-73 -391.5q0 -235 73.5 -395.5t202 -242t294.5 -81.5q92 0 172.5 24.5t145 72.5t109 118t61.5 160l374 -2q-21 -146 -90.5 -274t-181.5 -225.5t-262 -152t-333 -54.5
q-270 0 -482 125t-334 361t-122 566q0 331 123 566.5t335 360.5t480 125q171 0 318 -48t262 -140.5t189.5 -226t97.5 -304.5zM444 -832q-168 0 -256 88t-88 256v3024q0 168 88 256t256 88h3024q168 0 256 -88t88 -256v-3024q0 -168 -88 -256t-256 -88h-3024zM421 -565h3071
q24 0 38.5 15t14.5 38v3072q0 24 -14.5 38.5t-38.5 14.5h-3071q-24 0 -39 -14.5t-15 -38.5v-3072q0 -23 15 -38t39 -15z" />
    <glyph glyph-name="u1F133" unicode="D&#x20de;" horiz-adv-x="3912" 
d="M1850 0h-694v2048h708q305 0 524.5 -122.5t337.5 -351.5t118 -548q0 -320 -118.5 -550t-341 -353t-534.5 -123zM1527 321h305q214 0 357 78.5t215 235t72 391.5t-72 390.5t-212.5 233t-348.5 77.5h-316v-1406zM444 -832q-168 0 -256 88t-88 256v3024q0 168 88 256t256 88
h3024q168 0 256 -88t88 -256v-3024q0 -168 -88 -256t-256 -88h-3024zM421 -565h3071q24 0 38.5 15t14.5 38v3072q0 24 -14.5 38.5t-38.5 14.5h-3071q-24 0 -39 -14.5t-15 -38.5v-3072q0 -23 15 -38t39 -15z" />
    <glyph glyph-name="u1F134" unicode="E&#x20de;" horiz-adv-x="3912" 
d="M1286 0v2048h1332v-311h-961v-556h892v-311h-892v-559h969v-311h-1340zM444 -832q-168 0 -256 88t-88 256v3024q0 168 88 256t256 88h3024q168 0 256 -88t88 -256v-3024q0 -168 -88 -256t-256 -88h-3024zM421 -565h3071q24 0 38.5 15t14.5 38v3072q0 24 -14.5 38.5
t-38.5 14.5h-3071q-24 0 -39 -14.5t-15 -38.5v-3072q0 -23 15 -38t39 -15z" />
    <glyph glyph-name="u1F135" unicode="F&#x20de;" horiz-adv-x="3912" 
d="M1320 0v2048h1312v-311h-941v-556h851v-311h-851v-870h-371zM444 -832q-168 0 -256 88t-88 256v3024q0 168 88 256t256 88h3024q168 0 256 -88t88 -256v-3024q0 -168 -88 -256t-256 -88h-3024zM421 -565h3071q24 0 38.5 15t14.5 38v3072q0 24 -14.5 38.5t-38.5 14.5
h-3071q-24 0 -39 -14.5t-15 -38.5v-3072q0 -23 15 -38t39 -15z" />
    <glyph glyph-name="u1F136" unicode="G&#x20de;" horiz-adv-x="3912" 
d="M2470 1394q-25 81 -68.5 145.5t-104 110.5t-138.5 69.5t-170 23.5q-165 0 -294 -83t-202.5 -243.5t-73.5 -390.5q0 -232 73 -393t203 -244.5t302 -83.5q156 0 270.5 60t176.5 170.5t62 259.5l84 -13h-556v290h831v-246q0 -263 -112 -455t-308 -295.5t-450 -103.5
q-283 0 -496.5 127.5t-333 363t-119.5 559.5q0 248 70.5 443t197.5 331.5t298 208t372 71.5q170 0 317 -49.5t261.5 -140.5t188.5 -216t97 -276h-378zM444 -832q-168 0 -256 88t-88 256v3024q0 168 88 256t256 88h3024q168 0 256 -88t88 -256v-3024q0 -168 -88 -256
t-256 -88h-3024zM421 -565h3071q24 0 38.5 15t14.5 38v3072q0 24 -14.5 38.5t-38.5 14.5h-3071q-24 0 -39 -14.5t-15 -38.5v-3072q0 -23 15 -38t39 -15z" />
    <glyph glyph-name="u1F137" unicode="H&#x20de;" horiz-adv-x="3912" 
d="M1110 0v2048h371v-867h949v867h372v-2048h-372v870h-949v-870h-371zM444 -832q-168 0 -256 88t-88 256v3024q0 168 88 256t256 88h3024q168 0 256 -88t88 -256v-3024q0 -168 -88 -256t-256 -88h-3024zM421 -565h3071q24 0 38.5 15t14.5 38v3072q0 24 -14.5 38.5
t-38.5 14.5h-3071q-24 0 -39 -14.5t-15 -38.5v-3072q0 -23 15 -38t39 -15z" />
    <glyph glyph-name="u1F138" unicode="I&#x20de;" horiz-adv-x="3912" 
d="M2142 2048v-2048h-371v2048h371zM444 -832q-168 0 -256 88t-88 256v3024q0 168 88 256t256 88h3024q168 0 256 -88t88 -256v-3024q0 -168 -88 -256t-256 -88h-3024zM421 -565h3071q24 0 38.5 15t14.5 38v3072q0 24 -14.5 38.5t-38.5 14.5h-3071q-24 0 -39 -14.5
t-15 -38.5v-3072q0 -23 15 -38t39 -15z" />
    <glyph glyph-name="u1F139" unicode="J&#x20de;" horiz-adv-x="3912" 
d="M2196 2048h368v-1440q-1 -198 -84 -340.5t-231.5 -219t-345.5 -76.5q-180 0 -323.5 64.5t-227.5 191.5t-84 316h369q1 -83 36.5 -143t98.5 -92t145 -32q89 0 151 37.5t94.5 111.5t33.5 182v1440zM444 -832q-168 0 -256 88t-88 256v3024q0 168 88 256t256 88h3024
q168 0 256 -88t88 -256v-3024q0 -168 -88 -256t-256 -88h-3024zM421 -565h3071q24 0 38.5 15t14.5 38v3072q0 24 -14.5 38.5t-38.5 14.5h-3071q-24 0 -39 -14.5t-15 -38.5v-3072q0 -23 15 -38t39 -15z" />
    <glyph glyph-name="u1F13A" unicode="K&#x20de;" horiz-adv-x="3912" 
d="M1161 0v2048h371v-941h25l799 941h453l-792 -919l799 -1129h-446l-611 878l-227 -268v-610h-371zM444 -832q-168 0 -256 88t-88 256v3024q0 168 88 256t256 88h3024q168 0 256 -88t88 -256v-3024q0 -168 -88 -256t-256 -88h-3024zM421 -565h3071q24 0 38.5 15t14.5 38
v3072q0 24 -14.5 38.5t-38.5 14.5h-3071q-24 0 -39 -14.5t-15 -38.5v-3072q0 -23 15 -38t39 -15z" />
    <glyph glyph-name="u1F13B" unicode="L&#x20de;" horiz-adv-x="3912" 
d="M1352 0v2048h371v-1737h902v-311h-1273zM444 -832q-168 0 -256 88t-88 256v3024q0 168 88 256t256 88h3024q168 0 256 -88t88 -256v-3024q0 -168 -88 -256t-256 -88h-3024zM421 -565h3071q24 0 38.5 15t14.5 38v3072q0 24 -14.5 38.5t-38.5 14.5h-3071q-24 0 -39 -14.5
t-15 -38.5v-3072q0 -23 15 -38t39 -15z" />
    <glyph glyph-name="u1F13C" unicode="M&#x20de;" horiz-adv-x="3912" 
d="M882 2048h454l608 -1484h24l608 1484h454v-2048h-356v1407h-19l-566 -1401h-266l-566 1404h-19v-1410h-356v2048zM444 -832q-168 0 -256 88t-88 256v3024q0 168 88 256t256 88h3024q168 0 256 -88t88 -256v-3024q0 -168 -88 -256t-256 -88h-3024zM421 -565h3071
q24 0 38.5 15t14.5 38v3072q0 24 -14.5 38.5t-38.5 14.5h-3071q-24 0 -39 -14.5t-15 -38.5v-3072q0 -23 15 -38t39 -15z" />
    <glyph glyph-name="u1F13D" unicode="N&#x20de;" horiz-adv-x="3912" 
d="M2798 2048v-2048h-330l-965 1395h-17v-1395h-371v2048h332l964 -1396h18v1396h369zM444 -832q-168 0 -256 88t-88 256v3024q0 168 88 256t256 88h3024q168 0 256 -88t88 -256v-3024q0 -168 -88 -256t-256 -88h-3024zM421 -565h3071q24 0 38.5 15t14.5 38v3072
q0 24 -14.5 38.5t-38.5 14.5h-3071q-24 0 -39 -14.5t-15 -38.5v-3072q0 -23 15 -38t39 -15z" />
    <glyph glyph-name="u1F13E" unicode="O&#x20de;" horiz-adv-x="3912" 
d="M2897 1024q0 -331 -123.5 -566.5t-336 -360.5t-481.5 -125t-481.5 125.5t-336 361t-123.5 565.5q0 331 123.5 566.5t336 360.5t481.5 125t481.5 -125t336 -360.5t123.5 -566.5zM2524 1024q0 233 -72.5 393.5t-200.5 243t-295 82.5t-295 -82.5t-200.5 -243t-72.5 -393.5
t72.5 -393.5t200.5 -243t295 -82.5t295 82.5t200.5 243t72.5 393.5zM444 -832q-168 0 -256 88t-88 256v3024q0 168 88 256t256 88h3024q168 0 256 -88t88 -256v-3024q0 -168 -88 -256t-256 -88h-3024zM421 -565h3071q24 0 38.5 15t14.5 38v3072q0 24 -14.5 38.5t-38.5 14.5
h-3071q-24 0 -39 -14.5t-15 -38.5v-3072q0 -23 15 -38t39 -15z" />
    <glyph glyph-name="u1F13F" unicode="P&#x20de;" horiz-adv-x="3912" 
d="M1259 0v2048h768q236 0 396.5 -88t243 -241.5t82.5 -348.5q0 -197 -83 -350t-245 -240.5t-399 -87.5h-509v305h459q138 0 226 48t130.5 132t42.5 193t-42.5 192t-131 129.5t-227.5 46.5h-340v-1738h-371zM444 -832q-168 0 -256 88t-88 256v3024q0 168 88 256t256 88h3024
q168 0 256 -88t88 -256v-3024q0 -168 -88 -256t-256 -88h-3024zM421 -565h3071q24 0 38.5 15t14.5 38v3072q0 24 -14.5 38.5t-38.5 14.5h-3071q-24 0 -39 -14.5t-15 -38.5v-3072q0 -23 15 -38t39 -15z" />
    <glyph glyph-name="u1F140" unicode="Q&#x20de;" horiz-adv-x="3912" 
d="M1829 688h336l199 -258l142 -168l341 -438h-360l-232 294l-99 140zM2896 1024q0 -331 -123.5 -566.5t-336 -360.5t-481.5 -125t-481.5 125.5t-336 361t-123.5 565.5q0 331 123.5 566.5t336 360.5t481.5 125t481.5 -125t336 -360.5t123.5 -566.5zM2523 1024
q0 233 -72.5 393.5t-200.5 243t-295 82.5t-295 -82.5t-200.5 -243t-72.5 -393.5t72.5 -393.5t200.5 -243t295 -82.5t295 82.5t200.5 243t72.5 393.5zM444 -832q-168 0 -256 88t-88 256v3024q0 168 88 256t256 88h3024q168 0 256 -88t88 -256v-3024q0 -168 -88 -256t-256 -88
h-3024zM421 -565h3071q24 0 38.5 15t14.5 38v3072q0 24 -14.5 38.5t-38.5 14.5h-3071q-24 0 -39 -14.5t-15 -38.5v-3072q0 -23 15 -38t39 -15z" />
    <glyph glyph-name="u1F141" unicode="R&#x20de;" horiz-adv-x="3912" 
d="M1236 0v2048h768q236 0 396.5 -82t243 -229.5t82.5 -343.5q0 -197 -83.5 -341.5t-245.5 -223t-398 -78.5h-547v308h497q138 0 226 38.5t130.5 113t42.5 183.5t-43 186.5t-131 118t-227 40.5h-340v-1738h-371zM2294 928l507 -928h-414l-498 928h405zM444 -832
q-168 0 -256 88t-88 256v3024q0 168 88 256t256 88h3024q168 0 256 -88t88 -256v-3024q0 -168 -88 -256t-256 -88h-3024zM421 -565h3071q24 0 38.5 15t14.5 38v3072q0 24 -14.5 38.5t-38.5 14.5h-3071q-24 0 -39 -14.5t-15 -38.5v-3072q0 -23 15 -38t39 -15z" />
    <glyph glyph-name="u1F142" unicode="S&#x20de;" horiz-adv-x="3912" 
d="M2357 1485q-14 131 -117.5 204t-268.5 73q-116 0 -199 -35t-127 -95t-45 -137q0 -64 29.5 -111t80.5 -79.5t113 -54.5t125 -37l192 -48q116 -27 223.5 -73t193 -116t135.5 -169t50 -232q0 -180 -92 -316.5t-265.5 -213t-419.5 -76.5q-239 0 -414.5 74t-274 216
t-106.5 346h365q8 -107 66 -178t151.5 -106t209.5 -35q121 0 212.5 36.5t143.5 102t53 153.5q-1 80 -47 132.5t-128.5 88t-192.5 63.5l-233 60q-253 65 -399.5 197.5t-146.5 352.5q0 181 98.5 317t268.5 211.5t385 75.5q218 0 382.5 -75.5t258.5 -209t97 -306.5h-357z
M444 -832q-168 0 -256 88t-88 256v3024q0 168 88 256t256 88h3024q168 0 256 -88t88 -256v-3024q0 -168 -88 -256t-256 -88h-3024zM421 -565h3071q24 0 38.5 15t14.5 38v3072q0 24 -14.5 38.5t-38.5 14.5h-3071q-24 0 -39 -14.5t-15 -38.5v-3072q0 -23 15 -38t39 -15z" />
    <glyph glyph-name="u1F143" unicode="T&#x20de;" horiz-adv-x="3912" 
d="M1139 1737v311h1634v-311h-633v-1737h-368v1737h-633zM444 -832q-168 0 -256 88t-88 256v3024q0 168 88 256t256 88h3024q168 0 256 -88t88 -256v-3024q0 -168 -88 -256t-256 -88h-3024zM421 -565h3071q24 0 38.5 15t14.5 38v3072q0 24 -14.5 38.5t-38.5 14.5h-3071
q-24 0 -39 -14.5t-15 -38.5v-3072q0 -23 15 -38t39 -15z" />
    <glyph glyph-name="u1F144" unicode="U&#x20de;" horiz-adv-x="3912" 
d="M2416 2048h371v-1338q0 -220 -103.5 -387t-290.5 -260.5t-437 -93.5q-251 0 -438 93.5t-290 260.5t-103 387v1338h371v-1307q0 -128 56.5 -228t159.5 -156.5t244 -56.5t244.5 56.5t159.5 156.5t56 228v1307zM444 -832q-168 0 -256 88t-88 256v3024q0 168 88 256t256 88
h3024q168 0 256 -88t88 -256v-3024q0 -168 -88 -256t-256 -88h-3024zM421 -565h3071q24 0 38.5 15t14.5 38v3072q0 24 -14.5 38.5t-38.5 14.5h-3071q-24 0 -39 -14.5t-15 -38.5v-3072q0 -23 15 -38t39 -15z" />
    <glyph glyph-name="u1F145" unicode="V&#x20de;" horiz-adv-x="3912" 
d="M1413 2048l533 -1612h21l532 1612h408l-722 -2048h-458l-721 2048h407zM444 -832q-168 0 -256 88t-88 256v3024q0 168 88 256t256 88h3024q168 0 256 -88t88 -256v-3024q0 -168 -88 -256t-256 -88h-3024zM421 -565h3071q24 0 38.5 15t14.5 38v3072q0 24 -14.5 38.5
t-38.5 14.5h-3071q-24 0 -39 -14.5t-15 -38.5v-3072q0 -23 15 -38t39 -15z" />
    <glyph glyph-name="u1F146" unicode="W&#x20de;" horiz-adv-x="3912" 
d="M1171 0l-578 2048h399l369 -1505h19l394 1505h363l395 -1506h18l369 1506h399l-578 -2048h-366l-410 1437h-16l-411 -1437h-366zM444 -832q-168 0 -256 88t-88 256v3024q0 168 88 256t256 88h3024q168 0 256 -88t88 -256v-3024q0 -168 -88 -256t-256 -88h-3024zM421 -565
h3071q24 0 38.5 15t14.5 38v3072q0 24 -14.5 38.5t-38.5 14.5h-3071q-24 0 -39 -14.5t-15 -38.5v-3072q0 -23 15 -38t39 -15z" />
    <glyph glyph-name="u1F147" unicode="X&#x20de;" horiz-adv-x="3912" 
d="M1497 2048l451 -750h16l453 750h423l-631 -1024l641 -1024h-430l-456 745h-16l-456 -745h-428l647 1024l-639 1024h425zM444 -832q-168 0 -256 88t-88 256v3024q0 168 88 256t256 88h3024q168 0 256 -88t88 -256v-3024q0 -168 -88 -256t-256 -88h-3024zM421 -565h3071
q24 0 38.5 15t14.5 38v3072q0 24 -14.5 38.5t-38.5 14.5h-3071q-24 0 -39 -14.5t-15 -38.5v-3072q0 -23 15 -38t39 -15z" />
    <glyph glyph-name="u1F148" unicode="Y&#x20de;" horiz-adv-x="3912" 
d="M1026 2048h419l501 -906h20l501 906h419l-745 -1284v-764h-370v764zM444 -832q-168 0 -256 88t-88 256v3024q0 168 88 256t256 88h3024q168 0 256 -88t88 -256v-3024q0 -168 -88 -256t-256 -88h-3024zM421 -565h3071q24 0 38.5 15t14.5 38v3072q0 24 -14.5 38.5
t-38.5 14.5h-3071q-24 0 -39 -14.5t-15 -38.5v-3072q0 -23 15 -38t39 -15z" />
    <glyph glyph-name="u1F149" unicode="Z&#x20de;" horiz-adv-x="3912" 
d="M1201 0v231l1050 1506h-1056v311h1516v-231l-1049 -1506h1055v-311h-1516zM444 -832q-168 0 -256 88t-88 256v3024q0 168 88 256t256 88h3024q168 0 256 -88t88 -256v-3024q0 -168 -88 -256t-256 -88h-3024zM421 -565h3071q24 0 38.5 15t14.5 38v3072q0 24 -14.5 38.5
t-38.5 14.5h-3071q-24 0 -39 -14.5t-15 -38.5v-3072q0 -23 15 -38t39 -15z" />
    <glyph glyph-name="uniE13E" unicode="&#x30;&#x20de;" horiz-adv-x="3912" 
d="M1956 -39q-247 0 -423.5 125.5t-271 363t-94.5 572.5q1 335 95.5 570.5t271 359.5t422.5 124t423 -124t271.5 -360t94.5 -570q0 -336 -94.5 -573.5t-271 -362.5t-423.5 -125zM1956 274q192 0 303.5 189.5t111.5 558.5q0 244 -51 410t-144 250.5t-220 84.5
q-191 0 -302 -189.5t-112 -555.5q-1 -245 49.5 -412t143.5 -251.5t221 -84.5zM444 -832q-168 0 -256 88t-88 256v3024q0 168 88 256t256 88h3024q168 0 256 -88t88 -256v-3024q0 -168 -88 -256t-256 -88h-3024zM421 -565h3071q24 0 38.5 15t14.5 38v3072q0 24 -14.5 38.5
t-38.5 14.5h-3071q-24 0 -39 -14.5t-15 -38.5v-3072q0 -23 15 -38t39 -15z" />
    <glyph glyph-name="uniE13F" unicode="&#x31;&#x20de;" horiz-adv-x="3912" 
d="M2192 2048v-2048h-371v1687h-12l-479 -306v340l509 327h353zM444 -832q-168 0 -256 88t-88 256v3024q0 168 88 256t256 88h3024q168 0 256 -88t88 -256v-3024q0 -168 -88 -256t-256 -88h-3024zM421 -565h3071q24 0 38.5 15t14.5 38v3072q0 24 -14.5 38.5t-38.5 14.5
h-3071q-24 0 -39 -14.5t-15 -38.5v-3072q0 -23 15 -38t39 -15z" />
    <glyph glyph-name="uniE140" unicode="&#x32;&#x20de;" horiz-adv-x="3912" 
d="M1262 0v268l711 697q102 103 170 183t102 155t34 160q0 97 -44 166.5t-121 107.5t-175 38q-101 0 -177 -41.5t-117.5 -117.5t-41.5 -181h-353q0 195 89 339t245.5 223t359.5 79q206 0 362 -77t242.5 -211t86.5 -306q0 -115 -44 -226t-154.5 -246t-309.5 -327l-353 -359
v-14h892v-310h-1404zM444 -832q-168 0 -256 88t-88 256v3024q0 168 88 256t256 88h3024q168 0 256 -88t88 -256v-3024q0 -168 -88 -256t-256 -88h-3024zM421 -565h3071q24 0 38.5 15t14.5 38v3072q0 24 -14.5 38.5t-38.5 14.5h-3071q-24 0 -39 -14.5t-15 -38.5v-3072
q0 -23 15 -38t39 -15z" />
    <glyph glyph-name="uniE141" unicode="&#x33;&#x20de;" horiz-adv-x="3912" 
d="M1949 -28q-216 0 -383.5 74t-264.5 206t-103 305h376q5 -83 55 -144.5t133 -95.5t186 -34q110 0 195 38.5t133 107.5t47 159q1 93 -48 164t-141.5 111t-222.5 40h-181v286h181q107 0 187.5 37t126.5 104.5t45 156.5q1 87 -38.5 151.5t-111 100.5t-167.5 36
q-94 0 -174 -34t-129 -96.5t-52 -148.5h-357q4 172 99.5 302.5t255.5 204t359 73.5q205 0 356.5 -76.5t234.5 -205.5t83 -285q1 -173 -101.5 -290t-268.5 -153v-16q216 -30 331.5 -159.5t114.5 -321.5q0 -172 -97.5 -307.5t-268 -212.5t-390.5 -77zM444 -832q-168 0 -256 88
t-88 256v3024q0 168 88 256t256 88h3024q168 0 256 -88t88 -256v-3024q0 -168 -88 -256t-256 -88h-3024zM421 -565h3071q24 0 38.5 15t14.5 38v3072q0 24 -14.5 38.5t-38.5 14.5h-3071q-24 0 -39 -14.5t-15 -38.5v-3072q0 -23 15 -38t39 -15z" />
    <glyph glyph-name="uniE142" unicode="&#x34;&#x20de;" horiz-adv-x="3912" 
d="M1095 380v295l869 1373h246v-420h-150l-585 -927v-16h1213v-305h-1593zM2072 0v470l4 132v1446h350v-2048h-354zM444 -832q-168 0 -256 88t-88 256v3024q0 168 88 256t256 88h3024q168 0 256 -88t88 -256v-3024q0 -168 -88 -256t-256 -88h-3024zM421 -565h3071
q24 0 38.5 15t14.5 38v3072q0 24 -14.5 38.5t-38.5 14.5h-3071q-24 0 -39 -14.5t-15 -38.5v-3072q0 -23 15 -38t39 -15z" />
    <glyph glyph-name="uniE143" unicode="&#x35;&#x20de;" horiz-adv-x="3912" 
d="M1942 -28q-200 0 -358 75.5t-250.5 207.5t-98.5 302h360q10 -126 109 -205.5t238 -79.5q109 0 194 50t134 139t48 203q1 116 -49 206t-137 141.5t-200 51.5q-92 1 -181 -34t-141 -92l-335 55l107 1056h1188v-310h-881l-59 -543h12q57 67 161 111.5t228 44.5
q186 0 332 -87.5t230 -240.5t84 -350q0 -203 -93.5 -361.5t-259 -249t-382.5 -90.5zM444 -832q-168 0 -256 88t-88 256v3024q0 168 88 256t256 88h3024q168 0 256 -88t88 -256v-3024q0 -168 -88 -256t-256 -88h-3024zM421 -565h3071q24 0 38.5 15t14.5 38v3072
q0 24 -14.5 38.5t-38.5 14.5h-3071q-24 0 -39 -14.5t-15 -38.5v-3072q0 -23 15 -38t39 -15z" />
    <glyph glyph-name="uniE144" unicode="&#x36;&#x20de;" horiz-adv-x="3912" 
d="M1958 -28q-147 1 -286.5 51.5t-251.5 165t-178 305t-66 472.5q0 265 56 472t161 350.5t253.5 218.5t332.5 75q193 0 342.5 -76.5t241.5 -209t114 -300.5h-365q-28 122 -114.5 193.5t-218.5 71.5q-213 0 -327.5 -186t-115.5 -513h14q49 88 127 151t176.5 97.5t208.5 34.5
q180 0 323.5 -86t227.5 -236.5t83 -344.5q1 -202 -92 -362.5t-259 -252.5t-387 -91zM1956 272q109 0 195 53t136 143t49 202q1 110 -47.5 199t-133.5 141t-194 52q-81 0 -151 -31t-122 -85.5t-81.5 -126t-30.5 -152.5q1 -107 50 -197t135 -144t195 -54zM444 -832
q-168 0 -256 88t-88 256v3024q0 168 88 256t256 88h3024q168 0 256 -88t88 -256v-3024q0 -168 -88 -256t-256 -88h-3024zM421 -565h3071q24 0 38.5 15t14.5 38v3072q0 24 -14.5 38.5t-38.5 14.5h-3071q-24 0 -39 -14.5t-15 -38.5v-3072q0 -23 15 -38t39 -15z" />
    <glyph glyph-name="uniE145" unicode="&#x37;&#x20de;" horiz-adv-x="3912" 
d="M1439 0l871 1724v14h-1011v310h1395v-317l-870 -1731h-385zM444 -832q-168 0 -256 88t-88 256v3024q0 168 88 256t256 88h3024q168 0 256 -88t88 -256v-3024q0 -168 -88 -256t-256 -88h-3024zM421 -565h3071q24 0 38.5 15t14.5 38v3072q0 24 -14.5 38.5t-38.5 14.5h-3071
q-24 0 -39 -14.5t-15 -38.5v-3072q0 -23 15 -38t39 -15z" />
    <glyph glyph-name="uniE146" unicode="&#x38;&#x20de;" horiz-adv-x="3912" 
d="M1956 -28q-223 0 -395.5 75t-270 205.5t-96.5 296.5q-1 129 56 237t154.5 180.5t217.5 92.5v14q-158 35 -255.5 161.5t-96.5 292.5q-1 158 88 282t244 195.5t354 71.5q197 0 351.5 -71.5t244 -195.5t89.5 -282q0 -166 -98.5 -292.5t-253.5 -161.5v-14
q120 -20 216.5 -92.5t154 -180.5t57.5 -237q0 -166 -98 -296.5t-269.5 -205.5t-393.5 -75zM1956 258q115 0 200 39.5t132 111.5t48 166q-1 98 -50.5 173.5t-135 118.5t-194.5 43q-110 0 -196 -43t-135.5 -118.5t-48.5 -173.5q-1 -94 46 -165.5t132.5 -111.5t201.5 -40z
M1956 1191q94 0 166.5 38t114.5 106t43 157q-1 88 -42 154.5t-114 103t-168 36.5q-97 0 -170.5 -36.5t-114 -103t-39.5 -154.5q-1 -89 40.5 -156.5t115 -106t168.5 -38.5zM444 -832q-168 0 -256 88t-88 256v3024q0 168 88 256t256 88h3024q168 0 256 -88t88 -256v-3024
q0 -168 -88 -256t-256 -88h-3024zM421 -565h3071q24 0 38.5 15t14.5 38v3072q0 24 -14.5 38.5t-38.5 14.5h-3071q-24 0 -39 -14.5t-15 -38.5v-3072q0 -23 15 -38t39 -15z" />
    <glyph glyph-name="uniE147" unicode="&#x39;&#x20de;" horiz-adv-x="3912" 
d="M1940 2082q147 -1 286.5 -52t251.5 -165t178 -305t66 -473q0 -264 -56.5 -471.5t-161 -350.5t-252.5 -218t-333 -75q-194 0 -343.5 76t-241.5 208t-113 302h365q28 -122 114.5 -193.5t218.5 -71.5q213 0 328 185t115 514h-14q-49 -88 -127 -151.5t-176.5 -97.5
t-208.5 -34q-180 0 -324 86t-227.5 236.5t-83.5 344.5q0 202 92.5 362t258.5 252.5t388 91.5zM1941 1782q-108 0 -194.5 -53t-136 -143t-49.5 -202q0 -110 48.5 -199.5t133.5 -141.5t194 -52q81 0 151 31.5t122 86.5t81.5 126.5t29.5 150.5q0 107 -49.5 197t-135 144.5
t-195.5 54.5zM444 -832q-168 0 -256 88t-88 256v3024q0 168 88 256t256 88h3024q168 0 256 -88t88 -256v-3024q0 -168 -88 -256t-256 -88h-3024zM421 -565h3071q24 0 38.5 15t14.5 38v3072q0 24 -14.5 38.5t-38.5 14.5h-3071q-24 0 -39 -14.5t-15 -38.5v-3072q0 -23 15 -38
t39 -15z" />
    <glyph glyph-name="uniE148" unicode="&#xe06b;&#x20de;" horiz-adv-x="3912" 
d="M2259 1831l152 -91l-766 -1522l-144 101zM1956 -38q-247 1 -423.5 126t-271 363t-94.5 573q1 334 95.5 570t271 360t422.5 124t423 -124.5t271.5 -360t94.5 -569.5q0 -336 -94.5 -573.5t-271 -363t-423.5 -125.5zM1956 275q192 0 303.5 190t111.5 559q0 244 -51 410
t-144 250.5t-220 84.5q-191 0 -302 -189.5t-112 -555.5q-1 -246 49.5 -413t143.5 -251.5t221 -84.5zM444 -832q-168 0 -256 88t-88 256v3024q0 168 88 256t256 88h3024q168 0 256 -88t88 -256v-3024q0 -168 -88 -256t-256 -88h-3024zM421 -565h3071q24 0 38.5 15t14.5 38
v3072q0 24 -14.5 38.5t-38.5 14.5h-3071q-24 0 -39 -14.5t-15 -38.5v-3072q0 -23 15 -38t39 -15z" />
    <glyph glyph-name="uniE149" unicode="&#xe06c;&#x20de;" horiz-adv-x="3912" 
d="M2226 2048v-2048h-372v1574h-17q-20 -31 -76 -66.5t-143.5 -60.5t-203.5 -25v300q106 0 189 37t141.5 92t90.5 109t35 88h356zM444 -832q-168 0 -256 88t-88 256v3024q0 168 88 256t256 88h3024q168 0 256 -88t88 -256v-3024q0 -168 -88 -256t-256 -88h-3024zM421 -565
h3071q24 0 38.5 15t14.5 38v3072q0 24 -14.5 38.5t-38.5 14.5h-3071q-24 0 -39 -14.5t-15 -38.5v-3072q0 -23 15 -38t39 -15z" />
    <glyph glyph-name="uniE14A" unicode="&#xe06d;&#x20de;" horiz-adv-x="3912" 
d="M1194 557h375q7 -86 58 -147.5t134 -94t185 -32.5q108 0 193 37.5t133.5 108t48.5 171.5q0 93 -46.5 169.5t-141.5 122t-243 45.5h-203v267l474 520v14h-866v310h1334v-268l-550 -592v-16q152 -12 268.5 -64t195.5 -133t119 -182t40 -212q0 -180 -98.5 -317t-270 -214.5
t-390.5 -77.5q-210 0 -376.5 72t-265.5 203.5t-107 309.5zM444 -832q-168 0 -256 88t-88 256v3024q0 168 88 256t256 88h3024q168 0 256 -88t88 -256v-3024q0 -168 -88 -256t-256 -88h-3024zM421 -565h3071q24 0 38.5 15t14.5 38v3072q0 24 -14.5 38.5t-38.5 14.5h-3071
q-24 0 -39 -14.5t-15 -38.5v-3072q0 -23 15 -38t39 -15z" />
    <glyph glyph-name="uniE14B" unicode="&#xe06e;&#x20de;" horiz-adv-x="3912" 
d="M1107 380v295l783 1373h359l-765 -1347v-16h1216v-305h-1593zM2084 0v467l8 135v678h341v-1280h-349zM444 -832q-168 0 -256 88t-88 256v3024q0 168 88 256t256 88h3024q168 0 256 -88t88 -256v-3024q0 -168 -88 -256t-256 -88h-3024zM421 -565h3071q24 0 38.5 15
t14.5 38v3072q0 24 -14.5 38.5t-38.5 14.5h-3071q-24 0 -39 -14.5t-15 -38.5v-3072q0 -23 15 -38t39 -15z" />
    <glyph glyph-name="uniE14C" unicode="&#xe06f;&#x20de;" horiz-adv-x="3912" 
d="M1246 659q2 104 29.5 209.5t87.5 224t157 261.5l470 694h380l-511 -748q37 10 77 16.5t82 6.5q187 0 333.5 -85t230.5 -235t84 -345q0 -203 -91.5 -357.5t-251 -241.5t-362.5 -87q-199 0 -361.5 84t-258.5 238t-95 365zM1607 651q0 -111 44.5 -197t124 -135t183.5 -49
q103 0 182 48.5t124 134t45 196.5t-45 196.5t-124 134t-182 48.5q-104 0 -183.5 -48t-124 -133t-44.5 -196zM444 -832q-168 0 -256 88t-88 256v3024q0 168 88 256t256 88h3024q168 0 256 -88t88 -256v-3024q0 -168 -88 -256t-256 -88h-3024zM421 -565h3071q24 0 38.5 15
t14.5 38v3072q0 24 -14.5 38.5t-38.5 14.5h-3071q-24 0 -39 -14.5t-15 -38.5v-3072q0 -23 15 -38t39 -15z" />
    <glyph glyph-name="uniE14D" unicode="&#xe070;&#x20de;" horiz-adv-x="3912" 
d="M1246 1390q0 203 91 357.5t250.5 241.5t363.5 87q198 0 360.5 -83.5t259 -237.5t94.5 -366q-1 -104 -29 -209.5t-88 -224t-156 -261.5l-470 -694h-381l512 750q-38 -11 -77.5 -18t-81.5 -7q-188 0 -334.5 85t-230 235t-83.5 345zM1602 1399q0 -111 45 -196.5t124 -134
t182 -48.5t182.5 48t124.5 133t45 196q0 112 -45 197.5t-124.5 134.5t-182.5 49t-182.5 -48.5t-124 -134t-44.5 -196.5zM444 -832q-168 0 -256 88t-88 256v3024q0 168 88 256t256 88h3024q168 0 256 -88t88 -256v-3024q0 -168 -88 -256t-256 -88h-3024zM421 -565h3071
q24 0 38.5 15t14.5 38v3072q0 24 -14.5 38.5t-38.5 14.5h-3071q-24 0 -39 -14.5t-15 -38.5v-3072q0 -23 15 -38t39 -15z" />
    <glyph glyph-name="uniE14E" unicode="&#x21;&#x20de;" horiz-adv-x="3912" 
d="M2150 2048l-33 -1446h-322l-32 1446h387zM1956 -22q-91 0 -155.5 64t-64.5 156q0 90 64.5 154t155.5 64q89 0 154.5 -64t65.5 -154q0 -61 -30.5 -111t-80 -79.5t-109.5 -29.5zM444 -832q-168 0 -256 88t-88 256v3024q0 168 88 256t256 88h3024q168 0 256 -88t88 -256
v-3024q0 -168 -88 -256t-256 -88h-3024zM421 -565h3071q24 0 38.5 15t14.5 38v3072q0 24 -14.5 38.5t-38.5 14.5h-3071q-24 0 -39 -14.5t-15 -38.5v-3072q0 -23 15 -38t39 -15z" />
    <glyph glyph-name="uniE14F" unicode="&#x3f;&#x20de;" horiz-adv-x="3912" 
d="M1765 602v26q1 181 34.5 288t95.5 172.5t151 120.5q61 38 109.5 83.5t76.5 102t28 126.5q0 79 -37 137t-99.5 90t-139.5 32q-71 0 -134.5 -30.5t-105 -92t-46.5 -155.5h-356q5 190 92.5 318t232 192t319.5 64q191 0 336.5 -67t227 -190.5t81.5 -292.5q0 -114 -36.5 -204
t-103.5 -160t-159 -125q-81 -50 -132.5 -104t-76 -126.5t-25.5 -178.5v-26h-333zM1939 -22q-90 0 -155 64t-65 156q0 90 65 154t155 64q89 0 154.5 -64t65.5 -154q0 -61 -30.5 -111t-80 -79.5t-109.5 -29.5zM444 -832q-168 0 -256 88t-88 256v3024q0 168 88 256t256 88h3024
q168 0 256 -88t88 -256v-3024q0 -168 -88 -256t-256 -88h-3024zM421 -565h3071q24 0 38.5 15t14.5 38v3072q0 24 -14.5 38.5t-38.5 14.5h-3071q-24 0 -39 -14.5t-15 -38.5v-3072q0 -23 15 -38t39 -15z" />
    <glyph glyph-name="uniE150" unicode="&#x23;&#x20de;" horiz-adv-x="3912" 
d="M2008 0l336 2048h280l-336 -2048h-280zM1085 528l47 280h1576l-47 -280h-1576zM1288 0l336 2048h280l-336 -2048h-280zM1204 1240l46 280h1576l-46 -280h-1576zM444 -832q-168 0 -256 88t-88 256v3024q0 168 88 256t256 88h3024q168 0 256 -88t88 -256v-3024
q0 -168 -88 -256t-256 -88h-3024zM421 -565h3071q24 0 38.5 15t14.5 38v3072q0 24 -14.5 38.5t-38.5 14.5h-3071q-24 0 -39 -14.5t-15 -38.5v-3072q0 -23 15 -38t39 -15z" />
    <glyph glyph-name="uniE151" unicode="&#x2d;&#x20de;" horiz-adv-x="3912" 
d="M2417 1173v-298h-922v298h922zM444 -832q-168 0 -256 88t-88 256v3024q0 168 88 256t256 88h3024q168 0 256 -88t88 -256v-3024q0 -168 -88 -256t-256 -88h-3024zM421 -565h3071q24 0 38.5 15t14.5 38v3072q0 24 -14.5 38.5t-38.5 14.5h-3071q-24 0 -39 -14.5t-15 -38.5
v-3072q0 -23 15 -38t39 -15z" />
    <glyph glyph-name="uniE152" unicode="&#x3c;&#x20de;" horiz-adv-x="3912" 
d="M1232 861v288l1368 632v-355l-972 -417l11 19v-46l-11 19l972 -417v-355zM444 -832q-168 0 -256 88t-88 256v3024q0 168 88 256t256 88h3024q168 0 256 -88t88 -256v-3024q0 -168 -88 -256t-256 -88h-3024zM421 -565h3071q24 0 38.5 15t14.5 38v3072q0 24 -14.5 38.5
t-38.5 14.5h-3071q-24 0 -39 -14.5t-15 -38.5v-3072q0 -23 15 -38t39 -15z" />
    <glyph glyph-name="uniE153" unicode="&#x3e;&#x20de;" horiz-adv-x="3912" 
d="M2680 861l-1368 -632v355l972 417l-11 -19v46l11 -19l-972 417v355l1368 -632v-288zM444 -832q-168 0 -256 88t-88 256v3024q0 168 88 256t256 88h3024q168 0 256 -88t88 -256v-3024q0 -168 -88 -256t-256 -88h-3024zM421 -565h3071q24 0 38.5 15t14.5 38v3072
q0 24 -14.5 38.5t-38.5 14.5h-3071q-24 0 -39 -14.5t-15 -38.5v-3072q0 -23 15 -38t39 -15z" />
    <glyph glyph-name="uniE154" unicode="&#x3d;&#x20de;" horiz-adv-x="3912" 
d="M1291 1189v309h1331v-309h-1331zM1291 549v309h1331v-309h-1331zM444 -832q-168 0 -256 88t-88 256v3024q0 168 88 256t256 88h3024q168 0 256 -88t88 -256v-3024q0 -168 -88 -256t-256 -88h-3024zM421 -565h3071q24 0 38.5 15t14.5 38v3072q0 24 -14.5 38.5t-38.5 14.5
h-3071q-24 0 -39 -14.5t-15 -38.5v-3072q0 -23 15 -38t39 -15z" />
    <glyph glyph-name="uniE155" unicode="&#x2b;&#x20de;" horiz-adv-x="3912" 
d="M1799 328v1384h314v-1384h-314zM1264 863v314h1384v-314h-1384zM444 -832q-168 0 -256 88t-88 256v3024q0 168 88 256t256 88h3024q168 0 256 -88t88 -256v-3024q0 -168 -88 -256t-256 -88h-3024zM421 -565h3071q24 0 38.5 15t14.5 38v3072q0 24 -14.5 38.5t-38.5 14.5
h-3071q-24 0 -39 -14.5t-15 -38.5v-3072q0 -23 15 -38t39 -15z" />
    <glyph glyph-name="uniE156" unicode="&#x2212;&#x20de;" horiz-adv-x="3912" 
d="M2636 1181v-314h-1360v314h1360zM444 -832q-168 0 -256 88t-88 256v3024q0 168 88 256t256 88h3024q168 0 256 -88t88 -256v-3024q0 -168 -88 -256t-256 -88h-3024zM421 -565h3071q24 0 38.5 15t14.5 38v3072q0 24 -14.5 38.5t-38.5 14.5h-3071q-24 0 -39 -14.5
t-15 -38.5v-3072q0 -23 15 -38t39 -15z" />
    <glyph glyph-name="uniE157" unicode="&#xd7;&#x20de;" horiz-adv-x="3912" 
d="M2430 312l-1173 1171l226 227l1172 -1173zM1483 312l-226 225l1173 1173l225 -227zM444 -832q-168 0 -256 88t-88 256v3024q0 168 88 256t256 88h3024q168 0 256 -88t88 -256v-3024q0 -168 -88 -256t-256 -88h-3024zM421 -565h3071q24 0 38.5 15t14.5 38v3072
q0 24 -14.5 38.5t-38.5 14.5h-3071q-24 0 -39 -14.5t-15 -38.5v-3072q0 -23 15 -38t39 -15z" />
    <glyph glyph-name="uniE158" unicode="&#xf7;&#x20de;" horiz-adv-x="3912" 
d="M2636 1174v-301h-1360v301h1360zM1956 261q-92 0 -156.5 64.5t-64.5 156.5q0 90 64.5 154t156.5 64q90 0 154 -64t64 -154q0 -92 -64 -156.5t-154 -64.5zM1956 1348q-61 0 -111.5 29.5t-80 80t-29.5 111.5q0 90 64.5 154t156.5 64q90 0 154 -64t64 -154q0 -91 -64 -156
t-154 -65zM444 -832q-168 0 -256 88t-88 256v3024q0 168 88 256t256 88h3024q168 0 256 -88t88 -256v-3024q0 -168 -88 -256t-256 -88h-3024zM421 -565h3071q24 0 38.5 15t14.5 38v3072q0 24 -14.5 38.5t-38.5 14.5h-3071q-24 0 -39 -14.5t-15 -38.5v-3072q0 -23 15 -38
t39 -15z" />
    <glyph glyph-name="uniE159" unicode="&#x2191;&#x20de;" horiz-adv-x="3912" 
d="M1809 0v1501l-567 -569l-208 206l924 922l922 -922l-204 -206l-569 569v-1501h-298zM444 -832q-168 0 -256 88t-88 256v3024q0 168 88 256t256 88h3024q168 0 256 -88t88 -256v-3024q0 -168 -88 -256t-256 -88h-3024zM421 -565h3071q24 0 38.5 15t14.5 38v3072
q0 24 -14.5 38.5t-38.5 14.5h-3071q-24 0 -39 -14.5t-15 -38.5v-3072q0 -23 15 -38t39 -15z" />
    <glyph glyph-name="uniE15A" unicode="&#x2193;&#x20de;" horiz-adv-x="3912" 
d="M2105 2048v-1501l567 569l208 -206l-924 -922l-922 922l204 206l569 -569v1501h298zM444 -832q-168 0 -256 88t-88 256v3024q0 168 88 256t256 88h3024q168 0 256 -88t88 -256v-3024q0 -168 -88 -256t-256 -88h-3024zM421 -565h3071q24 0 38.5 15t14.5 38v3072
q0 24 -14.5 38.5t-38.5 14.5h-3071q-24 0 -39 -14.5t-15 -38.5v-3072q0 -23 15 -38t39 -15z" />
    <glyph glyph-name="uniE15B" unicode="&#x2190;&#x20de;" horiz-adv-x="3912" 
d="M1898 54l-970 970l970 970l206 -204l-617 -617h1499v-298h-1499l617 -616zM444 -832q-168 0 -256 88t-88 256v3024q0 168 88 256t256 88h3024q168 0 256 -88t88 -256v-3024q0 -168 -88 -256t-256 -88h-3024zM421 -565h3071q24 0 38.5 15t14.5 38v3072q0 24 -14.5 38.5
t-38.5 14.5h-3071q-24 0 -39 -14.5t-15 -38.5v-3072q0 -23 15 -38t39 -15z" />
    <glyph glyph-name="uniE15C" unicode="&#x2192;&#x20de;" horiz-adv-x="3912" 
d="M2016 54l-206 204l617 617h-1499v298h1499l-617 616l206 205l970 -970zM444 -832q-168 0 -256 88t-88 256v3024q0 168 88 256t256 88h3024q168 0 256 -88t88 -256v-3024q0 -168 -88 -256t-256 -88h-3024zM421 -565h3071q24 0 38.5 15t14.5 38v3072q0 24 -14.5 38.5
t-38.5 14.5h-3071q-24 0 -39 -14.5t-15 -38.5v-3072q0 -23 15 -38t39 -15z" />
    <glyph glyph-name="uniE15D" unicode="&#x2713;&#x20de;" horiz-adv-x="3912" 
d="M998 977l238 241l485 -477l1049 1045l240 -241l-1289 -1284zM444 -832q-168 0 -256 88t-88 256v3024q0 168 88 256t256 88h3024q168 0 256 -88t88 -256v-3024q0 -168 -88 -256t-256 -88h-3024zM421 -565h3071q24 0 38.5 15t14.5 38v3072q0 24 -14.5 38.5t-38.5 14.5
h-3071q-24 0 -39 -14.5t-15 -38.5v-3072q0 -23 15 -38t39 -15z" />
    <glyph glyph-name="uniE15E" unicode="&#x2717;&#x20de;" horiz-adv-x="3912" 
d="M1441 270l-241 241l1273 1267l241 -241zM2471 270l-1273 1267l241 241l1273 -1267zM444 -832q-168 0 -256 88t-88 256v3024q0 168 88 256t256 88h3024q168 0 256 -88t88 -256v-3024q0 -168 -88 -256t-256 -88h-3024zM421 -565h3071q24 0 38.5 15t14.5 38v3072
q0 24 -14.5 38.5t-38.5 14.5h-3071q-24 0 -39 -14.5t-15 -38.5v-3072q0 -23 15 -38t39 -15z" />
    <glyph glyph-name=".notdef" horiz-adv-x="2904" 
d="M277 -640v512h2350v-512h-2350zM277 1472v512h2350v-512h-2350zM277 2176v512h2350v-512h-2350zM277 64v512h2350v-512h-2350zM277 768v512h2350v-512h-2350z" />
    <glyph glyph-name=".null" 
 />
    <glyph glyph-name="uni0041" unicode="A" horiz-adv-x="2038" 
d="M465 0h-396l721 2048h458l722 -2048h-396l-547 1628h-16zM478 803h1080v-298h-1080v298z" />
    <glyph glyph-name="uni00C4" unicode="&#xc4;" horiz-adv-x="2038" 
d="M465 0h-396l721 2048h458l722 -2048h-396l-547 1628h-16zM478 803h1080v-298h-1080v298zM720 2274q-79 0 -136.5 56t-57.5 132q0 80 57.5 134.5t136.5 54.5q81 0 136.5 -54.5t55.5 -134.5q0 -76 -55.5 -132t-136.5 -56zM1320 2274q-79 0 -136.5 56t-57.5 132
q0 80 57.5 134.5t136.5 54.5q81 0 136.5 -54.5t55.5 -134.5q0 -76 -55.5 -132t-136.5 -56z" />
    <glyph glyph-name="uni00C3" unicode="&#xc3;" horiz-adv-x="2038" 
d="M465 0h-396l721 2048h458l722 -2048h-396l-547 1628h-16zM478 803h1080v-298h-1080v298zM725 2250l-219 5q0 178 92 279t227 101q65 0 113 -21.5t88.5 -49.5t79.5 -49.5t86 -21.5q57 0 90.5 43t34.5 110l215 -9q-1 -179 -93 -277.5t-226 -99.5q-72 -1 -121 21t-85.5 50
t-73.5 49.5t-87 21.5q-53 0 -87 -42t-34 -110z" />
    <glyph glyph-name="uni00C0" unicode="&#xc0;" horiz-adv-x="2038" 
d="M465 0h-396l721 2048h458l722 -2048h-396l-547 1628h-16zM478 803h1080v-298h-1080v298zM887 2250l-307 457h355l223 -457h-271z" />
    <glyph glyph-name="uni00C1" unicode="&#xc1;" horiz-adv-x="2038" 
d="M465 0h-396l721 2048h458l722 -2048h-396l-547 1628h-16zM478 803h1080v-298h-1080v298zM880 2250l224 457h354l-307 -457h-271z" />
    <glyph glyph-name="uni00C2" unicode="&#xc2;" horiz-adv-x="2038" 
d="M465 0h-396l721 2048h458l722 -2048h-396l-547 1628h-16zM478 803h1080v-298h-1080v298zM816 2231h-317v15l379 432h283l378 -432v-15h-317l-203 256z" />
    <glyph glyph-name="uni00C5" unicode="&#xc5;" horiz-adv-x="2038" 
d="M465 0h-396l721 2048h458l722 -2048h-396l-547 1628h-16zM478 803h1080v-298h-1080v298zM1019 2166q-90 0 -164.5 42t-118.5 112.5t-44 156.5q0 85 44 156t118.5 112.5t164.5 41.5q91 0 165 -41.5t118 -112.5t44 -156q0 -86 -44 -156.5t-118 -112.5t-165 -42zM1019 2333
q62 0 106 42t44 102t-44 102t-106 42q-61 -1 -105 -42.5t-44 -101.5t43.5 -102.5t105.5 -41.5z" />
    <glyph glyph-name="uni0100" unicode="&#x100;" horiz-adv-x="2038" 
d="M465 0h-396l721 2048h458l722 -2048h-396l-547 1628h-16zM478 803h1080v-298h-1080v298zM1500 2560v-221h-962v221h962z" />
    <glyph glyph-name="uni0102" unicode="&#x102;" horiz-adv-x="2038" 
d="M465 0h-396l721 2048h458l722 -2048h-396l-547 1628h-16zM478 803h1080v-298h-1080v298zM1217 2576h271q0 -175 -126.5 -283.5t-342.5 -108.5q-214 0 -340.5 108.5t-125.5 283.5h269q0 -72 44.5 -128.5t152.5 -56.5q106 0 151.5 56t46.5 129z" />
    <glyph glyph-name="uni0104" unicode="&#x104;" horiz-adv-x="2038" 
d="M465 0h-396l721 2048h458l722 -2048h-396l-547 1628h-16zM478 803h1080v-298h-1080v298zM1776 -582q-129 0 -215.5 68t-101.5 196q-11 78 13 158t86 149t164 116l247 -105q-93 -52 -156 -110t-63 -136q0 -48 23.5 -74t75.5 -26q38 0 66.5 10t48.5 18l36 -204
q-36 -21 -92 -40.5t-132 -19.5z" />
    <glyph glyph-name="uni01CD" unicode="&#x1cd;" horiz-adv-x="2038" 
d="M465 0h-396l721 2048h458l722 -2048h-396l-547 1628h-16zM478 803h1080v-298h-1080v298zM816 2678l203 -256l203 256h317v-14l-378 -432h-283l-379 432v14h317z" />
    <glyph glyph-name="uni01DE" unicode="&#x1de;" horiz-adv-x="2038" 
d="M465 0h-396l721 2048h458l722 -2048h-396l-547 1628h-16zM478 803h1080v-298h-1080v298zM719 2274q-79 0 -136.5 56t-57.5 132q0 80 57.5 134.5t136.5 54.5q81 0 136.5 -54.5t55.5 -134.5q0 -76 -55.5 -132t-136.5 -56zM1319 2274q-79 0 -136.5 56t-57.5 132
q0 80 57.5 134.5t136.5 54.5q81 0 136.5 -54.5t55.5 -134.5q0 -76 -55.5 -132t-136.5 -56zM1500 3072v-221h-962v221h962z" />
    <glyph glyph-name="uni01E0" unicode="&#x1e0;" horiz-adv-x="2038" 
d="M465 0h-396l721 2048h458l722 -2048h-396l-547 1628h-16zM478 803h1080v-298h-1080v298zM1019 2396q-87 0 -148.5 57.5t-61.5 138.5q0 82 62 139.5t148 57.5t147.5 -57.5t61.5 -139.5q0 -81 -61.5 -138.5t-147.5 -57.5zM1501 3168v-221h-962v221h962z" />
    <glyph glyph-name="uni01FA" unicode="&#x1fa;" horiz-adv-x="2038" 
d="M465 0h-396l721 2048h458l722 -2048h-396l-547 1628h-16zM478 803h1080v-298h-1080v298zM1020 2155q-101 0 -174.5 70t-73.5 169q0 98 73.5 168t174.5 70q103 0 175 -70t72 -168q0 -99 -72 -169t-175 -70zM1020 2298q42 0 69.5 28.5t27.5 67.5q0 36 -27.5 64t-69.5 28
q-41 0 -69.5 -28t-28.5 -64q0 -39 28.5 -67.5t69.5 -28.5zM889 2717l248 275h341l-358 -275h-231z" />
    <glyph glyph-name="uni0200" unicode="&#x200;" horiz-adv-x="2038" 
d="M465 0h-396l721 2048h458l722 -2048h-396l-547 1628h-16zM478 803h1080v-298h-1080v298zM805 2250l-344 278l57 179l335 -278zM1272 2250l-288 278l103 179l268 -278z" />
    <glyph glyph-name="uni0202" unicode="&#x202;" horiz-adv-x="2038" 
d="M465 0h-396l721 2048h458l722 -2048h-396l-547 1628h-16zM478 803h1080v-298h-1080v298zM549 2297q0 175 126 288t343 113q215 0 341 -113t127 -288h-271q-1 74 -46.5 130t-150.5 56q-109 0 -153.5 -57t-44.5 -129h-271z" />
    <glyph glyph-name="uni0226" unicode="&#x226;" horiz-adv-x="2038" 
d="M465 0h-396l721 2048h458l722 -2048h-396l-547 1628h-16zM478 803h1080v-298h-1080v298zM1020 2266q-87 0 -148.5 57.5t-61.5 138.5q0 82 62 139.5t148 57.5t147.5 -57.5t61.5 -139.5q0 -81 -61.5 -138.5t-147.5 -57.5z" />
    <glyph glyph-name="uni1E00" unicode="&#x1e00;" horiz-adv-x="2038" 
d="M465 0h-396l721 2048h458l722 -2048h-396l-547 1628h-16zM478 803h1080v-298h-1080v298zM744 -320q0 100 74.5 167t185.5 67q104 0 180 -67t76 -167q0 -105 -76 -170t-180 -65q-111 0 -185.5 65.5t-74.5 169.5zM892 -320q0 -47 31.5 -78t80.5 -31q42 0 74.5 31t32.5 78
q0 45 -32.5 75.5t-74.5 30.5q-49 0 -80.5 -30.5t-31.5 -75.5z" />
    <glyph glyph-name="uni1EA0" unicode="&#x1ea0;" horiz-adv-x="2038" 
d="M465 0h-396l721 2048h458l722 -2048h-396l-547 1628h-16zM478 803h1080v-298h-1080v298zM1020 -552q-87 0 -148.5 57.5t-61.5 138.5q0 82 62 139.5t148 57.5t147.5 -57.5t61.5 -139.5q0 -81 -61.5 -138.5t-147.5 -57.5z" />
    <glyph glyph-name="uni1EA2" unicode="&#x1ea2;" horiz-adv-x="2038" 
d="M465 0h-396l721 2048h458l722 -2048h-396l-547 1628h-16zM478 803h1080v-298h-1080v298zM1158 2264h-276l-14 192q106 4 150 27.5t43 65.5q1 54 -58 75t-146 21l9 179q248 0 376 -72t127 -196q1 -95 -65 -141.5t-146 -58.5v-92z" />
    <glyph glyph-name="uni1EA4" unicode="&#x1ea4;" horiz-adv-x="2038" 
d="M465 0h-396l721 2048h458l722 -2048h-396l-547 1628h-16zM478 803h1080v-298h-1080v298zM500 2224l405 329h226l407 -329h-301l-217 184l-218 -184h-302zM1431 2424l222 369h318l-309 -369h-231z" />
    <glyph glyph-name="uni1EA6" unicode="&#x1ea6;" horiz-adv-x="2038" 
d="M465 0h-396l721 2048h458l722 -2048h-396l-547 1628h-16zM478 803h1080v-298h-1080v298zM1131 2547l406 -329h-301l-216 184l-219 -184h-299l402 329h227zM385 2788l221 -370h-226l-312 370h317z" />
    <glyph glyph-name="uni1EA8" unicode="&#x1ea8;" horiz-adv-x="2038" 
d="M465 0h-396l721 2048h458l722 -2048h-396l-547 1628h-16zM478 803h1080v-298h-1080v298zM1144 2536l390 -329h-279l-238 201l-239 -201h-279l390 329h255zM1607 2388h-203l-13 162q85 5 124.5 22.5t39.5 54.5q0 47 -50 64.5t-127 17.5l10 151q196 0 297.5 -60t101.5 -165
q0 -81 -56 -121t-124 -50v-76z" />
    <glyph glyph-name="uni1EAA" unicode="&#x1eaa;" horiz-adv-x="2038" 
d="M465 0h-396l721 2048h458l722 -2048h-396l-547 1628h-16zM478 803h1080v-298h-1080v298zM1125 2512l409 -317h-278l-239 184l-236 -184h-282l410 317h216zM1245 2856l136 -45q0 -81 -56 -148.5t-146 -67.5q-49 0 -86.5 14t-69.5 32t-64.5 32t-71.5 14q-36 0 -62 -30
t-25 -67l-132 36q-1 78 54 146.5t146 68.5q39 0 76 -13t72 -30.5t70.5 -30.5t73.5 -13q34 0 59.5 32.5t25.5 69.5z" />
    <glyph glyph-name="uni1EAC" unicode="&#x1eac;" horiz-adv-x="2038" 
d="M465 0h-396l721 2048h458l722 -2048h-396l-547 1628h-16zM478 803h1080v-298h-1080v298zM816 2231h-317v15l379 432h283l378 -432v-15h-317l-203 256zM1020 -552q-87 0 -148.5 57.5t-61.5 138.5q0 82 62 139.5t148 57.5t147.5 -57.5t61.5 -139.5q0 -81 -61.5 -138.5
t-147.5 -57.5z" />
    <glyph glyph-name="uni1EAE" unicode="&#x1eae;" horiz-adv-x="2038" 
d="M465 0h-396l721 2048h458l722 -2048h-396l-547 1628h-16zM478 803h1080v-298h-1080v298zM1227 2529h259q-1 -139 -128.5 -227t-344.5 -88t-343.5 88t-126.5 227h256q0 -61 48.5 -108.5t165.5 -47.5q115 0 164 47.5t50 108.5zM909 2539l167 260h271l-240 -260h-198z" />
    <glyph glyph-name="uni1EB0" unicode="&#x1eb0;" horiz-adv-x="2038" 
d="M465 0h-396l721 2048h458l722 -2048h-396l-547 1628h-16zM478 803h1080v-298h-1080v298zM1227 2531h259q-1 -137 -127.5 -225.5t-345.5 -88.5q-217 0 -343.5 88.5t-126.5 225.5h256q0 -61 48.5 -108.5t165.5 -47.5q114 0 163.5 47.5t50.5 108.5zM938 2539l-242 260h271
l165 -260h-194z" />
    <glyph glyph-name="uni1EB2" unicode="&#x1eb2;" horiz-adv-x="2038" 
d="M465 0h-396l721 2048h458l722 -2048h-396l-547 1628h-16zM478 803h1080v-298h-1080v298zM1218 2528h256q1 -139 -124.5 -225.5t-343.5 -86.5q-215 0 -340 86.5t-126 225.5h254q1 -62 50 -106t162 -44q115 0 164 44.5t48 105.5zM1126 2567h-236l-19 154q101 3 146.5 18.5
t44.5 48.5q1 44 -57 59t-145 15l12 139q228 0 344.5 -55t115.5 -151q1 -74 -63.5 -109t-142.5 -44v-75z" />
    <glyph glyph-name="uni1EB4" unicode="&#x1eb4;" horiz-adv-x="2038" 
d="M465 0h-396l721 2048h458l722 -2048h-396l-547 1628h-16zM478 803h1080v-298h-1080v298zM1220 2535h257q0 -141 -126 -229.5t-342 -88.5q-213 0 -340 88.5t-126 229.5h255q-1 -61 47 -105.5t164 -44.5q113 0 162 44t49 106zM1262 2955l157 -47q-1 -100 -66.5 -174
t-165.5 -74q-75 0 -125 23.5t-94.5 46.5t-104.5 23q-40 0 -70 -33.5t-30 -84.5l-156 41q0 99 65 176t167 77q45 0 84.5 -14t77.5 -33t77.5 -33t84.5 -14q38 0 68 34.5t31 85.5z" />
    <glyph glyph-name="uni1EB6" unicode="&#x1eb6;" horiz-adv-x="2038" 
d="M465 0h-396l721 2048h458l722 -2048h-396l-547 1628h-16zM478 803h1080v-298h-1080v298zM1217 2576h271q0 -175 -126.5 -283.5t-342.5 -108.5q-214 0 -340.5 108.5t-125.5 283.5h269q0 -72 44.5 -128.5t152.5 -56.5q106 0 151.5 56t46.5 129zM1020 -552
q-87 0 -148.5 57.5t-61.5 138.5q0 82 62 139.5t148 57.5t147.5 -57.5t61.5 -139.5q0 -81 -61.5 -138.5t-147.5 -57.5z" />
    <glyph glyph-name="uni0391" unicode="&#x391;" horiz-adv-x="2038" 
d="M465 0h-396l721 2048h458l722 -2048h-396l-547 1628h-16zM478 803h1080v-298h-1080v298z" />
    <glyph glyph-name="uni0386" unicode="&#x386;" horiz-adv-x="2038" 
d="M465 0h-396l721 2048h458l722 -2048h-396l-547 1628h-16zM478 803h1080v-298h-1080v298zM232 1716l93 473h339l-211 -473h-221z" />
    <glyph glyph-name="uni1F08" unicode="&#x1f08;" horiz-adv-x="2038" 
d="M465 0h-396l721 2048h458l722 -2048h-396l-547 1628h-16zM478 803h1080v-298h-1080v298zM568 2048v-125q0 -84 -29.5 -154.5t-83 -125.5t-126.5 -91l-114 111q40 33 64.5 73t35 88.5t10.5 106.5v117h243z" />
    <glyph glyph-name="uni1F09" unicode="&#x1f09;" horiz-adv-x="2038" 
d="M465 0h-396l721 2048h458l722 -2048h-396l-547 1628h-16zM478 803h1080v-298h-1080v298zM252 1923v125h244v-117q1 -54 11 -102.5t33.5 -90t64.5 -75.5l-114 -111q-106 54 -172.5 149.5t-66.5 221.5z" />
    <glyph glyph-name="uni1F0A" unicode="&#x1f0a;" horiz-adv-x="2038" 
d="M465 0h-396l721 2048h458l722 -2048h-396l-547 1628h-16zM478 803h1080v-298h-1080v298zM586 1604v-20h-131l-322 436v28h294zM69 2048v-112q0 -80 -30.5 -151t-88.5 -130t-140 -103l-109 84q55 63 84.5 136.5t28.5 171.5v104h255z" />
    <glyph glyph-name="uni1F0B" unicode="&#x1f0b;" horiz-adv-x="2038" 
d="M465 0h-396l721 2048h458l722 -2048h-396l-547 1628h-16zM478 803h1080v-298h-1080v298zM592 1610v-28h-131l-322 438v28h298zM-213 1923v125h247v-117q-1 -81 22.5 -149t87.5 -119l-114 -111q-110 54 -176.5 149.5t-66.5 221.5z" />
    <glyph glyph-name="uni1F0C" unicode="&#x1f0c;" horiz-adv-x="2038" 
d="M465 0h-396l721 2048h458l722 -2048h-396l-547 1628h-16zM478 803h1080v-298h-1080v298zM172 1582v28l160 438h294v-28l-322 -438h-132zM138 2048v-125q0 -83 -30.5 -154t-85 -126t-126.5 -91l-115 111q62 51 86 119t25 149v117h246z" />
    <glyph glyph-name="uni1F0D" unicode="&#x1f0d;" horiz-adv-x="2038" 
d="M465 0h-396l721 2048h458l722 -2048h-396l-547 1628h-16zM478 803h1080v-298h-1080v298zM161 1582v28l154 438h298v-28l-324 -438h-128zM-262 1923v125h245v-117q0 -87 25 -152.5t84 -115.5l-115 -111q-104 53 -171 148t-68 223z" />
    <glyph glyph-name="uni1F0E" unicode="&#x1f0e;" horiz-adv-x="2038" 
d="M465 0h-396l721 2048h458l722 -2048h-396l-547 1628h-16zM478 803h1080v-298h-1080v298zM610 2383l155 -47q0 -99 -65 -173.5t-167 -74.5q-55 0 -96 14.5t-75 33t-69.5 33t-81.5 14.5q-42 0 -70 -35t-28 -85l-155 43q0 99 63.5 177t165.5 78q47 0 86.5 -14.5t77 -34
t76.5 -33.5t82 -14q41 0 71 34t30 84zM495 2018v-105q0 -95 -53 -176.5t-140 -128.5l-115 90q54 43 71.5 100t17.5 117v103h219z" />
    <glyph glyph-name="uni1F0F" unicode="&#x1f0f;" horiz-adv-x="2038" 
d="M465 0h-396l721 2048h458l722 -2048h-396l-547 1628h-16zM478 803h1080v-298h-1080v298zM241 1913v105h219v-103q0 -60 17.5 -117t71.5 -100l-119 -90q-83 46 -136 127t-53 178zM580 2383l155 -47q0 -99 -65 -173.5t-167 -74.5q-55 0 -96 14.5t-75 33t-69.5 33
t-81.5 14.5q-42 0 -70 -35t-28 -85l-155 43q0 99 63.5 177t165.5 78q47 0 86.5 -14.5t77 -34t76.5 -33.5t82 -14q41 0 71 34t30 84z" />
    <glyph glyph-name="uni1FB8" unicode="&#x1fb8;" horiz-adv-x="2038" 
d="M465 0h-396l721 2048h458l722 -2048h-396l-547 1628h-16zM478 803h1080v-298h-1080v298zM1217 2576h271q0 -175 -126.5 -283.5t-342.5 -108.5q-214 0 -340.5 108.5t-125.5 283.5h269q0 -72 44.5 -128.5t152.5 -56.5q106 0 151.5 56t46.5 129z" />
    <glyph glyph-name="uni1FB9" unicode="&#x1fb9;" horiz-adv-x="2038" 
d="M465 0h-396l721 2048h458l722 -2048h-396l-547 1628h-16zM478 803h1080v-298h-1080v298zM1500 2560v-221h-962v221h962z" />
    <glyph glyph-name="uni1FBA" unicode="&#x1fba;" horiz-adv-x="2038" 
d="M465 0h-396l721 2048h458l722 -2048h-396l-547 1628h-16zM478 803h1080v-298h-1080v298zM579 1580h-128l-322 440v28h294l156 -434v-34z" />
    <glyph glyph-name="uni023A" unicode="&#x23a;" horiz-adv-x="2038" 
d="M1670 2308l-858 -2568h-250l857 2568h251zM465 0h-396l721 2048h458l722 -2048h-396l-547 1628h-16zM478 803h1080v-298h-1080v298z" />
    <glyph glyph-name="uni1FBB" unicode="&#x1fbb;" horiz-adv-x="2038" 
d="M465 0h-396l721 2048h458l722 -2048h-396l-547 1628h-16zM478 803h1080v-298h-1080v298zM239 1728v34l156 434h351v-28l-323 -440h-184z" />
    <glyph glyph-name="uni0410" unicode="&#x410;" horiz-adv-x="2038" 
d="M465 0h-396l721 2048h458l722 -2048h-396l-547 1628h-16zM478 803h1080v-298h-1080v298z" />
    <glyph glyph-name="uni04D0" unicode="&#x4d0;" horiz-adv-x="2038" 
d="M465 0h-396l721 2048h458l722 -2048h-396l-547 1628h-16zM478 803h1080v-298h-1080v298zM1217 2576h271q0 -175 -126.5 -283.5t-342.5 -108.5q-214 0 -340.5 108.5t-125.5 283.5h269q0 -72 44.5 -128.5t152.5 -56.5q106 0 151.5 56t46.5 129z" />
    <glyph glyph-name="uni04D2" unicode="&#x4d2;" horiz-adv-x="2038" 
d="M465 0h-396l721 2048h458l722 -2048h-396l-547 1628h-16zM478 803h1080v-298h-1080v298zM720 2274q-79 0 -136.5 56t-57.5 132q0 80 57.5 134.5t136.5 54.5q81 0 136.5 -54.5t55.5 -134.5q0 -76 -55.5 -132t-136.5 -56zM1320 2274q-79 0 -136.5 56t-57.5 132
q0 80 57.5 134.5t136.5 54.5q81 0 136.5 -54.5t55.5 -134.5q0 -76 -55.5 -132t-136.5 -56z" />
    <glyph glyph-name="uni1F88" unicode="&#x1f88;" horiz-adv-x="2038" 
d="M465 0h-396l721 2048h458l722 -2048h-396l-547 1628h-16zM478 803h1080v-298h-1080v298zM1154 -680q-107 0 -179 60.5t-72 197.5v294h238v-292q0 -48 17.5 -69t55.5 -21q19 0 35.5 2t25.5 2v-156q-23 -8 -52 -13t-69 -5zM568 2048v-125q0 -84 -29.5 -154.5t-83 -125.5
t-126.5 -91l-114 111q40 33 64.5 73t35 88.5t10.5 106.5v117h243z" />
    <glyph glyph-name="uni1F89" unicode="&#x1f89;" horiz-adv-x="2038" 
d="M465 0h-396l721 2048h458l722 -2048h-396l-547 1628h-16zM478 803h1080v-298h-1080v298zM1154 -680q-107 0 -179 60.5t-72 197.5v294h238v-292q0 -48 17.5 -69t55.5 -21q19 0 35.5 2t25.5 2v-156q-23 -8 -52 -13t-69 -5zM252 1923v125h244v-117q1 -54 11 -102.5t33.5 -90
t64.5 -75.5l-114 -111q-106 54 -172.5 149.5t-66.5 221.5z" />
    <glyph glyph-name="uni1F8A" unicode="&#x1f8a;" horiz-adv-x="2038" 
d="M465 0h-396l721 2048h458l722 -2048h-396l-547 1628h-16zM478 803h1080v-298h-1080v298zM1154 -680q-107 0 -179 60.5t-72 197.5v294h238v-292q0 -48 17.5 -69t55.5 -21q19 0 35.5 2t25.5 2v-156q-23 -8 -52 -13t-69 -5zM586 1604v-20h-131l-322 436v28h294zM69 2048
v-112q0 -80 -30.5 -151t-88.5 -130t-140 -103l-109 84q55 63 84.5 136.5t28.5 171.5v104h255z" />
    <glyph glyph-name="uni1F8B" unicode="&#x1f8b;" horiz-adv-x="2038" 
d="M465 0h-396l721 2048h458l722 -2048h-396l-547 1628h-16zM478 803h1080v-298h-1080v298zM1154 -680q-107 0 -179 60.5t-72 197.5v294h238v-292q0 -48 17.5 -69t55.5 -21q19 0 35.5 2t25.5 2v-156q-23 -8 -52 -13t-69 -5zM592 1610v-28h-131l-322 438v28h298zM-213 1923
v125h247v-117q-1 -81 22.5 -149t87.5 -119l-114 -111q-110 54 -176.5 149.5t-66.5 221.5z" />
    <glyph glyph-name="uni1F8C" unicode="&#x1f8c;" horiz-adv-x="2038" 
d="M465 0h-396l721 2048h458l722 -2048h-396l-547 1628h-16zM478 803h1080v-298h-1080v298zM172 1582v28l160 438h294v-28l-322 -438h-132zM138 2048v-125q0 -83 -30.5 -154t-85 -126t-126.5 -91l-115 111q62 51 86 119t25 149v117h246zM1154 -680q-107 0 -179 60.5
t-72 197.5v294h238v-292q0 -48 17.5 -69t55.5 -21q19 0 35.5 2t25.5 2v-156q-23 -8 -52 -13t-69 -5z" />
    <glyph glyph-name="uni1F8D" unicode="&#x1f8d;" horiz-adv-x="2038" 
d="M465 0h-396l721 2048h458l722 -2048h-396l-547 1628h-16zM478 803h1080v-298h-1080v298zM1154 -680q-107 0 -179 60.5t-72 197.5v294h238v-292q0 -48 17.5 -69t55.5 -21q19 0 35.5 2t25.5 2v-156q-23 -8 -52 -13t-69 -5zM161 1582v28l154 438h298v-28l-324 -438h-128z
M-262 1923v125h245v-117q0 -87 25 -152.5t84 -115.5l-115 -111q-104 53 -171 148t-68 223z" />
    <glyph glyph-name="uni1F8E" unicode="&#x1f8e;" horiz-adv-x="2038" 
d="M465 0h-396l721 2048h458l722 -2048h-396l-547 1628h-16zM478 803h1080v-298h-1080v298zM610 2383l155 -47q0 -99 -65 -173.5t-167 -74.5q-55 0 -96 14.5t-75 33t-69.5 33t-81.5 14.5q-42 0 -70 -35t-28 -85l-155 43q0 99 63.5 177t165.5 78q47 0 86.5 -14.5t77 -34
t76.5 -33.5t82 -14q41 0 71 34t30 84zM495 2018v-105q0 -95 -53 -176.5t-140 -128.5l-115 90q54 43 71.5 100t17.5 117v103h219zM1154 -680q-107 0 -179 60.5t-72 197.5v294h238v-292q0 -48 17.5 -69t55.5 -21q19 0 35.5 2t25.5 2v-156q-23 -8 -52 -13t-69 -5z" />
    <glyph glyph-name="uni1F8F" unicode="&#x1f8f;" horiz-adv-x="2038" 
d="M465 0h-396l721 2048h458l722 -2048h-396l-547 1628h-16zM478 803h1080v-298h-1080v298zM1154 -680q-107 0 -179 60.5t-72 197.5v294h238v-292q0 -48 17.5 -69t55.5 -21q19 0 35.5 2t25.5 2v-156q-23 -8 -52 -13t-69 -5zM241 1913v105h219v-103q0 -60 17.5 -117
t71.5 -100l-119 -90q-83 46 -136 127t-53 178zM580 2383l155 -47q0 -99 -65 -173.5t-167 -74.5q-55 0 -96 14.5t-75 33t-69.5 33t-81.5 14.5q-42 0 -70 -35t-28 -85l-155 43q0 99 63.5 177t165.5 78q47 0 86.5 -14.5t77 -34t76.5 -33.5t82 -14q41 0 71 34t30 84z" />
    <glyph glyph-name="uni1FBC" unicode="&#x1fbc;" horiz-adv-x="2038" 
d="M465 0h-396l721 2048h458l722 -2048h-396l-547 1628h-16zM478 803h1080v-298h-1080v298zM1154 -680q-107 0 -179 60.5t-72 197.5v294h238v-292q0 -48 17.5 -69t55.5 -21q19 0 35.5 2t25.5 2v-156q-23 -8 -52 -13t-69 -5z" />
    <glyph glyph-name="uni039B" unicode="&#x39b;" horiz-adv-x="2038" 
d="M465 0h-396l721 2048h458l722 -2048h-396l-547 1628h-16z" />
    <glyph glyph-name="uni00C6" unicode="&#xc6;" horiz-adv-x="2863" 
d="M69 0l915 2048h1702v-311h-961v-556h892v-311h-892v-559h969v-311h-1340v1690h-145l-732 -1690h-408zM527 505v298h1032v-298h-1032z" />
    <glyph glyph-name="uni01E2" unicode="&#x1e2;" horiz-adv-x="2863" 
d="M69 0l915 2048h1702v-311h-961v-556h892v-311h-892v-559h969v-311h-1340v1690h-145l-732 -1690h-408zM527 505v298h1032v-298h-1032zM2317 2560v-221h-962v221h962z" />
    <glyph glyph-name="uni01FC" unicode="&#x1fc;" horiz-adv-x="2863" 
d="M69 0l915 2048h1702v-311h-961v-556h892v-311h-892v-559h969v-311h-1340v1690h-145l-732 -1690h-408zM527 505v298h1032v-298h-1032zM1697 2250l224 457h354l-307 -457h-271z" />
    <glyph glyph-name="uni04D4" unicode="&#x4d4;" horiz-adv-x="2863" 
d="M69 0l915 2048h1702v-311h-961v-556h892v-311h-892v-559h969v-311h-1340v1690h-145l-732 -1690h-408zM527 505v298h1032v-298h-1032z" />
    <glyph glyph-name="uni0042" unicode="B" horiz-adv-x="1851" 
d="M202 0v2048h784q222 0 369.5 -69.5t221 -189.5t73.5 -272q0 -125 -48 -213.5t-129 -143.5t-181 -79v-20q109 -6 209.5 -66.5t164.5 -170.5t64 -266q0 -159 -77 -285.5t-232 -199.5t-390 -73h-829zM573 310h399q202 0 291.5 77.5t89.5 199.5q0 91 -45 164.5t-128 116
t-198 42.5h-409v-600zM573 1177h367q96 0 173 35.5t121.5 101t44.5 155.5q0 119 -83.5 196t-247.5 77h-375v-565z" />
    <glyph glyph-name="uni1E02" unicode="&#x1e02;" horiz-adv-x="1851" 
d="M202 0v2048h784q222 0 369.5 -69.5t221 -189.5t73.5 -272q0 -125 -48 -213.5t-129 -143.5t-181 -79v-20q109 -6 209.5 -66.5t164.5 -170.5t64 -266q0 -159 -77 -285.5t-232 -199.5t-390 -73h-829zM573 310h399q202 0 291.5 77.5t89.5 199.5q0 91 -45 164.5t-128 116
t-198 42.5h-409v-600zM573 1177h367q96 0 173 35.5t121.5 101t44.5 155.5q0 119 -83.5 196t-247.5 77h-375v-565zM892 2266q-87 0 -148.5 57.5t-61.5 138.5q0 82 62 139.5t148 57.5t147.5 -57.5t61.5 -139.5q0 -81 -61.5 -138.5t-147.5 -57.5z" />
    <glyph glyph-name="uni1E04" unicode="&#x1e04;" horiz-adv-x="1851" 
d="M202 0v2048h784q222 0 369.5 -69.5t221 -189.5t73.5 -272q0 -125 -48 -213.5t-129 -143.5t-181 -79v-20q109 -6 209.5 -66.5t164.5 -170.5t64 -266q0 -159 -77 -285.5t-232 -199.5t-390 -73h-829zM573 310h399q202 0 291.5 77.5t89.5 199.5q0 91 -45 164.5t-128 116
t-198 42.5h-409v-600zM573 1177h367q96 0 173 35.5t121.5 101t44.5 155.5q0 119 -83.5 196t-247.5 77h-375v-565zM898 -552q-87 0 -148.5 57.5t-61.5 138.5q0 82 62 139.5t148 57.5t147.5 -57.5t61.5 -139.5q0 -81 -61.5 -138.5t-147.5 -57.5z" />
    <glyph glyph-name="uni1E06" unicode="&#x1e06;" horiz-adv-x="1851" 
d="M202 0v2048h784q222 0 369.5 -69.5t221 -189.5t73.5 -272q0 -125 -48 -213.5t-129 -143.5t-181 -79v-20q109 -6 209.5 -66.5t164.5 -170.5t64 -266q0 -159 -77 -285.5t-232 -199.5t-390 -73h-829zM573 310h399q202 0 291.5 77.5t89.5 199.5q0 91 -45 164.5t-128 116
t-198 42.5h-409v-600zM573 1177h367q96 0 173 35.5t121.5 101t44.5 155.5q0 119 -83.5 196t-247.5 77h-375v-565zM1378 -254v-221h-962v221h962z" />
    <glyph glyph-name="uni0243" unicode="&#x243;" horiz-adv-x="2022" 
d="M372 0v2048h784q222 0 369.5 -69.5t221 -189.5t73.5 -272q0 -125 -48 -213.5t-129 -143.5t-181 -79v-20q109 -6 209.5 -66.5t164.5 -170.5t64 -266q0 -159 -77 -285.5t-232 -199.5t-390 -73h-829zM743 310h399q202 0 291.5 77.5t89.5 199.5q0 91 -45 164.5t-128 116
t-198 42.5h-409v-600zM743 1177h367q96 0 173 35.5t121.5 101t44.5 155.5q0 119 -83.5 196t-247.5 77h-375v-565zM71 495v229h958v-229h-958z" />
    <glyph glyph-name="uni0181" unicode="&#x181;" horiz-adv-x="2380" 
d="M904 1738h-263q-82 0 -124 -37t-56.5 -95t-14.5 -120v-105h-334v179q0 145 62.5 255t180.5 171.5t283 61.5h266v-310zM730 0v2048h785q222 0 369.5 -69.5t220.5 -189.5t73 -272q0 -125 -47.5 -213.5t-128.5 -143.5t-181 -79v-20q109 -6 209 -66.5t164 -170.5t64 -266
q0 -159 -77 -285.5t-232 -199.5t-389 -73h-830zM1102 310h399q202 0 291.5 77.5t89.5 199.5q0 91 -45 164.5t-128 116t-198 42.5h-409v-600zM1102 1177h367q96 0 173 35.5t121.5 101t44.5 155.5q0 119 -83.5 196t-247.5 77h-375v-565z" />
    <glyph glyph-name="uni0412" unicode="&#x412;" horiz-adv-x="1851" 
d="M202 0v2048h784q222 0 369.5 -69.5t221 -189.5t73.5 -272q0 -125 -48 -213.5t-129 -143.5t-181 -79v-20q109 -6 209.5 -66.5t164.5 -170.5t64 -266q0 -159 -77 -285.5t-232 -199.5t-390 -73h-829zM573 310h399q202 0 291.5 77.5t89.5 199.5q0 91 -45 164.5t-128 116
t-198 42.5h-409v-600zM573 1177h367q96 0 173 35.5t121.5 101t44.5 155.5q0 119 -83.5 196t-247.5 77h-375v-565z" />
    <glyph glyph-name="uni0392" unicode="&#x392;" horiz-adv-x="1851" 
d="M202 0v2048h784q222 0 369.5 -69.5t221 -189.5t73.5 -272q0 -125 -48 -213.5t-129 -143.5t-181 -79v-20q109 -6 209.5 -66.5t164.5 -170.5t64 -266q0 -159 -77 -285.5t-232 -199.5t-390 -73h-829zM573 310h399q202 0 291.5 77.5t89.5 199.5q0 91 -45 164.5t-128 116
t-198 42.5h-409v-600zM573 1177h367q96 0 173 35.5t121.5 101t44.5 155.5q0 119 -83.5 196t-247.5 77h-375v-565z" />
    <glyph glyph-name="uni0043" unicode="C" horiz-adv-x="2094" 
d="M1955 1357h-374q-16 92 -59 163.5t-107 121.5t-145.5 75.5t-175.5 25.5q-167 0 -296 -83.5t-202 -244t-73 -391.5q0 -235 73.5 -395.5t202 -242t294.5 -81.5q92 0 172.5 24.5t145 72.5t109 118t61.5 160l374 -2q-21 -146 -90.5 -274t-181.5 -225.5t-262 -152t-333 -54.5
q-270 0 -482 125t-334 361t-122 566q0 331 123 566.5t335 360.5t480 125q171 0 318 -48t262 -140.5t189.5 -226t97.5 -304.5z" />
    <glyph glyph-name="uni0187" unicode="&#x187;" horiz-adv-x="2297" 
d="M1955 1357h-356v237q0 163 74.5 275.5t197.5 170.5t269 58q47 0 91.5 -1.5t89.5 -10.5v-296q-21 2 -52 4.5t-55 2.5q-64 0 -123 -22t-97.5 -74.5t-38.5 -143.5v-200zM1955 1357h-374q-16 92 -59 163.5t-107 121.5t-145.5 75.5t-175.5 25.5q-167 0 -296 -83.5t-202 -244
t-73 -391.5q0 -235 73.5 -395.5t202 -242t294.5 -81.5q92 0 172.5 24.5t145 72.5t109 118t61.5 160l374 -2q-21 -146 -90.5 -274t-181.5 -225.5t-262 -152t-333 -54.5q-270 0 -482 125t-334 361t-122 566q0 331 123 566.5t335 360.5t480 125q171 0 318 -48t262 -140.5
t189.5 -226t97.5 -304.5z" />
    <glyph glyph-name="uni00C7" unicode="&#xc7;" horiz-adv-x="2094" 
d="M1955 1357h-374q-16 92 -59 163.5t-107 121.5t-145.5 75.5t-175.5 25.5q-167 0 -296 -83.5t-202 -244t-73 -391.5q0 -235 73.5 -395.5t202 -242t294.5 -81.5q92 0 172.5 24.5t145 72.5t109 118t61.5 160l374 -2q-21 -146 -90.5 -274t-181.5 -225.5t-262 -152t-333 -54.5
q-270 0 -482 125t-334 361t-122 566q0 331 123 566.5t335 360.5t480 125q171 0 318 -48t262 -140.5t189.5 -226t97.5 -304.5zM983 2h196l-16 -85q94 -14 159.5 -72.5t65.5 -168.5q1 -142 -127 -228t-365 -86l-4 178q115 0 183 30.5t69 96.5q2 64 -47.5 93.5t-156.5 40.5z
" />
    <glyph glyph-name="uni0106" unicode="&#x106;" horiz-adv-x="2094" 
d="M1955 1357h-374q-16 92 -59 163.5t-107 121.5t-145.5 75.5t-175.5 25.5q-167 0 -296 -83.5t-202 -244t-73 -391.5q0 -235 73.5 -395.5t202 -242t294.5 -81.5q92 0 172.5 24.5t145 72.5t109 118t61.5 160l374 -2q-21 -146 -90.5 -274t-181.5 -225.5t-262 -152t-333 -54.5
q-270 0 -482 125t-334 361t-122 566q0 331 123 566.5t335 360.5t480 125q171 0 318 -48t262 -140.5t189.5 -226t97.5 -304.5zM949 2250l224 457h354l-307 -457h-271z" />
    <glyph glyph-name="uni0108" unicode="&#x108;" horiz-adv-x="2094" 
d="M1955 1357h-374q-16 92 -59 163.5t-107 121.5t-145.5 75.5t-175.5 25.5q-167 0 -296 -83.5t-202 -244t-73 -391.5q0 -235 73.5 -395.5t202 -242t294.5 -81.5q92 0 172.5 24.5t145 72.5t109 118t61.5 160l374 -2q-21 -146 -90.5 -274t-181.5 -225.5t-262 -152t-333 -54.5
q-270 0 -482 125t-334 361t-122 566q0 331 123 566.5t335 360.5t480 125q171 0 318 -48t262 -140.5t189.5 -226t97.5 -304.5zM885 2231h-317v15l379 432h283l378 -432v-15h-317l-203 256z" />
    <glyph glyph-name="uni010A" unicode="&#x10a;" horiz-adv-x="2094" 
d="M1955 1357h-374q-16 92 -59 163.5t-107 121.5t-145.5 75.5t-175.5 25.5q-167 0 -296 -83.5t-202 -244t-73 -391.5q0 -235 73.5 -395.5t202 -242t294.5 -81.5q92 0 172.5 24.5t145 72.5t109 118t61.5 160l374 -2q-21 -146 -90.5 -274t-181.5 -225.5t-262 -152t-333 -54.5
q-270 0 -482 125t-334 361t-122 566q0 331 123 566.5t335 360.5t480 125q171 0 318 -48t262 -140.5t189.5 -226t97.5 -304.5zM1088 2266q-87 0 -148.5 57.5t-61.5 138.5q0 82 62 139.5t148 57.5t147.5 -57.5t61.5 -139.5q0 -81 -61.5 -138.5t-147.5 -57.5z" />
    <glyph glyph-name="uni010C" unicode="&#x10c;" horiz-adv-x="2094" 
d="M1955 1357h-374q-16 92 -59 163.5t-107 121.5t-145.5 75.5t-175.5 25.5q-167 0 -296 -83.5t-202 -244t-73 -391.5q0 -235 73.5 -395.5t202 -242t294.5 -81.5q92 0 172.5 24.5t145 72.5t109 118t61.5 160l374 -2q-21 -146 -90.5 -274t-181.5 -225.5t-262 -152t-333 -54.5
q-270 0 -482 125t-334 361t-122 566q0 331 123 566.5t335 360.5t480 125q171 0 318 -48t262 -140.5t189.5 -226t97.5 -304.5zM885 2678l203 -256l203 256h317v-14l-378 -432h-283l-379 432v14h317z" />
    <glyph glyph-name="uni1E08" unicode="&#x1e08;" horiz-adv-x="2094" 
d="M1955 1357h-374q-16 92 -59 163.5t-107 121.5t-145.5 75.5t-175.5 25.5q-167 0 -296 -83.5t-202 -244t-73 -391.5q0 -235 73.5 -395.5t202 -242t294.5 -81.5q92 0 172.5 24.5t145 72.5t109 118t61.5 160l374 -2q-21 -146 -90.5 -274t-181.5 -225.5t-262 -152t-333 -54.5
q-270 0 -482 125t-334 361t-122 566q0 331 123 566.5t335 360.5t480 125q171 0 318 -48t262 -140.5t189.5 -226t97.5 -304.5zM983 2h196l-16 -85q94 -14 159.5 -72.5t65.5 -168.5q1 -142 -127 -228t-365 -86l-4 178q115 0 183 30.5t69 96.5q2 64 -47.5 93.5t-156.5 40.5z
M949 2250l224 457h354l-307 -457h-271z" />
    <glyph glyph-name="uni023B" unicode="&#x23b;" horiz-adv-x="2094" 
d="M501 -260l857 2568h251l-858 -2568h-250zM1955 1357h-374q-16 92 -59 163.5t-107 121.5t-145.5 75.5t-175.5 25.5q-167 0 -296 -83.5t-202 -244t-73 -391.5q0 -235 73.5 -395.5t202 -242t294.5 -81.5q92 0 172.5 24.5t145 72.5t109 118t61.5 160l374 -2
q-21 -146 -90.5 -274t-181.5 -225.5t-262 -152t-333 -54.5q-270 0 -482 125t-334 361t-122 566q0 331 123 566.5t335 360.5t480 125q171 0 318 -48t262 -140.5t189.5 -226t97.5 -304.5z" />
    <glyph glyph-name="uni0186" unicode="&#x186;" horiz-adv-x="2094" 
d="M139 1357q24 171 98 304.5t189.5 226t263 140.5t316.5 48q268 0 480 -125t335 -360.5t123 -566.5q0 -330 -122 -566t-334 -361t-482 -125q-182 0 -332 54.5t-262.5 152t-181.5 225.5t-91 274l375 2q18 -90 61.5 -160t108 -118t145.5 -72.5t173 -24.5q166 0 294.5 81.5
t201.5 242t73 395.5q0 231 -73 391.5t-201.5 244t-296.5 83.5q-93 0 -174.5 -25.5t-146 -75.5t-107 -121.5t-58.5 -163.5h-375z" />
    <glyph glyph-name="uni03F9" unicode="&#x3f9;" horiz-adv-x="2094" 
d="M1955 1357h-374q-16 92 -59 163.5t-107 121.5t-145.5 75.5t-175.5 25.5q-167 0 -296 -83.5t-202 -244t-73 -391.5q0 -235 73.5 -395.5t202 -242t294.5 -81.5q92 0 172.5 24.5t145 72.5t109 118t61.5 160l374 -2q-21 -146 -90.5 -274t-181.5 -225.5t-262 -152t-333 -54.5
q-270 0 -482 125t-334 361t-122 566q0 331 123 566.5t335 360.5t480 125q171 0 318 -48t262 -140.5t189.5 -226t97.5 -304.5z" />
    <glyph glyph-name="uni0044" unicode="D" horiz-adv-x="2040" 
d="M896 0h-694v2048h708q305 0 524.5 -122.5t337.5 -351.5t118 -548q0 -320 -118.5 -550t-341 -353t-534.5 -123zM573 321h305q214 0 357 78.5t215 235t72 391.5t-72 390.5t-212.5 233t-348.5 77.5h-316v-1406z" />
    <glyph glyph-name="uni018A" unicode="&#x18a;" horiz-adv-x="2580" 
d="M112 1381v179q0 145 62.5 255t180.5 171.5t283 61.5h266v-321h-263q-82 0 -124 -34.5t-56.5 -89.5t-14.5 -117v-105h-334zM1436 0h-694v2048h708q305 0 524.5 -122.5t337.5 -351.5t118 -548q0 -320 -118.5 -550t-341 -353t-534.5 -123zM1113 321h305q214 0 357 78.5
t215 235t72 391.5t-72 390.5t-212.5 233t-348.5 77.5h-316v-1406z" />
    <glyph glyph-name="uni010E" unicode="&#x10e;" horiz-adv-x="2040" 
d="M896 0h-694v2048h708q305 0 524.5 -122.5t337.5 -351.5t118 -548q0 -320 -118.5 -550t-341 -353t-534.5 -123zM573 321h305q214 0 357 78.5t215 235t72 391.5t-72 390.5t-212.5 233t-348.5 77.5h-316v-1406zM632 2678l203 -256l203 256h317v-14l-378 -432h-283l-379 432
v14h317z" />
    <glyph glyph-name="uni1E0A" unicode="&#x1e0a;" horiz-adv-x="2040" 
d="M896 0h-694v2048h708q305 0 524.5 -122.5t337.5 -351.5t118 -548q0 -320 -118.5 -550t-341 -353t-534.5 -123zM573 321h305q214 0 357 78.5t215 235t72 391.5t-72 390.5t-212.5 233t-348.5 77.5h-316v-1406zM836 2266q-87 0 -148.5 57.5t-61.5 138.5q0 82 62 139.5
t148 57.5t147.5 -57.5t61.5 -139.5q0 -81 -61.5 -138.5t-147.5 -57.5z" />
    <glyph glyph-name="uni1E0C" unicode="&#x1e0c;" horiz-adv-x="2040" 
d="M896 0h-694v2048h708q305 0 524.5 -122.5t337.5 -351.5t118 -548q0 -320 -118.5 -550t-341 -353t-534.5 -123zM573 321h305q214 0 357 78.5t215 235t72 391.5t-72 390.5t-212.5 233t-348.5 77.5h-316v-1406zM885 -552q-87 0 -148.5 57.5t-61.5 138.5q0 82 62 139.5
t148 57.5t147.5 -57.5t61.5 -139.5q0 -81 -61.5 -138.5t-147.5 -57.5z" />
    <glyph glyph-name="uni1E0E" unicode="&#x1e0e;" horiz-adv-x="2040" 
d="M896 0h-694v2048h708q305 0 524.5 -122.5t337.5 -351.5t118 -548q0 -320 -118.5 -550t-341 -353t-534.5 -123zM573 321h305q214 0 357 78.5t215 235t72 391.5t-72 390.5t-212.5 233t-348.5 77.5h-316v-1406zM1366 -254v-221h-962v221h962z" />
    <glyph glyph-name="uni1E10" unicode="&#x1e10;" horiz-adv-x="2040" 
d="M896 0h-694v2048h708q305 0 524.5 -122.5t337.5 -351.5t118 -548q0 -320 -118.5 -550t-341 -353t-534.5 -123zM573 321h305q214 0 357 78.5t215 235t72 391.5t-72 390.5t-212.5 233t-348.5 77.5h-316v-1406zM595 -664l120 502h344l-203 -502h-261z" />
    <glyph glyph-name="uni1E12" unicode="&#x1e12;" horiz-adv-x="2040" 
d="M896 0h-694v2048h708q305 0 524.5 -122.5t337.5 -351.5t118 -548q0 -320 -118.5 -550t-341 -353t-534.5 -123zM573 321h305q214 0 357 78.5t215 235t72 391.5t-72 390.5t-212.5 233t-348.5 77.5h-316v-1406zM682 -575h-317v15l379 432h283l378 -432v-15h-317l-203 256z
" />
    <glyph glyph-name="uni0189" unicode="&#x189;" horiz-adv-x="2040" 
d="M896 0h-694v2048h708q305 0 524.5 -122.5t337.5 -351.5t118 -548q0 -320 -118.5 -550t-341 -353t-534.5 -123zM573 321h305q214 0 357 78.5t215 235t72 391.5t-72 390.5t-212.5 233t-348.5 77.5h-316v-1406zM-93 958v229h958v-229h-958z" />
    <glyph glyph-name="uni01F2" unicode="&#x1f2;" horiz-adv-x="3622" 
d="M896 0h-694v2048h708q305 0 524.5 -122.5t337.5 -351.5t118 -548q0 -320 -118.5 -550t-341 -353t-534.5 -123zM573 321h305q214 0 357 78.5t215 235t72 391.5t-72 390.5t-212.5 233t-348.5 77.5h-316v-1406zM2206 0v230l792 993v13h-766v300h1209v-247l-754 -976v-13h780
v-300h-1261z" />
    <glyph glyph-name="uni01C5" unicode="&#x1c5;" horiz-adv-x="3622" 
d="M896 0h-694v2048h708q305 0 524.5 -122.5t337.5 -351.5t118 -548q0 -320 -118.5 -550t-341 -353t-534.5 -123zM573 321h305q214 0 357 78.5t215 235t72 391.5t-72 390.5t-212.5 233t-348.5 77.5h-316v-1406zM2206 0v230l792 993v13h-766v300h1209v-247l-754 -976v-13h780
v-300h-1261zM2626 2166l203 -256l203 256h317v-14l-378 -432h-283l-379 432v14h317z" />
    <glyph glyph-name="uni0045" unicode="E" horiz-adv-x="1711" 
d="M202 0v2048h1332v-311h-961v-556h892v-311h-892v-559h969v-311h-1340z" />
    <glyph glyph-name="uni00C8" unicode="&#xc8;" horiz-adv-x="1711" 
d="M202 0v2048h1332v-311h-961v-556h892v-311h-892v-559h969v-311h-1340zM736 2250l-307 457h355l223 -457h-271z" />
    <glyph glyph-name="uni00C9" unicode="&#xc9;" horiz-adv-x="1711" 
d="M202 0v2048h1332v-311h-961v-556h892v-311h-892v-559h969v-311h-1340zM730 2250l224 457h354l-307 -457h-271z" />
    <glyph glyph-name="uni00CA" unicode="&#xca;" horiz-adv-x="1711" 
d="M202 0v2048h1332v-311h-961v-556h892v-311h-892v-559h969v-311h-1340zM666 2231h-317v15l379 432h283l378 -432v-15h-317l-203 256z" />
    <glyph glyph-name="uni00CB" unicode="&#xcb;" horiz-adv-x="1711" 
d="M202 0v2048h1332v-311h-961v-556h892v-311h-892v-559h969v-311h-1340zM570 2274q-79 0 -136.5 56t-57.5 132q0 80 57.5 134.5t136.5 54.5q81 0 136.5 -54.5t55.5 -134.5q0 -76 -55.5 -132t-136.5 -56zM1170 2274q-79 0 -136.5 56t-57.5 132q0 80 57.5 134.5t136.5 54.5
q81 0 136.5 -54.5t55.5 -134.5q0 -76 -55.5 -132t-136.5 -56z" />
    <glyph glyph-name="uni0112" unicode="&#x112;" horiz-adv-x="1711" 
d="M202 0v2048h1332v-311h-961v-556h892v-311h-892v-559h969v-311h-1340zM1350 2560v-221h-962v221h962z" />
    <glyph glyph-name="uni0114" unicode="&#x114;" horiz-adv-x="1711" 
d="M202 0v2048h1332v-311h-961v-556h892v-311h-892v-559h969v-311h-1340zM1067 2576h271q0 -175 -126.5 -283.5t-342.5 -108.5q-214 0 -340.5 108.5t-125.5 283.5h269q0 -72 44.5 -128.5t152.5 -56.5q106 0 151.5 56t46.5 129z" />
    <glyph glyph-name="uni0116" unicode="&#x116;" horiz-adv-x="1711" 
d="M202 0v2048h1332v-311h-961v-556h892v-311h-892v-559h969v-311h-1340zM869 2266q-87 0 -148.5 57.5t-61.5 138.5q0 82 62 139.5t148 57.5t147.5 -57.5t61.5 -139.5q0 -81 -61.5 -138.5t-147.5 -57.5z" />
    <glyph glyph-name="uni0118" unicode="&#x118;" horiz-adv-x="1711" 
d="M202 0v2048h1332v-311h-961v-556h892v-311h-892v-559h969v-311h-1340zM1348 -582q-129 0 -215.5 68t-101.5 196q-11 78 13 158t86 149t164 116l247 -105q-93 -52 -156 -110t-63 -136q0 -48 23.5 -74t75.5 -26q38 0 66.5 10t48.5 18l36 -204q-36 -21 -92 -40.5t-132 -19.5
z" />
    <glyph glyph-name="uni011A" unicode="&#x11a;" horiz-adv-x="1711" 
d="M202 0v2048h1332v-311h-961v-556h892v-311h-892v-559h969v-311h-1340zM666 2678l203 -256l203 256h317v-14l-378 -432h-283l-379 432v14h317z" />
    <glyph glyph-name="uni0204" unicode="&#x204;" horiz-adv-x="1711" 
d="M202 0v2048h1332v-311h-961v-556h892v-311h-892v-559h969v-311h-1340zM655 2250l-344 278l57 179l335 -278zM1122 2250l-288 278l103 179l268 -278z" />
    <glyph glyph-name="uni0206" unicode="&#x206;" horiz-adv-x="1711" 
d="M202 0v2048h1332v-311h-961v-556h892v-311h-892v-559h969v-311h-1340zM398 2297q0 175 126 288t343 113q215 0 341 -113t127 -288h-271q-1 74 -46.5 130t-150.5 56q-109 0 -153.5 -57t-44.5 -129h-271z" />
    <glyph glyph-name="uni0228" unicode="&#x228;" horiz-adv-x="1711" 
d="M202 0v2048h1332v-311h-961v-556h892v-311h-892v-559h969v-311h-1340zM760 8h196l-16 -85q94 -14 159.5 -72.5t65.5 -168.5q1 -142 -127 -228t-365 -86l-4 178q115 0 183 30.5t69 96.5q2 64 -47.5 93.5t-156.5 40.5z" />
    <glyph glyph-name="uni1E14" unicode="&#x1e14;" horiz-adv-x="1711" 
d="M202 0v2048h1332v-311h-961v-556h892v-311h-892v-559h969v-311h-1340zM741 2669l-343 337h351l287 -337h-295zM1350 2510v-220h-962v220h962z" />
    <glyph glyph-name="uni1E16" unicode="&#x1e16;" horiz-adv-x="1711" 
d="M202 0v2048h1332v-311h-961v-556h892v-311h-892v-559h969v-311h-1340zM703 2669l287 337h351l-342 -337h-296zM1350 2510v-220h-962v220h962z" />
    <glyph glyph-name="uni1E18" unicode="&#x1e18;" horiz-adv-x="1711" 
d="M202 0v2048h1332v-311h-961v-556h892v-311h-892v-559h969v-311h-1340zM654 -575h-317v15l379 432h283l378 -432v-15h-317l-203 256z" />
    <glyph glyph-name="uni1E1A" unicode="&#x1e1a;" horiz-adv-x="1711" 
d="M202 0v2048h1332v-311h-961v-556h892v-311h-892v-559h969v-311h-1340zM625 -535l-219 5q0 178 92 279t227 101q65 0 113 -21.5t88.5 -49.5t79.5 -49.5t86 -21.5q57 0 90.5 43t34.5 110l215 -9q-1 -179 -93 -277.5t-226 -99.5q-72 -1 -121 21t-85.5 50t-73.5 49.5
t-87 21.5q-53 0 -87 -42t-34 -110z" />
    <glyph glyph-name="uni1E1C" unicode="&#x1e1c;" horiz-adv-x="1711" 
d="M202 0v2048h1332v-311h-961v-556h892v-311h-892v-559h969v-311h-1340zM760 8h196l-16 -85q94 -14 159.5 -72.5t65.5 -168.5q1 -142 -127 -228t-365 -86l-4 178q115 0 183 30.5t69 96.5q2 64 -47.5 93.5t-156.5 40.5zM1067 2576h271q0 -175 -126.5 -283.5t-342.5 -108.5
q-214 0 -340.5 108.5t-125.5 283.5h269q0 -72 44.5 -128.5t152.5 -56.5q106 0 151.5 56t46.5 129z" />
    <glyph glyph-name="uni1EB8" unicode="&#x1eb8;" horiz-adv-x="1711" 
d="M202 0v2048h1332v-311h-961v-556h892v-311h-892v-559h969v-311h-1340zM857 -552q-87 0 -148.5 57.5t-61.5 138.5q0 82 62 139.5t148 57.5t147.5 -57.5t61.5 -139.5q0 -81 -61.5 -138.5t-147.5 -57.5z" />
    <glyph glyph-name="uni1EBA" unicode="&#x1eba;" horiz-adv-x="1711" 
d="M202 0v2048h1332v-311h-961v-556h892v-311h-892v-559h969v-311h-1340zM1008 2264h-276l-14 192q106 4 150 27.5t43 65.5q1 54 -58 75t-146 21l9 179q248 0 376 -72t127 -196q1 -95 -65 -141.5t-146 -58.5v-92z" />
    <glyph glyph-name="uni1EBC" unicode="&#x1ebc;" horiz-adv-x="1711" 
d="M202 0v2048h1332v-311h-961v-556h892v-311h-892v-559h969v-311h-1340zM575 2235l-219 5q0 178 92 279t227 101q65 0 113 -21.5t88.5 -49.5t79.5 -49.5t86 -21.5q57 0 90.5 43t34.5 110l215 -9q-1 -179 -93 -277.5t-226 -99.5q-72 -1 -121 21t-85.5 50t-73.5 49.5
t-87 21.5q-53 0 -87 -42t-34 -110z" />
    <glyph glyph-name="uni1EBE" unicode="&#x1ebe;" horiz-adv-x="1711" 
d="M202 0v2048h1332v-311h-961v-556h892v-311h-892v-559h969v-311h-1340zM349 2224l405 329h226l407 -329h-301l-217 184l-218 -184h-302zM1280 2424l222 369h318l-309 -369h-231z" />
    <glyph glyph-name="uni1EC0" unicode="&#x1ec0;" horiz-adv-x="1711" 
d="M202 0v2048h1332v-311h-961v-556h892v-311h-892v-559h969v-311h-1340zM980 2547l406 -329h-301l-216 184l-219 -184h-299l402 329h227zM234 2788l221 -370h-226l-312 370h317z" />
    <glyph glyph-name="uni1EC2" unicode="&#x1ec2;" horiz-adv-x="1711" 
d="M202 0v2048h1332v-311h-961v-556h892v-311h-892v-559h969v-311h-1340zM994 2536l390 -329h-279l-238 201l-239 -201h-279l390 329h255zM1457 2388h-203l-13 162q85 5 124.5 22.5t39.5 54.5q0 47 -50 64.5t-127 17.5l10 151q196 0 297.5 -60t101.5 -165q0 -81 -56 -121
t-124 -50v-76z" />
    <glyph glyph-name="uni1EC4" unicode="&#x1ec4;" horiz-adv-x="1711" 
d="M202 0v2048h1332v-311h-961v-556h892v-311h-892v-559h969v-311h-1340zM975 2512l409 -317h-278l-239 184l-236 -184h-282l410 317h216zM1095 2856l136 -45q0 -81 -56 -148.5t-146 -67.5q-49 0 -86.5 14t-69.5 32t-64.5 32t-71.5 14q-36 0 -62 -30t-25 -67l-132 36
q-1 78 54 146.5t146 68.5q39 0 76 -13t72 -30.5t70.5 -30.5t73.5 -13q34 0 59.5 32.5t25.5 69.5z" />
    <glyph glyph-name="uni1EC6" unicode="&#x1ec6;" horiz-adv-x="1711" 
d="M202 0v2048h1332v-311h-961v-556h892v-311h-892v-559h969v-311h-1340zM666 2231h-317v15l379 432h283l378 -432v-15h-317l-203 256zM857 -552q-87 0 -148.5 57.5t-61.5 138.5q0 82 62 139.5t148 57.5t147.5 -57.5t61.5 -139.5q0 -81 -61.5 -138.5t-147.5 -57.5z" />
    <glyph glyph-name="uni0246" unicode="&#x246;" horiz-adv-x="1711" 
d="M1412 2308l-740 -2568h-228l740 2568h228zM202 0v2048h1332v-311h-961v-556h892v-311h-892v-559h969v-311h-1340z" />
    <glyph glyph-name="uni018E" unicode="&#x18e;" horiz-adv-x="1706" 
d="M1482 2048v-2048h-1332v311h961v556h-892v311h892v559h-969v311h1340z" />
    <glyph glyph-name="uni0395" unicode="&#x395;" horiz-adv-x="1711" 
d="M202 0v2048h1332v-311h-961v-556h892v-311h-892v-559h969v-311h-1340z" />
    <glyph glyph-name="uni0388" unicode="&#x388;" horiz-adv-x="2122" 
d="M612 0v2048h1332v-311h-961v-556h892v-311h-892v-559h969v-311h-1340zM123 1716l93 473h339l-211 -473h-221z" />
    <glyph glyph-name="uni1F18" unicode="&#x1f18;" horiz-adv-x="2102" 
d="M593 0v2048h1332v-311h-961v-556h892v-311h-892v-559h969v-311h-1340zM439 2048v-125q0 -84 -29.5 -154.5t-83 -125.5t-126.5 -91l-114 111q40 33 64.5 73t35 88.5t10.5 106.5v117h243z" />
    <glyph glyph-name="uni1F19" unicode="&#x1f19;" horiz-adv-x="2098" 
d="M589 0v2048h1332v-311h-961v-556h892v-311h-892v-559h969v-311h-1340zM119 1923v125h244v-117q1 -54 11 -102.5t33.5 -90t64.5 -75.5l-114 -111q-106 54 -172.5 149.5t-66.5 221.5z" />
    <glyph glyph-name="uni1F1A" unicode="&#x1f1a;" horiz-adv-x="2648" 
d="M1139 0v2048h1332v-311h-961v-556h892v-311h-892v-559h969v-311h-1340zM1003 1604v-20h-131l-322 436v28h294zM486 2048v-112q0 -80 -30.5 -151t-88.5 -130t-140 -103l-109 84q55 63 84.5 136.5t28.5 171.5v104h255z" />
    <glyph glyph-name="uni1F1B" unicode="&#x1f1b;" horiz-adv-x="2558" 
d="M1049 0v2048h1332v-311h-961v-556h892v-311h-892v-559h969v-311h-1340zM919 1610v-28h-131l-322 438v28h298zM114 1923v125h247v-117q-1 -81 22.5 -149t87.5 -119l-114 -111q-110 54 -176.5 149.5t-66.5 221.5z" />
    <glyph glyph-name="uni1F1C" unicode="&#x1f1c;" horiz-adv-x="2570" 
d="M1061 0v2048h1332v-311h-961v-556h892v-311h-892v-559h969v-311h-1340zM511 1582v28l160 438h294v-28l-322 -438h-132zM477 2048v-125q0 -83 -30.5 -154t-85 -126t-126.5 -91l-115 111q62 51 86 119t25 149v117h246z" />
    <glyph glyph-name="uni1F1D" unicode="&#x1f1d;" horiz-adv-x="2612" 
d="M1103 0v2048h1332v-311h-961v-556h892v-311h-892v-559h969v-311h-1340zM542 1582v28l154 438h298v-28l-324 -438h-128zM119 1923v125h245v-117q0 -87 25 -152.5t84 -115.5l-115 -111q-104 53 -171 148t-68 223z" />
    <glyph glyph-name="uni1FC8" unicode="&#x1fc8;" horiz-adv-x="2220" 
d="M711 0v2048h1332v-311h-961v-556h892v-311h-892v-559h969v-311h-1340zM568 1580h-128l-322 440v28h294l156 -434v-34z" />
    <glyph glyph-name="uni1FC9" unicode="&#x1fc9;" horiz-adv-x="2172" 
d="M663 0v2048h1332v-311h-961v-556h892v-311h-892v-559h969v-311h-1340zM180 1728v34l156 434h351v-28l-323 -440h-184z" />
    <glyph glyph-name="uni0415" unicode="&#x415;" horiz-adv-x="1711" 
d="M202 0v2048h1332v-311h-961v-556h892v-311h-892v-559h969v-311h-1340z" />
    <glyph glyph-name="uni0400" unicode="&#x400;" horiz-adv-x="1711" 
d="M202 0v2048h1332v-311h-961v-556h892v-311h-892v-559h969v-311h-1340zM736 2250l-307 457h355l223 -457h-271z" />
    <glyph glyph-name="uni0401" unicode="&#x401;" horiz-adv-x="1711" 
d="M202 0v2048h1332v-311h-961v-556h892v-311h-892v-559h969v-311h-1340zM570 2274q-79 0 -136.5 56t-57.5 132q0 80 57.5 134.5t136.5 54.5q81 0 136.5 -54.5t55.5 -134.5q0 -76 -55.5 -132t-136.5 -56zM1170 2274q-79 0 -136.5 56t-57.5 132q0 80 57.5 134.5t136.5 54.5
q81 0 136.5 -54.5t55.5 -134.5q0 -76 -55.5 -132t-136.5 -56z" />
    <glyph glyph-name="uni04D6" unicode="&#x4d6;" horiz-adv-x="1711" 
d="M202 0v2048h1332v-311h-961v-556h892v-311h-892v-559h969v-311h-1340zM1067 2576h271q0 -175 -126.5 -283.5t-342.5 -108.5q-214 0 -340.5 108.5t-125.5 283.5h269q0 -72 44.5 -128.5t152.5 -56.5q106 0 151.5 56t46.5 129z" />
    <glyph glyph-name="uni0046" unicode="F" horiz-adv-x="1649" 
d="M202 0v2048h1312v-311h-941v-556h851v-311h-851v-870h-371z" />
    <glyph glyph-name="uni0191" unicode="&#x191;" horiz-adv-x="1690" 
d="M243 0h371v-118q0 -131 -39.5 -219.5t-110.5 -141t-167.5 -75t-209.5 -22.5q-23 0 -60 1.5t-81 8.5v286q18 -3 40.5 -4t41.5 -1q88 0 151.5 35t63.5 135v115zM243 0v2048h1313v-311h-942v-556h852v-311h-852v-870h-371z" />
    <glyph glyph-name="uni1E1E" unicode="&#x1e1e;" horiz-adv-x="1649" 
d="M202 0v2048h1312v-311h-941v-556h851v-311h-851v-870h-371zM876 2266q-87 0 -148.5 57.5t-61.5 138.5q0 82 62 139.5t148 57.5t147.5 -57.5t61.5 -139.5q0 -81 -61.5 -138.5t-147.5 -57.5z" />
    <glyph glyph-name="uni2132" unicode="&#x2132;" horiz-adv-x="1649" 
d="M1447 2048v-2048h-1313v311h942v556h-851v311h851v870h371z" />
    <glyph glyph-name="uni0047" unicode="G" horiz-adv-x="2126" 
d="M1574 1394q-25 81 -68.5 145.5t-104 110.5t-138.5 69.5t-170 23.5q-165 0 -294 -83t-202.5 -243.5t-73.5 -390.5q0 -232 73 -393t203 -244.5t302 -83.5q156 0 270.5 60t176.5 170.5t62 259.5l84 -13h-556v290h831v-246q0 -263 -112 -455t-308 -295.5t-450 -103.5
q-283 0 -496.5 127.5t-333 363t-119.5 559.5q0 248 70.5 443t197.5 331.5t298 208t372 71.5q170 0 317 -49.5t261.5 -140.5t188.5 -216t97 -276h-378z" />
    <glyph glyph-name="uni01E4" unicode="&#x1e4;" horiz-adv-x="2126" 
d="M2078 650v-170h-940v170h940zM1574 1394q-25 81 -68.5 145.5t-104 110.5t-138.5 69.5t-170 23.5q-165 0 -294 -83t-202.5 -243.5t-73.5 -390.5q0 -232 73 -393t203 -244.5t302 -83.5q156 0 270.5 60t176.5 170.5t62 259.5l84 -13h-556v290h831v-246q0 -263 -112 -455
t-308 -295.5t-450 -103.5q-283 0 -496.5 127.5t-333 363t-119.5 559.5q0 248 70.5 443t197.5 331.5t298 208t372 71.5q170 0 317 -49.5t261.5 -140.5t188.5 -216t97 -276h-378z" />
    <glyph glyph-name="uni0193" unicode="&#x193;" horiz-adv-x="2291" 
d="M1950 1394h-379l6 280q3 122 45.5 216t116.5 159t173 98t214 33q46 0 91 -4.5t89 -15.5v-293q-25 3 -51.5 6.5t-53.5 3.5q-68 0 -125 -16.5t-91.5 -60.5t-34.5 -126v-280zM1574 1394q-25 81 -68.5 145.5t-104 110.5t-138.5 69.5t-170 23.5q-165 0 -294 -83t-202.5 -243.5
t-73.5 -390.5q0 -232 73 -393t203 -244.5t302 -83.5q156 0 270.5 60t176.5 170.5t62 259.5l84 -13h-556v290h831v-246q0 -263 -112 -455t-308 -295.5t-450 -103.5q-283 0 -496.5 127.5t-333 363t-119.5 559.5q0 248 70.5 443t197.5 331.5t298 208t372 71.5q170 0 317 -49.5
t261.5 -140.5t188.5 -216t97 -276h-378z" />
    <glyph glyph-name="uni011C" unicode="&#x11c;" horiz-adv-x="2126" 
d="M1574 1394q-25 81 -68.5 145.5t-104 110.5t-138.5 69.5t-170 23.5q-165 0 -294 -83t-202.5 -243.5t-73.5 -390.5q0 -232 73 -393t203 -244.5t302 -83.5q156 0 270.5 60t176.5 170.5t62 259.5l84 -13h-556v290h831v-246q0 -263 -112 -455t-308 -295.5t-450 -103.5
q-283 0 -496.5 127.5t-333 363t-119.5 559.5q0 248 70.5 443t197.5 331.5t298 208t372 71.5q170 0 317 -49.5t261.5 -140.5t188.5 -216t97 -276h-378zM878 2231h-317v15l379 432h283l378 -432v-15h-317l-203 256z" />
    <glyph glyph-name="uni011E" unicode="&#x11e;" horiz-adv-x="2126" 
d="M1574 1394q-25 81 -68.5 145.5t-104 110.5t-138.5 69.5t-170 23.5q-165 0 -294 -83t-202.5 -243.5t-73.5 -390.5q0 -232 73 -393t203 -244.5t302 -83.5q156 0 270.5 60t176.5 170.5t62 259.5l84 -13h-556v290h831v-246q0 -263 -112 -455t-308 -295.5t-450 -103.5
q-283 0 -496.5 127.5t-333 363t-119.5 559.5q0 248 70.5 443t197.5 331.5t298 208t372 71.5q170 0 317 -49.5t261.5 -140.5t188.5 -216t97 -276h-378zM1279 2576h271q0 -175 -126.5 -283.5t-342.5 -108.5q-214 0 -340.5 108.5t-125.5 283.5h269q0 -72 44.5 -128.5
t152.5 -56.5q106 0 151.5 56t46.5 129z" />
    <glyph glyph-name="uni0120" unicode="&#x120;" horiz-adv-x="2126" 
d="M1574 1394q-25 81 -68.5 145.5t-104 110.5t-138.5 69.5t-170 23.5q-165 0 -294 -83t-202.5 -243.5t-73.5 -390.5q0 -232 73 -393t203 -244.5t302 -83.5q156 0 270.5 60t176.5 170.5t62 259.5l84 -13h-556v290h831v-246q0 -263 -112 -455t-308 -295.5t-450 -103.5
q-283 0 -496.5 127.5t-333 363t-119.5 559.5q0 248 70.5 443t197.5 331.5t298 208t372 71.5q170 0 317 -49.5t261.5 -140.5t188.5 -216t97 -276h-378zM1082 2266q-87 0 -148.5 57.5t-61.5 138.5q0 82 62 139.5t148 57.5t147.5 -57.5t61.5 -139.5q0 -81 -61.5 -138.5
t-147.5 -57.5z" />
    <glyph glyph-name="uni0122" unicode="&#x122;" horiz-adv-x="2126" 
d="M1574 1394q-25 81 -68.5 145.5t-104 110.5t-138.5 69.5t-170 23.5q-165 0 -294 -83t-202.5 -243.5t-73.5 -390.5q0 -232 73 -393t203 -244.5t302 -83.5q156 0 270.5 60t176.5 170.5t62 259.5l84 -13h-556v290h831v-246q0 -263 -112 -455t-308 -295.5t-450 -103.5
q-283 0 -496.5 127.5t-333 363t-119.5 559.5q0 248 70.5 443t197.5 331.5t298 208t372 71.5q170 0 317 -49.5t261.5 -140.5t188.5 -216t97 -276h-378zM788 -661l120 502h344l-203 -502h-261z" />
    <glyph glyph-name="uni01E6" unicode="&#x1e6;" horiz-adv-x="2126" 
d="M1574 1394q-25 81 -68.5 145.5t-104 110.5t-138.5 69.5t-170 23.5q-165 0 -294 -83t-202.5 -243.5t-73.5 -390.5q0 -232 73 -393t203 -244.5t302 -83.5q156 0 270.5 60t176.5 170.5t62 259.5l84 -13h-556v290h831v-246q0 -263 -112 -455t-308 -295.5t-450 -103.5
q-283 0 -496.5 127.5t-333 363t-119.5 559.5q0 248 70.5 443t197.5 331.5t298 208t372 71.5q170 0 317 -49.5t261.5 -140.5t188.5 -216t97 -276h-378zM878 2678l203 -256l203 256h317v-14l-378 -432h-283l-379 432v14h317z" />
    <glyph glyph-name="uni01F4" unicode="&#x1f4;" horiz-adv-x="2126" 
d="M1574 1394q-25 81 -68.5 145.5t-104 110.5t-138.5 69.5t-170 23.5q-165 0 -294 -83t-202.5 -243.5t-73.5 -390.5q0 -232 73 -393t203 -244.5t302 -83.5q156 0 270.5 60t176.5 170.5t62 259.5l84 -13h-556v290h831v-246q0 -263 -112 -455t-308 -295.5t-450 -103.5
q-283 0 -496.5 127.5t-333 363t-119.5 559.5q0 248 70.5 443t197.5 331.5t298 208t372 71.5q170 0 317 -49.5t261.5 -140.5t188.5 -216t97 -276h-378zM943 2250l224 457h354l-307 -457h-271z" />
    <glyph glyph-name="uni1E20" unicode="&#x1e20;" horiz-adv-x="2126" 
d="M1574 1394q-25 81 -68.5 145.5t-104 110.5t-138.5 69.5t-170 23.5q-165 0 -294 -83t-202.5 -243.5t-73.5 -390.5q0 -232 73 -393t203 -244.5t302 -83.5q156 0 270.5 60t176.5 170.5t62 259.5l84 -13h-556v290h831v-246q0 -263 -112 -455t-308 -295.5t-450 -103.5
q-283 0 -496.5 127.5t-333 363t-119.5 559.5q0 248 70.5 443t197.5 331.5t298 208t372 71.5q170 0 317 -49.5t261.5 -140.5t188.5 -216t97 -276h-378zM1563 2560v-221h-962v221h962z" />
    <glyph glyph-name="uniE002" unicode="&#xe002;" horiz-adv-x="2144" 
d="M1099 -28q-282 0 -495.5 127.5t-333.5 363t-120 559.5q0 248 72 443t201 331.5t301 208t373 71.5q170 0 318.5 -49.5t265.5 -140.5t192.5 -216t98.5 -276h-378q-23 81 -68 146t-109 110.5t-143.5 69t-171.5 23.5q-166 0 -297 -83t-206.5 -243.5t-75.5 -390.5
q0 -232 73.5 -393t203.5 -244.5t301 -83.5q160 0 277 63t180.5 175t63.5 258l66 -19h-550v290h849v-1072h-266l-27 240h-11q-108 -129 -249 -198.5t-335 -69.5z" />
    <glyph glyph-name="uniE003" unicode="&#xe003;" horiz-adv-x="2146" 
d="M2098 650v-170h-960v170h960zM1099 -28q-282 0 -495.5 127.5t-333.5 363t-120 559.5q0 248 72 443t201 331.5t301 208t373 71.5q170 0 318.5 -49.5t265.5 -140.5t192.5 -216t98.5 -276h-378q-23 81 -68 146t-109 110.5t-143.5 69t-171.5 23.5q-166 0 -297 -83
t-206.5 -243.5t-75.5 -390.5q0 -232 73.5 -393t203.5 -244.5t301 -83.5q160 0 277 63t180.5 175t63.5 258l66 -19h-550v290h849v-1072h-266l-27 240h-11q-108 -129 -249 -198.5t-335 -69.5z" />
    <glyph glyph-name="uniE004" unicode="&#xe004;" horiz-adv-x="2291" 
d="M1972 1394h-378l5 280q3 122 45.5 216t116.5 159t173 98t215 33q45 0 90 -4.5t89 -15.5v-293q-25 3 -51.5 6.5t-53.5 3.5q-68 0 -125 -16.5t-91.5 -60.5t-34.5 -126v-280zM1099 -28q-282 0 -495.5 127.5t-333.5 363t-120 559.5q0 248 72 443t201 331.5t301 208t373 71.5
q170 0 318.5 -49.5t265.5 -140.5t192.5 -216t98.5 -276h-378q-23 81 -68 146t-109 110.5t-143.5 69t-171.5 23.5q-166 0 -297 -83t-206.5 -243.5t-75.5 -390.5q0 -232 73.5 -393t203.5 -244.5t301 -83.5q160 0 277 63t180.5 175t63.5 258l66 -19h-550v290h849v-1072h-266
l-27 240h-11q-108 -129 -249 -198.5t-335 -69.5z" />
    <glyph glyph-name="uniE005" unicode="&#xe005;" horiz-adv-x="2144" 
d="M1099 -28q-282 0 -495.5 127.5t-333.5 363t-120 559.5q0 248 72 443t201 331.5t301 208t373 71.5q170 0 318.5 -49.5t265.5 -140.5t192.5 -216t98.5 -276h-378q-23 81 -68 146t-109 110.5t-143.5 69t-171.5 23.5q-166 0 -297 -83t-206.5 -243.5t-75.5 -390.5
q0 -232 73.5 -393t203.5 -244.5t301 -83.5q160 0 277 63t180.5 175t63.5 258l66 -19h-550v290h849v-1072h-266l-27 240h-11q-108 -129 -249 -198.5t-335 -69.5zM878 2231h-317v15l379 432h283l378 -432v-15h-317l-203 256z" />
    <glyph glyph-name="uniE006" unicode="&#xe006;" horiz-adv-x="2144" 
d="M1099 -28q-282 0 -495.5 127.5t-333.5 363t-120 559.5q0 248 72 443t201 331.5t301 208t373 71.5q170 0 318.5 -49.5t265.5 -140.5t192.5 -216t98.5 -276h-378q-23 81 -68 146t-109 110.5t-143.5 69t-171.5 23.5q-166 0 -297 -83t-206.5 -243.5t-75.5 -390.5
q0 -232 73.5 -393t203.5 -244.5t301 -83.5q160 0 277 63t180.5 175t63.5 258l66 -19h-550v290h849v-1072h-266l-27 240h-11q-108 -129 -249 -198.5t-335 -69.5zM1279 2576h271q0 -175 -126.5 -283.5t-342.5 -108.5q-214 0 -340.5 108.5t-125.5 283.5h269q0 -72 44.5 -128.5
t152.5 -56.5q106 0 151.5 56t46.5 129z" />
    <glyph glyph-name="uniE007" unicode="&#xe007;" horiz-adv-x="2144" 
d="M1099 -28q-282 0 -495.5 127.5t-333.5 363t-120 559.5q0 248 72 443t201 331.5t301 208t373 71.5q170 0 318.5 -49.5t265.5 -140.5t192.5 -216t98.5 -276h-378q-23 81 -68 146t-109 110.5t-143.5 69t-171.5 23.5q-166 0 -297 -83t-206.5 -243.5t-75.5 -390.5
q0 -232 73.5 -393t203.5 -244.5t301 -83.5q160 0 277 63t180.5 175t63.5 258l66 -19h-550v290h849v-1072h-266l-27 240h-11q-108 -129 -249 -198.5t-335 -69.5zM1082 2266q-87 0 -148.5 57.5t-61.5 138.5q0 82 62 139.5t148 57.5t147.5 -57.5t61.5 -139.5
q0 -81 -61.5 -138.5t-147.5 -57.5z" />
    <glyph glyph-name="uniE008" unicode="&#xe008;" horiz-adv-x="2144" 
d="M1099 -28q-282 0 -495.5 127.5t-333.5 363t-120 559.5q0 248 72 443t201 331.5t301 208t373 71.5q170 0 318.5 -49.5t265.5 -140.5t192.5 -216t98.5 -276h-378q-23 81 -68 146t-109 110.5t-143.5 69t-171.5 23.5q-166 0 -297 -83t-206.5 -243.5t-75.5 -390.5
q0 -232 73.5 -393t203.5 -244.5t301 -83.5q160 0 277 63t180.5 175t63.5 258l66 -19h-550v290h849v-1072h-266l-27 240h-11q-108 -129 -249 -198.5t-335 -69.5zM788 -661l120 502h344l-203 -502h-261z" />
    <glyph glyph-name="uniE009" unicode="&#xe009;" horiz-adv-x="2144" 
d="M1099 -28q-282 0 -495.5 127.5t-333.5 363t-120 559.5q0 248 72 443t201 331.5t301 208t373 71.5q170 0 318.5 -49.5t265.5 -140.5t192.5 -216t98.5 -276h-378q-23 81 -68 146t-109 110.5t-143.5 69t-171.5 23.5q-166 0 -297 -83t-206.5 -243.5t-75.5 -390.5
q0 -232 73.5 -393t203.5 -244.5t301 -83.5q160 0 277 63t180.5 175t63.5 258l66 -19h-550v290h849v-1072h-266l-27 240h-11q-108 -129 -249 -198.5t-335 -69.5zM878 2678l203 -256l203 256h317v-14l-378 -432h-283l-379 432v14h317z" />
    <glyph glyph-name="uniE00A" unicode="&#xe00a;" horiz-adv-x="2144" 
d="M1099 -28q-282 0 -495.5 127.5t-333.5 363t-120 559.5q0 248 72 443t201 331.5t301 208t373 71.5q170 0 318.5 -49.5t265.5 -140.5t192.5 -216t98.5 -276h-378q-23 81 -68 146t-109 110.5t-143.5 69t-171.5 23.5q-166 0 -297 -83t-206.5 -243.5t-75.5 -390.5
q0 -232 73.5 -393t203.5 -244.5t301 -83.5q160 0 277 63t180.5 175t63.5 258l66 -19h-550v290h849v-1072h-266l-27 240h-11q-108 -129 -249 -198.5t-335 -69.5zM943 2250l224 457h354l-307 -457h-271z" />
    <glyph glyph-name="uniE00B" unicode="&#xe00b;" horiz-adv-x="2144" 
d="M1099 -28q-282 0 -495.5 127.5t-333.5 363t-120 559.5q0 248 72 443t201 331.5t301 208t373 71.5q170 0 318.5 -49.5t265.5 -140.5t192.5 -216t98.5 -276h-378q-23 81 -68 146t-109 110.5t-143.5 69t-171.5 23.5q-166 0 -297 -83t-206.5 -243.5t-75.5 -390.5
q0 -232 73.5 -393t203.5 -244.5t301 -83.5q160 0 277 63t180.5 175t63.5 258l66 -19h-550v290h849v-1072h-266l-27 240h-11q-108 -129 -249 -198.5t-335 -69.5zM1563 2560v-221h-962v221h962z" />
    <glyph glyph-name="uni0048" unicode="H" horiz-adv-x="2095" 
d="M202 0v2048h371v-867h949v867h372v-2048h-372v870h-949v-870h-371z" />
    <glyph glyph-name="uni1E28" unicode="&#x1e28;" horiz-adv-x="2095" 
d="M202 0v2048h371v-867h949v867h372v-2048h-372v870h-949v-870h-371zM300 6h196l-16 -85q94 -14 159.5 -72.5t65.5 -168.5q1 -142 -127 -228t-365 -86l-4 178q115 0 183 30.5t69 96.5q2 64 -47.5 93.5t-156.5 40.5z" />
    <glyph glyph-name="uni0124" unicode="&#x124;" horiz-adv-x="2095" 
d="M202 0v2048h371v-867h949v867h372v-2048h-372v870h-949v-870h-371zM850 2233h-317v15l379 432h283l378 -432v-15h-317l-203 256z" />
    <glyph glyph-name="uni021E" unicode="&#x21e;" horiz-adv-x="2095" 
d="M202 0v2048h371v-867h949v867h372v-2048h-372v870h-949v-870h-371zM850 2680l203 -256l203 256h317v-14l-378 -432h-283l-379 432v14h317z" />
    <glyph glyph-name="uni1E22" unicode="&#x1e22;" horiz-adv-x="2095" 
d="M202 0v2048h371v-867h949v867h372v-2048h-372v870h-949v-870h-371zM1054 2268q-87 0 -148.5 57.5t-61.5 138.5q0 82 62 139.5t148 57.5t147.5 -57.5t61.5 -139.5q0 -81 -61.5 -138.5t-147.5 -57.5z" />
    <glyph glyph-name="uni1E24" unicode="&#x1e24;" horiz-adv-x="2095" 
d="M202 0v2048h371v-867h949v867h372v-2048h-372v870h-949v-870h-371zM1047 -552q-87 0 -148.5 57.5t-61.5 138.5q0 82 62 139.5t148 57.5t147.5 -57.5t61.5 -139.5q0 -81 -61.5 -138.5t-147.5 -57.5z" />
    <glyph glyph-name="uni1E26" unicode="&#x1e26;" horiz-adv-x="2095" 
d="M202 0v2048h371v-867h949v867h372v-2048h-372v870h-949v-870h-371zM754 2276q-79 0 -136.5 56t-57.5 132q0 80 57.5 134.5t136.5 54.5q81 0 136.5 -54.5t55.5 -134.5q0 -76 -55.5 -132t-136.5 -56zM1354 2276q-79 0 -136.5 56t-57.5 132q0 80 57.5 134.5t136.5 54.5
q81 0 136.5 -54.5t55.5 -134.5q0 -76 -55.5 -132t-136.5 -56z" />
    <glyph glyph-name="uni1E2A" unicode="&#x1e2a;" horiz-adv-x="2095" 
d="M202 0v2048h371v-867h949v867h372v-2048h-372v870h-949v-870h-371zM1244 -119h270q0 -116 -57 -206.5t-162 -142.5t-249 -52q-213 0 -340.5 112.5t-126.5 288.5h269q0 -74 45.5 -130.5t151.5 -56.5t152.5 58t46.5 129z" />
    <glyph glyph-name="uni0126" unicode="&#x126;" horiz-adv-x="2250" 
d="M2138 1667v-230h-2026v230h2026zM279 0v2048h371v-867h950v867h371v-2048h-371v870h-950v-870h-371z" />
    <glyph glyph-name="uni04C7" unicode="&#x4c7;" horiz-adv-x="2095" 
d="M1522 0h372v-121q0 -64 -15.5 -131.5t-53 -129t-102 -110t-162.5 -77t-235 -28.5q-44 0 -88 3.5t-63 8.5v299q20 -3 51 -5.5t56 -2.5q63 0 118 15.5t88.5 57.5t33.5 119v102zM202 0v2048h371v-867h949v867h372v-2048h-372v870h-949v-870h-371z" />
    <glyph glyph-name="uni04A2" unicode="&#x4a2;" horiz-adv-x="2323" 
d="M202 0v2048h371v-867h949v867h372v-2048h-372v870h-949v-870h-371zM2233 270v-764h-354v764h354z" />
    <glyph glyph-name="uni04C9" unicode="&#x4c9;" horiz-adv-x="2288" 
d="M202 0v2048h371v-867h949v867h372v-2048h-372v870h-949v-870h-371zM2198 207v-221q0 -103 -27 -202t-77 -188.5t-119 -161.5l-217 80q32 69 63.5 137.5t52 145.5t20.5 170v240h304z" />
    <glyph glyph-name="uni04A4" unicode="&#x4a4;" horiz-adv-x="2814" 
d="M2702 2048v-311h-808v-1737h-372v870h-949v-870h-371v2048h371v-867h949v867h1180z" />
    <glyph glyph-name="uni01F6" unicode="&#x1f6;" horiz-adv-x="3154" 
d="M2249 -28q-220 0 -383.5 82t-253.5 239t-90 382v195h-949v-870h-371v2048h371v-867h949v867h372v-1373q0 -192 93.5 -288t261.5 -96q167 0 257.5 96t90.5 288v834h371v-834q0 -227 -89 -384t-251 -238t-379 -81z" />
    <glyph glyph-name="uni0397" unicode="&#x397;" horiz-adv-x="2095" 
d="M202 0v2048h371v-867h949v867h372v-2048h-372v870h-949v-870h-371z" />
    <glyph glyph-name="uni0389" unicode="&#x389;" horiz-adv-x="2553" 
d="M660 0v2048h371v-867h949v867h372v-2048h-372v870h-949v-870h-371zM183 1716l93 473h339l-211 -473h-221z" />
    <glyph glyph-name="uni1F28" unicode="&#x1f28;" horiz-adv-x="2561" 
d="M668 0v2048h371v-867h949v867h372v-2048h-372v870h-949v-870h-371zM526 2048v-125q0 -84 -29.5 -154.5t-83 -125.5t-126.5 -91l-114 111q40 33 64.5 73t35 88.5t10.5 106.5v117h243z" />
    <glyph glyph-name="uni1F29" unicode="&#x1f29;" horiz-adv-x="2530" 
d="M636 0v2048h371v-867h949v867h372v-2048h-372v870h-949v-870h-371zM179 1923v125h244v-117q1 -54 11 -102.5t33.5 -90t64.5 -75.5l-114 -111q-106 54 -172.5 149.5t-66.5 221.5z" />
    <glyph glyph-name="uni1F2A" unicode="&#x1f2a;" horiz-adv-x="3079" 
d="M1186 0v2048h371v-867h949v867h372v-2048h-372v870h-949v-870h-371zM1063 1604v-20h-131l-322 436v28h294zM546 2048v-112q0 -80 -30.5 -151t-88.5 -130t-140 -103l-109 84q55 63 84.5 136.5t28.5 171.5v104h255z" />
    <glyph glyph-name="uni1F2B" unicode="&#x1f2b;" horiz-adv-x="2990" 
d="M1096 0v2048h371v-867h949v867h372v-2048h-372v870h-949v-870h-371zM979 1610v-28h-131l-322 438v28h298zM174 1923v125h247v-117q-1 -81 22.5 -149t87.5 -119l-114 -111q-110 54 -176.5 149.5t-66.5 221.5z" />
    <glyph glyph-name="uni1F2C" unicode="&#x1f2c;" horiz-adv-x="3002" 
d="M1108 0v2048h371v-867h949v867h372v-2048h-372v870h-949v-870h-371zM571 1582v28l160 438h294v-28l-322 -438h-132zM537 2048v-125q0 -83 -30.5 -154t-85 -126t-126.5 -91l-115 111q62 51 86 119t25 149v117h246z" />
    <glyph glyph-name="uni1F2D" unicode="&#x1f2d;" horiz-adv-x="3043" 
d="M1150 0v2048h371v-867h949v867h372v-2048h-372v870h-949v-870h-371zM602 1582v28l154 438h298v-28l-324 -438h-128zM179 1923v125h245v-117q0 -87 25 -152.5t84 -115.5l-115 -111q-104 53 -171 148t-68 223z" />
    <glyph glyph-name="uni1F2E" unicode="&#x1f2e;" horiz-adv-x="2819" 
d="M926 0v2048h371v-867h949v867h372v-2048h-372v870h-949v-870h-371zM827 2383l155 -47q0 -99 -65 -173.5t-167 -74.5q-55 0 -96 14.5t-75 33t-69.5 33t-81.5 14.5q-42 0 -70 -35t-28 -85l-155 43q0 99 63.5 177t165.5 78q47 0 86.5 -14.5t77 -34t76.5 -33.5t82 -14
q41 0 71 34t30 84zM712 2018v-105q0 -95 -53 -176.5t-140 -128.5l-115 90q54 43 71.5 100t17.5 117v103h219z" />
    <glyph glyph-name="uni1F2F" unicode="&#x1f2f;" horiz-adv-x="2849" 
d="M956 0v2048h371v-867h949v867h372v-2048h-372v870h-949v-870h-371zM488 1913v105h219v-103q0 -60 17.5 -117t71.5 -100l-119 -90q-83 46 -136 127t-53 178zM827 2383l155 -47q0 -99 -65 -173.5t-167 -74.5q-55 0 -96 14.5t-75 33t-69.5 33t-81.5 14.5q-42 0 -70 -35
t-28 -85l-155 43q0 99 63.5 177t165.5 78q47 0 86.5 -14.5t77 -34t76.5 -33.5t82 -14q41 0 71 34t30 84z" />
    <glyph glyph-name="uni1FCA" unicode="&#x1fca;" horiz-adv-x="2651" 
d="M758 0v2048h371v-867h949v867h372v-2048h-372v870h-949v-870h-371zM628 1580h-128l-322 440v28h294l156 -434v-34z" />
    <glyph glyph-name="uni1FCB" unicode="&#x1fcb;" horiz-adv-x="2603" 
d="M710 0v2048h371v-867h949v867h372v-2048h-372v870h-949v-870h-371zM240 1728v34l156 434h351v-28l-323 -440h-184z" />
    <glyph glyph-name="uni041D" unicode="&#x41d;" horiz-adv-x="2095" 
d="M202 0v2048h371v-867h949v867h372v-2048h-372v870h-949v-870h-371z" />
    <glyph glyph-name="uni1F98" unicode="&#x1f98;" horiz-adv-x="2485" 
d="M592 0v2048h371v-867h949v867h372v-2048h-372v870h-949v-870h-371zM1571 -680q-107 0 -179 60.5t-72 197.5v294h238v-292q0 -48 17.5 -69t55.5 -21q19 0 35.5 2t25.5 2v-156q-23 -8 -52 -13t-69 -5zM450 2048v-125q0 -84 -29.5 -154.5t-83 -125.5t-126.5 -91l-114 111
q40 33 64.5 73t35 88.5t10.5 106.5v117h243z" />
    <glyph glyph-name="uni1F99" unicode="&#x1f99;" horiz-adv-x="2530" 
d="M636 0v2048h371v-867h949v867h372v-2048h-372v870h-949v-870h-371zM1615 -680q-107 0 -179 60.5t-72 197.5v294h238v-292q0 -48 17.5 -69t55.5 -21q19 0 35.5 2t25.5 2v-156q-23 -8 -52 -13t-69 -5zM179 1923v125h244v-117q1 -54 11 -102.5t33.5 -90t64.5 -75.5
l-114 -111q-106 54 -172.5 149.5t-66.5 221.5z" />
    <glyph glyph-name="uni1F9A" unicode="&#x1f9a;" horiz-adv-x="3079" 
d="M1186 0v2048h371v-867h949v867h372v-2048h-372v870h-949v-870h-371zM2165 -680q-107 0 -179 60.5t-72 197.5v294h238v-292q0 -48 17.5 -69t55.5 -21q19 0 35.5 2t25.5 2v-156q-23 -8 -52 -13t-69 -5zM1063 1604v-20h-131l-322 436v28h294zM546 2048v-112
q0 -80 -30.5 -151t-88.5 -130t-140 -103l-109 84q55 63 84.5 136.5t28.5 171.5v104h255z" />
    <glyph glyph-name="uni1F9B" unicode="&#x1f9b;" horiz-adv-x="2990" 
d="M1096 0v2048h371v-867h949v867h372v-2048h-372v870h-949v-870h-371zM2075 -680q-107 0 -179 60.5t-72 197.5v294h238v-292q0 -48 17.5 -69t55.5 -21q19 0 35.5 2t25.5 2v-156q-23 -8 -52 -13t-69 -5zM979 1610v-28h-131l-322 438v28h298zM174 1923v125h247v-117
q-1 -81 22.5 -149t87.5 -119l-114 -111q-110 54 -176.5 149.5t-66.5 221.5z" />
    <glyph glyph-name="uni1F9C" unicode="&#x1f9c;" horiz-adv-x="3002" 
d="M1108 0v2048h371v-867h949v867h372v-2048h-372v870h-949v-870h-371zM2087 -680q-107 0 -179 60.5t-72 197.5v294h238v-292q0 -48 17.5 -69t55.5 -21q19 0 35.5 2t25.5 2v-156q-23 -8 -52 -13t-69 -5zM571 1582v28l160 438h294v-28l-322 -438h-132zM537 2048v-125
q0 -83 -30.5 -154t-85 -126t-126.5 -91l-115 111q62 51 86 119t25 149v117h246z" />
    <glyph glyph-name="uni1F9D" unicode="&#x1f9d;" horiz-adv-x="3043" 
d="M1150 0v2048h371v-867h949v867h372v-2048h-372v870h-949v-870h-371zM2129 -680q-107 0 -179 60.5t-72 197.5v294h238v-292q0 -48 17.5 -69t55.5 -21q19 0 35.5 2t25.5 2v-156q-23 -8 -52 -13t-69 -5zM602 1582v28l154 438h298v-28l-324 -438h-128zM179 1923v125h245v-117
q0 -87 25 -152.5t84 -115.5l-115 -111q-104 53 -171 148t-68 223z" />
    <glyph glyph-name="uni1F9E" unicode="&#x1f9e;" horiz-adv-x="2819" 
d="M926 0v2048h371v-867h949v867h372v-2048h-372v870h-949v-870h-371zM1905 -680q-107 0 -179 60.5t-72 197.5v294h238v-292q0 -48 17.5 -69t55.5 -21q19 0 35.5 2t25.5 2v-156q-23 -8 -52 -13t-69 -5zM827 2383l155 -47q0 -99 -65 -173.5t-167 -74.5q-55 0 -96 14.5t-75 33
t-69.5 33t-81.5 14.5q-42 0 -70 -35t-28 -85l-155 43q0 99 63.5 177t165.5 78q47 0 86.5 -14.5t77 -34t76.5 -33.5t82 -14q41 0 71 34t30 84zM712 2018v-105q0 -95 -53 -176.5t-140 -128.5l-115 90q54 43 71.5 100t17.5 117v103h219z" />
    <glyph glyph-name="uni1F9F" unicode="&#x1f9f;" horiz-adv-x="2849" 
d="M956 0v2048h371v-867h949v867h372v-2048h-372v870h-949v-870h-371zM1935 -680q-107 0 -179 60.5t-72 197.5v294h238v-292q0 -48 17.5 -69t55.5 -21q19 0 35.5 2t25.5 2v-156q-23 -8 -52 -13t-69 -5zM488 1913v105h219v-103q0 -60 17.5 -117t71.5 -100l-119 -90
q-83 46 -136 127t-53 178zM827 2383l155 -47q0 -99 -65 -173.5t-167 -74.5q-55 0 -96 14.5t-75 33t-69.5 33t-81.5 14.5q-42 0 -70 -35t-28 -85l-155 43q0 99 63.5 177t165.5 78q47 0 86.5 -14.5t77 -34t76.5 -33.5t82 -14q41 0 71 34t30 84z" />
    <glyph glyph-name="uni1FCC" unicode="&#x1fcc;" horiz-adv-x="2095" 
d="M202 0v2048h371v-867h949v867h372v-2048h-372v870h-949v-870h-371zM1181 -680q-107 0 -179 60.5t-72 197.5v294h238v-292q0 -48 17.5 -69t55.5 -21q19 0 35.5 2t25.5 2v-156q-23 -8 -52 -13t-69 -5z" />
    <glyph glyph-name="uni0049" unicode="I" horiz-adv-x="774" 
d="M573 2048v-2048h-371v2048h371z" />
    <glyph glyph-name="uni00CF" unicode="&#xcf;" horiz-adv-x="774" 
d="M573 2048v-2048h-371v2048h371zM89 2274q-79 0 -136.5 56t-57.5 132q0 80 57.5 134.5t136.5 54.5q81 0 136.5 -54.5t55.5 -134.5q0 -76 -55.5 -132t-136.5 -56zM689 2274q-79 0 -136.5 56t-57.5 132q0 80 57.5 134.5t136.5 54.5q81 0 136.5 -54.5t55.5 -134.5
q0 -76 -55.5 -132t-136.5 -56z" />
    <glyph glyph-name="uni1E2E" unicode="&#x1e2e;" horiz-adv-x="774" 
d="M573 2048v-2048h-371v2048h371zM244 2688l282 337h346l-354 -337h-274zM97 2195q-76 0 -131.5 53.5t-55.5 126.5q0 76 55.5 128t131.5 52q78 0 132 -52t54 -128q0 -73 -54 -126.5t-132 -53.5zM680 2195q-75 0 -131 53.5t-56 126.5q0 76 56 128t131 52q79 0 132.5 -52
t53.5 -128q0 -73 -53.5 -126.5t-132.5 -53.5z" />
    <glyph glyph-name="uni0197" unicode="&#x197;" horiz-adv-x="774" 
d="M573 2048v-2048h-371v2048h371zM-93 958v229h958v-229h-958z" />
    <glyph glyph-name="uni1E2C" unicode="&#x1e2c;" horiz-adv-x="774" 
d="M573 2048v-2048h-371v2048h371zM155 -535l-219 5q0 178 92 279t227 101q65 0 113 -21.5t88.5 -49.5t79.5 -49.5t86 -21.5q57 0 90.5 43t34.5 110l215 -9q-1 -179 -93 -277.5t-226 -99.5q-72 -1 -121 21t-85.5 50t-73.5 49.5t-87 21.5q-53 0 -87 -42t-34 -110z" />
    <glyph glyph-name="uni00CC" unicode="&#xcc;" horiz-adv-x="774" 
d="M573 2048v-2048h-371v2048h371zM256 2250l-307 457h355l223 -457h-271z" />
    <glyph glyph-name="uni00CD" unicode="&#xcd;" horiz-adv-x="774" 
d="M573 2048v-2048h-371v2048h371zM249 2250l224 457h354l-307 -457h-271z" />
    <glyph glyph-name="uni00CE" unicode="&#xce;" horiz-adv-x="774" 
d="M573 2048v-2048h-371v2048h371zM185 2231h-317v15l379 432h283l378 -432v-15h-317l-203 256z" />
    <glyph glyph-name="uni0128" unicode="&#x128;" horiz-adv-x="1262" 
d="M815 2048v-2048h-371v2048h371zM336 2235l-219 5q0 178 92 279t227 101q65 0 113 -21.5t88.5 -49.5t79.5 -49.5t86 -21.5q57 0 90.5 43t34.5 110l215 -9q-1 -179 -93 -277.5t-226 -99.5q-72 -1 -121 21t-85.5 50t-73.5 49.5t-87 21.5q-53 0 -87 -42t-34 -110z" />
    <glyph glyph-name="uni012A" unicode="&#x12a;" horiz-adv-x="774" 
d="M573 2048v-2048h-371v2048h371zM869 2560v-221h-962v221h962z" />
    <glyph glyph-name="uni012C" unicode="&#x12c;" horiz-adv-x="774" 
d="M573 2048v-2048h-371v2048h371zM586 2576h271q0 -175 -126.5 -283.5t-342.5 -108.5q-214 0 -340.5 108.5t-125.5 283.5h269q0 -72 44.5 -128.5t152.5 -56.5q106 0 151.5 56t46.5 129z" />
    <glyph glyph-name="uni012E" unicode="&#x12e;" horiz-adv-x="774" 
d="M573 2048v-2048h-371v2048h371zM380 -582q-129 0 -215.5 68t-101.5 196q-11 78 13 158t86 149t164 116l247 -105q-93 -52 -156 -110t-63 -136q0 -48 23.5 -74t75.5 -26q38 0 66.5 10t48.5 18l36 -204q-36 -21 -92 -40.5t-132 -19.5z" />
    <glyph glyph-name="uni0130" unicode="&#x130;" horiz-adv-x="774" 
d="M573 2048v-2048h-371v2048h371zM388 2266q-87 0 -148.5 57.5t-61.5 138.5q0 82 62 139.5t148 57.5t147.5 -57.5t61.5 -139.5q0 -81 -61.5 -138.5t-147.5 -57.5z" />
    <glyph glyph-name="uni01CF" unicode="&#x1cf;" horiz-adv-x="774" 
d="M573 2048v-2048h-371v2048h371zM185 2678l203 -256l203 256h317v-14l-378 -432h-283l-379 432v14h317z" />
    <glyph glyph-name="uni0208" unicode="&#x208;" horiz-adv-x="774" 
d="M573 2048v-2048h-371v2048h371zM174 2250l-344 278l57 179l335 -278zM641 2250l-288 278l103 179l268 -278z" />
    <glyph glyph-name="uni020A" unicode="&#x20a;" horiz-adv-x="774" 
d="M573 2048v-2048h-371v2048h371zM-82 2297q0 175 126 288t343 113q215 0 341 -113t127 -288h-271q-1 74 -46.5 130t-150.5 56q-109 0 -153.5 -57t-44.5 -129h-271z" />
    <glyph glyph-name="uni1EC8" unicode="&#x1ec8;" horiz-adv-x="774" 
d="M573 2048v-2048h-371v2048h371zM527 2264h-276l-14 192q106 4 150 27.5t43 65.5q1 54 -58 75t-146 21l9 179q248 0 376 -72t127 -196q1 -95 -65 -141.5t-146 -58.5v-92z" />
    <glyph glyph-name="uni1ECA" unicode="&#x1eca;" horiz-adv-x="774" 
d="M573 2048v-2048h-371v2048h371zM387 -552q-87 0 -148.5 57.5t-61.5 138.5q0 82 62 139.5t148 57.5t147.5 -57.5t61.5 -139.5q0 -81 -61.5 -138.5t-147.5 -57.5z" />
    <glyph glyph-name="uni0399" unicode="&#x399;" horiz-adv-x="774" 
d="M573 2048v-2048h-371v2048h371z" />
    <glyph glyph-name="uni038A" unicode="&#x38a;" horiz-adv-x="1011" 
d="M810 2048v-2048h-371v2048h371zM10 1716l93 473h339l-211 -473h-221z" />
    <glyph glyph-name="uni03AA" unicode="&#x3aa;" horiz-adv-x="774" 
d="M573 2048v-2048h-371v2048h371zM89 2274q-79 0 -136.5 56t-57.5 132q0 80 57.5 134.5t136.5 54.5q81 0 136.5 -54.5t55.5 -134.5q0 -76 -55.5 -132t-136.5 -56zM689 2274q-79 0 -136.5 56t-57.5 132q0 80 57.5 134.5t136.5 54.5q81 0 136.5 -54.5t55.5 -134.5
q0 -76 -55.5 -132t-136.5 -56z" />
    <glyph glyph-name="uni1F38" unicode="&#x1f38;" horiz-adv-x="1187" 
d="M991 2048v-2048h-371v2048h371zM526 2048v-125q0 -84 -29.5 -154.5t-83 -125.5t-126.5 -91l-114 111q40 33 64.5 73t35 88.5t10.5 106.5v117h243z" />
    <glyph glyph-name="uni1F39" unicode="&#x1f39;" horiz-adv-x="1156" 
d="M959 2048v-2048h-371v2048h371zM179 1923v125h244v-117q1 -54 11 -102.5t33.5 -90t64.5 -75.5l-114 -111q-106 54 -172.5 149.5t-66.5 221.5z" />
    <glyph glyph-name="uni1F3A" unicode="&#x1f3a;" horiz-adv-x="1706" 
d="M1509 2048v-2048h-371v2048h371zM1063 1604v-20h-131l-322 436v28h294zM546 2048v-112q0 -80 -30.5 -151t-88.5 -130t-140 -103l-109 84q55 63 84.5 136.5t28.5 171.5v104h255z" />
    <glyph glyph-name="uni1F3B" unicode="&#x1f3b;" horiz-adv-x="1616" 
d="M1419 2048v-2048h-371v2048h371zM979 1610v-28h-131l-322 438v28h298zM174 1923v125h247v-117q-1 -81 22.5 -149t87.5 -119l-114 -111q-110 54 -176.5 149.5t-66.5 221.5z" />
    <glyph glyph-name="uni1F3C" unicode="&#x1f3c;" horiz-adv-x="1628" 
d="M1431 2048v-2048h-371v2048h371zM571 1582v28l160 438h294v-28l-322 -438h-132zM537 2048v-125q0 -83 -30.5 -154t-85 -126t-126.5 -91l-115 111q62 51 86 119t25 149v117h246z" />
    <glyph glyph-name="uni1F3D" unicode="&#x1f3d;" horiz-adv-x="1670" 
d="M1473 2048v-2048h-371v2048h371zM602 1582v28l154 438h298v-28l-324 -438h-128zM179 1923v125h245v-117q0 -87 25 -152.5t84 -115.5l-115 -111q-104 53 -171 148t-68 223z" />
    <glyph glyph-name="uni1F3E" unicode="&#x1f3e;" horiz-adv-x="1446" 
d="M1249 2048v-2048h-371v2048h371zM827 2383l155 -47q0 -99 -65 -173.5t-167 -74.5q-55 0 -96 14.5t-75 33t-69.5 33t-81.5 14.5q-42 0 -70 -35t-28 -85l-155 43q0 99 63.5 177t165.5 78q47 0 86.5 -14.5t77 -34t76.5 -33.5t82 -14q41 0 71 34t30 84zM712 2018v-105
q0 -95 -53 -176.5t-140 -128.5l-115 90q54 43 71.5 100t17.5 117v103h219z" />
    <glyph glyph-name="uni1F3F" unicode="&#x1f3f;" horiz-adv-x="1475" 
d="M1279 2048v-2048h-371v2048h371zM488 1913v105h219v-103q0 -60 17.5 -117t71.5 -100l-119 -90q-83 46 -136 127t-53 178zM827 2383l155 -47q0 -99 -65 -173.5t-167 -74.5q-55 0 -96 14.5t-75 33t-69.5 33t-81.5 14.5q-42 0 -70 -35t-28 -85l-155 43q0 99 63.5 177
t165.5 78q47 0 86.5 -14.5t77 -34t76.5 -33.5t82 -14q41 0 71 34t30 84z" />
    <glyph glyph-name="uni1FD8" unicode="&#x1fd8;" horiz-adv-x="774" 
d="M573 2048v-2048h-371v2048h371zM586 2576h271q0 -175 -126.5 -283.5t-342.5 -108.5q-214 0 -340.5 108.5t-125.5 283.5h269q0 -72 44.5 -128.5t152.5 -56.5q106 0 151.5 56t46.5 129z" />
    <glyph glyph-name="uni1FD9" unicode="&#x1fd9;" horiz-adv-x="774" 
d="M573 2048v-2048h-371v2048h371zM869 2560v-221h-962v221h962z" />
    <glyph glyph-name="uni1FDA" unicode="&#x1fda;" horiz-adv-x="1278" 
d="M1081 2048v-2048h-371v2048h371zM628 1580h-128l-322 440v28h294l156 -434v-34z" />
    <glyph glyph-name="uni1FDB" unicode="&#x1fdb;" horiz-adv-x="1230" 
d="M1033 2048v-2048h-371v2048h371zM240 1728v34l156 434h351v-28l-323 -440h-184z" />
    <glyph glyph-name="uni0406" unicode="&#x406;" horiz-adv-x="774" 
d="M573 2048v-2048h-371v2048h371z" />
    <glyph glyph-name="uni0407" unicode="&#x407;" horiz-adv-x="774" 
d="M573 2048v-2048h-371v2048h371zM89 2274q-79 0 -136.5 56t-57.5 132q0 80 57.5 134.5t136.5 54.5q81 0 136.5 -54.5t55.5 -134.5q0 -76 -55.5 -132t-136.5 -56zM689 2274q-79 0 -136.5 56t-57.5 132q0 80 57.5 134.5t136.5 54.5q81 0 136.5 -54.5t55.5 -134.5
q0 -76 -55.5 -132t-136.5 -56z" />
    <glyph glyph-name="uniE00C" unicode="&#xe00c;" horiz-adv-x="1317" 
d="M112 1737v311h1093v-311h-1093zM112 0v311h1093v-311h-1093zM844 2048v-2048h-371v2048h371z" />
    <glyph glyph-name="uniE00D" unicode="&#xe00d;" horiz-adv-x="1317" 
d="M112 1737v311h1093v-311h-1093zM112 0v311h1093v-311h-1093zM844 2048v-2048h-371v2048h371zM360 2274q-79 0 -136.5 56t-57.5 132q0 80 57.5 134.5t136.5 54.5q81 0 136.5 -54.5t55.5 -134.5q0 -76 -55.5 -132t-136.5 -56zM960 2274q-79 0 -136.5 56t-57.5 132
q0 80 57.5 134.5t136.5 54.5q81 0 136.5 -54.5t55.5 -134.5q0 -76 -55.5 -132t-136.5 -56z" />
    <glyph glyph-name="uniE00E" unicode="&#xe00e;" horiz-adv-x="1317" 
d="M112 1737v311h1093v-311h-1093zM112 0v311h1093v-311h-1093zM844 2048v-2048h-371v2048h371zM515 2688l282 337h346l-354 -337h-274zM368 2195q-76 0 -131.5 53.5t-55.5 126.5q0 76 55.5 128t131.5 52q78 0 132 -52t54 -128q0 -73 -54 -126.5t-132 -53.5zM951 2195
q-75 0 -131 53.5t-56 126.5q0 76 56 128t131 52q79 0 132.5 -52t53.5 -128q0 -73 -53.5 -126.5t-132.5 -53.5z" />
    <glyph glyph-name="uniE00F" unicode="&#xe00f;" horiz-adv-x="1317" 
d="M112 1737v311h1093v-311h-1093zM112 0v311h1093v-311h-1093zM844 2048v-2048h-371v2048h371zM178 958v229h958v-229h-958z" />
    <glyph glyph-name="uniE010" unicode="&#xe010;" horiz-adv-x="1317" 
d="M112 1737v311h1093v-311h-1093zM112 0v311h1093v-311h-1093zM844 2048v-2048h-371v2048h371zM426 -535l-219 5q0 178 92 279t227 101q65 0 113 -21.5t88.5 -49.5t79.5 -49.5t86 -21.5q57 0 90.5 43t34.5 110l215 -9q-1 -179 -93 -277.5t-226 -99.5q-72 -1 -121 21
t-85.5 50t-73.5 49.5t-87 21.5q-53 0 -87 -42t-34 -110z" />
    <glyph glyph-name="uniE011" unicode="&#xe011;" horiz-adv-x="1317" 
d="M112 1737v311h1093v-311h-1093zM112 0v311h1093v-311h-1093zM844 2048v-2048h-371v2048h371zM527 2250l-307 457h355l223 -457h-271z" />
    <glyph glyph-name="uniE012" unicode="&#xe012;" horiz-adv-x="1317" 
d="M112 1737v311h1093v-311h-1093zM112 0v311h1093v-311h-1093zM844 2048v-2048h-371v2048h371zM520 2250l224 457h354l-307 -457h-271z" />
    <glyph glyph-name="uniE013" unicode="&#xe013;" horiz-adv-x="1317" 
d="M112 1737v311h1093v-311h-1093zM112 0v311h1093v-311h-1093zM844 2048v-2048h-371v2048h371zM456 2231h-317v15l379 432h283l378 -432v-15h-317l-203 256z" />
    <glyph glyph-name="uniE014" unicode="&#xe014;" horiz-adv-x="1317" 
d="M112 1737v311h1093v-311h-1093zM112 0v311h1093v-311h-1093zM844 2048v-2048h-371v2048h371zM365 2235l-219 5q0 178 92 279t227 101q65 0 113 -21.5t88.5 -49.5t79.5 -49.5t86 -21.5q57 0 90.5 43t34.5 110l215 -9q-1 -179 -93 -277.5t-226 -99.5q-72 -1 -121 21
t-85.5 50t-73.5 49.5t-87 21.5q-53 0 -87 -42t-34 -110z" />
    <glyph glyph-name="uniE015" unicode="&#xe015;" horiz-adv-x="1317" 
d="M112 1737v311h1093v-311h-1093zM112 0v311h1093v-311h-1093zM844 2048v-2048h-371v2048h371zM1140 2560v-221h-962v221h962z" />
    <glyph glyph-name="uniE016" unicode="&#xe016;" horiz-adv-x="1317" 
d="M112 1737v311h1093v-311h-1093zM112 0v311h1093v-311h-1093zM844 2048v-2048h-371v2048h371zM857 2576h271q0 -175 -126.5 -283.5t-342.5 -108.5q-214 0 -340.5 108.5t-125.5 283.5h269q0 -72 44.5 -128.5t152.5 -56.5q106 0 151.5 56t46.5 129z" />
    <glyph glyph-name="uniE017" unicode="&#xe017;" horiz-adv-x="1317" 
d="M112 1737v311h1093v-311h-1093zM112 0v311h1093v-311h-1093zM844 2048v-2048h-371v2048h371zM1012 -582q-129 0 -215.5 68t-101.5 196q-11 78 13 158t86 149t164 116l247 -105q-93 -52 -156 -110t-63 -136q0 -48 23.5 -74t75.5 -26q38 0 66.5 10t48.5 18l36 -204
q-36 -21 -92 -40.5t-132 -19.5z" />
    <glyph glyph-name="uniE018" unicode="&#xe018;" horiz-adv-x="1317" 
d="M112 1737v311h1093v-311h-1093zM112 0v311h1093v-311h-1093zM844 2048v-2048h-371v2048h371zM660 2266q-87 0 -148.5 57.5t-61.5 138.5q0 82 62 139.5t148 57.5t147.5 -57.5t61.5 -139.5q0 -81 -61.5 -138.5t-147.5 -57.5z" />
    <glyph glyph-name="uniE019" unicode="&#xe019;" horiz-adv-x="1317" 
d="M112 1737v311h1093v-311h-1093zM112 0v311h1093v-311h-1093zM844 2048v-2048h-371v2048h371zM456 2678l203 -256l203 256h317v-14l-378 -432h-283l-379 432v14h317z" />
    <glyph glyph-name="uniE01A" unicode="&#xe01a;" horiz-adv-x="1317" 
d="M112 1737v311h1093v-311h-1093zM112 0v311h1093v-311h-1093zM844 2048v-2048h-371v2048h371zM445 2250l-344 278l57 179l335 -278zM912 2250l-288 278l103 179l268 -278z" />
    <glyph glyph-name="uniE01B" unicode="&#xe01b;" horiz-adv-x="1317" 
d="M112 1737v311h1093v-311h-1093zM112 0v311h1093v-311h-1093zM844 2048v-2048h-371v2048h371zM189 2297q0 175 126 288t343 113q215 0 341 -113t127 -288h-271q-1 74 -46.5 130t-150.5 56q-109 0 -153.5 -57t-44.5 -129h-271z" />
    <glyph glyph-name="uniE01C" unicode="&#xe01c;" horiz-adv-x="1317" 
d="M112 1737v311h1093v-311h-1093zM112 0v311h1093v-311h-1093zM844 2048v-2048h-371v2048h371zM798 2264h-276l-14 192q106 4 150 27.5t43 65.5q1 54 -58 75t-146 21l9 179q248 0 376 -72t127 -196q1 -95 -65 -141.5t-146 -58.5v-92z" />
    <glyph glyph-name="uniE01D" unicode="&#xe01d;" horiz-adv-x="1317" 
d="M112 1737v311h1093v-311h-1093zM112 0v311h1093v-311h-1093zM844 2048v-2048h-371v2048h371zM658 -552q-87 0 -148.5 57.5t-61.5 138.5q0 82 62 139.5t148 57.5t147.5 -57.5t61.5 -139.5q0 -81 -61.5 -138.5t-147.5 -57.5z" />
    <glyph glyph-name="uniE01E" unicode="&#xe01e;" horiz-adv-x="1763" 
d="M558 1737v311h1093v-311h-1093zM558 0v311h1093v-311h-1093zM1290 2048v-2048h-371v2048h371zM465 2048v-125q0 -84 -29.5 -154.5t-83 -125.5t-126.5 -91l-114 111q40 33 64.5 73t35 88.5t10.5 106.5v117h243z" />
    <glyph glyph-name="uniE01F" unicode="&#xe01f;" horiz-adv-x="1726" 
d="M521 1737v311h1093v-311h-1093zM521 0v311h1093v-311h-1093zM1253 2048v-2048h-371v2048h371zM112 1923v125h244v-117q1 -54 11 -102.5t33.5 -90t64.5 -75.5l-114 -111q-106 54 -172.5 149.5t-66.5 221.5z" />
    <glyph glyph-name="uniE020" unicode="&#xe020;" horiz-adv-x="2277" 
d="M1072 1737v311h1093v-311h-1093zM1072 0v311h1093v-311h-1093zM1804 2048v-2048h-371v2048h371zM998 1604v-20h-131l-322 436v28h294zM481 2048v-112q0 -80 -30.5 -151t-88.5 -130t-140 -103l-109 84q55 63 84.5 136.5t28.5 171.5v104h255z" />
    <glyph glyph-name="uniE021" unicode="&#xe021;" horiz-adv-x="2190" 
d="M986 1737v311h1093v-311h-1093zM986 0v311h1093v-311h-1093zM1718 2048v-2048h-371v2048h371zM917 1610v-28h-131l-322 438v28h298zM112 1923v125h247v-117q-1 -81 22.5 -149t87.5 -119l-114 -111q-110 54 -176.5 149.5t-66.5 221.5z" />
    <glyph glyph-name="uniE022" unicode="&#xe022;" horiz-adv-x="2196" 
d="M991 1737v311h1093v-311h-1093zM991 0v311h1093v-311h-1093zM1723 2048v-2048h-371v2048h371zM503 1582v28l160 438h294v-28l-322 -438h-132zM469 2048v-125q0 -83 -30.5 -154t-85 -126t-126.5 -91l-115 111q62 51 86 119t25 149v117h246z" />
    <glyph glyph-name="uniE023" unicode="&#xe023;" horiz-adv-x="2239" 
d="M1034 1737v311h1093v-311h-1093zM1034 0v311h1093v-311h-1093zM1766 2048v-2048h-371v2048h371zM535 1582v28l154 438h298v-28l-324 -438h-128zM112 1923v125h245v-117q0 -87 25 -152.5t84 -115.5l-115 -111q-104 53 -171 148t-68 223z" />
    <glyph glyph-name="uniE024" unicode="&#xe024;" horiz-adv-x="2020" 
d="M815 1737v311h1093v-311h-1093zM815 0v311h1093v-311h-1093zM1547 2048v-2048h-371v2048h371zM764 2383l155 -47q0 -99 -65 -173.5t-167 -74.5q-55 0 -96 14.5t-75 33t-69.5 33t-81.5 14.5q-42 0 -70 -35t-28 -85l-155 43q0 99 63.5 177t165.5 78q47 0 86.5 -14.5t77 -34
t76.5 -33.5t82 -14q41 0 71 34t30 84zM649 2018v-105q0 -95 -53 -176.5t-140 -128.5l-115 90q54 43 71.5 100t17.5 117v103h219z" />
    <glyph glyph-name="uniE025" unicode="&#xe025;" horiz-adv-x="2050" 
d="M845 1737v311h1093v-311h-1093zM845 0v311h1093v-311h-1093zM1577 2048v-2048h-371v2048h371zM425 1913v105h219v-103q0 -60 17.5 -117t71.5 -100l-119 -90q-83 46 -136 127t-53 178zM764 2383l155 -47q0 -99 -65 -173.5t-167 -74.5q-55 0 -96 14.5t-75 33t-69.5 33
t-81.5 14.5q-42 0 -70 -35t-28 -85l-155 43q0 99 63.5 177t165.5 78q47 0 86.5 -14.5t77 -34t76.5 -33.5t82 -14q41 0 71 34t30 84z" />
    <glyph glyph-name="uniE026" unicode="&#xe026;" horiz-adv-x="1317" 
d="M112 1737v311h1093v-311h-1093zM112 0v311h1093v-311h-1093zM844 2048v-2048h-371v2048h371zM857 2576h271q0 -175 -126.5 -283.5t-342.5 -108.5q-214 0 -340.5 108.5t-125.5 283.5h269q0 -72 44.5 -128.5t152.5 -56.5q106 0 151.5 56t46.5 129z" />
    <glyph glyph-name="uniE027" unicode="&#xe027;" horiz-adv-x="1317" 
d="M112 1737v311h1093v-311h-1093zM112 0v311h1093v-311h-1093zM844 2048v-2048h-371v2048h371zM1140 2560v-221h-962v221h962z" />
    <glyph glyph-name="uniE028" unicode="&#xe028;" horiz-adv-x="1849" 
d="M644 1737v311h1093v-311h-1093zM644 0v311h1093v-311h-1093zM1376 2048v-2048h-371v2048h371zM562 1580h-128l-322 440v28h294l156 -434v-34z" />
    <glyph glyph-name="uniE029" unicode="&#xe029;" horiz-adv-x="1801" 
d="M596 1737v311h1093v-311h-1093zM596 0v311h1093v-311h-1093zM1328 2048v-2048h-371v2048h371zM174 1728v34l156 434h351v-28l-323 -440h-184z" />
    <glyph glyph-name="uniE02A" unicode="&#xe02a;" horiz-adv-x="1317" 
d="M112 1737v311h1093v-311h-1093zM112 0v311h1093v-311h-1093zM844 2048v-2048h-371v2048h371z" />
    <glyph glyph-name="uniE02B" unicode="&#xe02b;" horiz-adv-x="1317" 
d="M112 1737v311h1093v-311h-1093zM112 0v311h1093v-311h-1093zM844 2048v-2048h-371v2048h371zM360 2274q-79 0 -136.5 56t-57.5 132q0 80 57.5 134.5t136.5 54.5q81 0 136.5 -54.5t55.5 -134.5q0 -76 -55.5 -132t-136.5 -56zM960 2274q-79 0 -136.5 56t-57.5 132
q0 80 57.5 134.5t136.5 54.5q81 0 136.5 -54.5t55.5 -134.5q0 -76 -55.5 -132t-136.5 -56z" />
    <glyph glyph-name="uni004A" unicode="J" horiz-adv-x="1579" 
d="M1010 2048h368v-1440q-1 -198 -84 -340.5t-231.5 -219t-345.5 -76.5q-180 0 -323.5 64.5t-227.5 191.5t-84 316h369q1 -83 36.5 -143t98.5 -92t145 -32q89 0 151 37.5t94.5 111.5t33.5 182v1440z" />
    <glyph glyph-name="uni0134" unicode="&#x134;" horiz-adv-x="1579" 
d="M1010 2048h368v-1440q-1 -198 -84 -340.5t-231.5 -219t-345.5 -76.5q-180 0 -323.5 64.5t-227.5 191.5t-84 316h369q1 -83 36.5 -143t98.5 -92t145 -32q89 0 151 37.5t94.5 111.5t33.5 182v1440zM990 2231h-317v15l379 432h283l378 -432v-15h-317l-203 256z" />
    <glyph glyph-name="uni0248" unicode="&#x248;" horiz-adv-x="1579" 
d="M1010 2048h368v-1440q-1 -198 -84 -340.5t-231.5 -219t-345.5 -76.5q-180 0 -323.5 64.5t-227.5 191.5t-84 316h369q1 -83 36.5 -143t98.5 -92t145 -32q89 0 151 37.5t94.5 111.5t33.5 182v1440zM712 1107v229h958v-229h-958z" />
    <glyph glyph-name="uni037F" unicode="&#x37f;" horiz-adv-x="1579" 
d="M1010 2048h368v-1440q-1 -198 -84 -340.5t-231.5 -219t-345.5 -76.5q-180 0 -323.5 64.5t-227.5 191.5t-84 316h369q1 -83 36.5 -143t98.5 -92t145 -32q89 0 151 37.5t94.5 111.5t33.5 182v1440z" />
    <glyph glyph-name="uni0408" unicode="&#x408;" horiz-adv-x="1579" 
d="M1010 2048h368v-1440q-1 -198 -84 -340.5t-231.5 -219t-345.5 -76.5q-180 0 -323.5 64.5t-227.5 191.5t-84 316h369q1 -83 36.5 -143t98.5 -92t145 -32q89 0 151 37.5t94.5 111.5t33.5 182v1440z" />
    <glyph glyph-name="uni004B" unicode="K" horiz-adv-x="1906" 
d="M202 0v2048h371v-941h25l799 941h453l-792 -919l799 -1129h-446l-611 878l-227 -268v-610h-371z" />
    <glyph glyph-name="uni0136" unicode="&#x136;" horiz-adv-x="1906" 
d="M202 0v2048h371v-941h25l799 941h453l-792 -919l799 -1129h-446l-611 878l-227 -268v-610h-371zM659 -662l120 502h344l-203 -502h-261z" />
    <glyph glyph-name="uni01E8" unicode="&#x1e8;" horiz-adv-x="1906" 
d="M202 0v2048h371v-941h25l799 941h453l-792 -919l799 -1129h-446l-611 878l-227 -268v-610h-371zM752 2678l203 -256l203 256h317v-14l-378 -432h-283l-379 432v14h317z" />
    <glyph glyph-name="uni1E30" unicode="&#x1e30;" horiz-adv-x="1906" 
d="M202 0v2048h371v-941h25l799 941h453l-792 -919l799 -1129h-446l-611 878l-227 -268v-610h-371zM816 2250l224 457h354l-307 -457h-271z" />
    <glyph glyph-name="uni1E32" unicode="&#x1e32;" horiz-adv-x="1906" 
d="M202 0v2048h371v-941h25l799 941h453l-792 -919l799 -1129h-446l-611 878l-227 -268v-610h-371zM949 -550q-87 0 -148.5 57.5t-61.5 138.5q0 82 62 139.5t148 57.5t147.5 -57.5t61.5 -139.5q0 -81 -61.5 -138.5t-147.5 -57.5z" />
    <glyph glyph-name="uni1E34" unicode="&#x1e34;" horiz-adv-x="1906" 
d="M202 0v2048h371v-941h25l799 941h453l-792 -919l799 -1129h-446l-611 878l-227 -268v-610h-371zM1430 -252v-221h-962v221h962z" />
    <glyph glyph-name="uni04A0" unicode="&#x4a0;" horiz-adv-x="2294" 
d="M1737 0l-679 895h-172v-895h-371v1750h-477v298h848v-842h104l773 842h471l-873 -951l835 -1097h-459z" />
    <glyph glyph-name="uni049A" unicode="&#x49a;" horiz-adv-x="2162" 
d="M1428 0l-678 895h-172v-895h-371v2048h371v-842h103l774 842h470l-873 -951l835 -1097h-459zM2001 216v-764h-354v764h354z" />
    <glyph glyph-name="uni0198" unicode="&#x198;" horiz-adv-x="1999" 
d="M202 0v2048h371v-926h25l720 772q96 103 206 146.5t225.5 29.5t228.5 -84l-125 -265q-78 43 -141.5 26t-135.5 -93l-517 -544l851 -1110h-446l-638 848l-253 -275v-573h-371z" />
    <glyph glyph-name="uni039A" unicode="&#x39a;" horiz-adv-x="1906" 
d="M202 0v2048h371v-941h25l799 941h453l-792 -919l799 -1129h-446l-611 878l-227 -268v-610h-371z" />
    <glyph glyph-name="uni004C" unicode="L" horiz-adv-x="1594" 
d="M202 0v2048h371v-1737h902v-311h-1273z" />
    <glyph glyph-name="uni0139" unicode="&#x139;" horiz-adv-x="1594" 
d="M202 0v2048h371v-1737h902v-311h-1273zM246 2250l224 457h354l-307 -457h-271z" />
    <glyph glyph-name="uni013B" unicode="&#x13b;" horiz-adv-x="1594" 
d="M202 0v2048h371v-1737h902v-311h-1273zM548 -664l120 502h344l-203 -502h-261z" />
    <glyph glyph-name="uni013D" unicode="&#x13d;" horiz-adv-x="1594" 
d="M202 0v2048h371v-1737h902v-311h-1273zM894 1626v524h294l-72 -524h-222z" />
    <glyph glyph-name="uni1E36" unicode="&#x1e36;" horiz-adv-x="1594" 
d="M202 0v2048h371v-1737h902v-311h-1273zM839 -552q-87 0 -148.5 57.5t-61.5 138.5q0 82 62 139.5t148 57.5t147.5 -57.5t61.5 -139.5q0 -81 -61.5 -138.5t-147.5 -57.5z" />
    <glyph glyph-name="uni1E38" unicode="&#x1e38;" horiz-adv-x="1594" 
d="M202 0v2048h371v-1737h902v-311h-1273zM839 -552q-87 0 -148.5 57.5t-61.5 138.5q0 82 62 139.5t148 57.5t147.5 -57.5t61.5 -139.5q0 -81 -61.5 -138.5t-147.5 -57.5zM866 2560v-221h-962v221h962z" />
    <glyph glyph-name="uni1E3A" unicode="&#x1e3a;" horiz-adv-x="1594" 
d="M202 0v2048h371v-1737h902v-311h-1273zM1319 -254v-221h-962v221h962z" />
    <glyph glyph-name="uni1E3C" unicode="&#x1e3c;" horiz-adv-x="1594" 
d="M202 0v2048h371v-1737h902v-311h-1273zM636 -575h-317v15l379 432h283l378 -432v-15h-317l-203 256z" />
    <glyph glyph-name="uni0141" unicode="&#x141;" horiz-adv-x="1627" 
d="M936 1309v-219l-889 -256v217zM259 0v2048h371v-1737h903v-311h-1274z" />
    <glyph glyph-name="uni023D" unicode="&#x23d;" horiz-adv-x="1594" 
d="M202 0v2048h371v-1737h902v-311h-1273zM-93 958v229h958v-229h-958z" />
    <glyph glyph-name="uni01C8" unicode="&#x1c8;" horiz-adv-x="2327" 
d="M202 0v2048h371v-1737h902v-311h-1273zM1780 1536h362v-1621q0 -166 -63 -275.5t-183.5 -162.5t-292.5 -50q-16 1 -32.5 1t-36.5 1v295q15 -1 27 -1.5t25 -0.5q104 0 149 50.5t45 147.5v1616zM1960 1754q-87 0 -148.5 57.5t-61.5 138.5q0 82 62 139.5t148 57.5
t147.5 -57.5t61.5 -139.5q0 -81 -61.5 -138.5t-147.5 -57.5z" />
    <glyph glyph-name="uni004D" unicode="M" horiz-adv-x="2552" 
d="M202 2048h454l608 -1484h24l608 1484h454v-2048h-356v1407h-19l-566 -1401h-266l-566 1404h-19v-1410h-356v2048z" />
    <glyph glyph-name="uni1E3E" unicode="&#x1e3e;" horiz-adv-x="2552" 
d="M202 2048h454l608 -1484h24l608 1484h454v-2048h-356v1407h-19l-566 -1401h-266l-566 1404h-19v-1410h-356v2048zM1137 2250l224 457h354l-307 -457h-271z" />
    <glyph glyph-name="uni1E40" unicode="&#x1e40;" horiz-adv-x="2552" 
d="M202 2048h454l608 -1484h24l608 1484h454v-2048h-356v1407h-19l-566 -1401h-266l-566 1404h-19v-1410h-356v2048zM1276 2266q-87 0 -148.5 57.5t-61.5 138.5q0 82 62 139.5t148 57.5t147.5 -57.5t61.5 -139.5q0 -81 -61.5 -138.5t-147.5 -57.5z" />
    <glyph glyph-name="uni1E42" unicode="&#x1e42;" horiz-adv-x="2552" 
d="M202 2048h454l608 -1484h24l608 1484h454v-2048h-356v1407h-19l-566 -1401h-266l-566 1404h-19v-1410h-356v2048zM1277 -552q-87 0 -148.5 57.5t-61.5 138.5q0 82 62 139.5t148 57.5t147.5 -57.5t61.5 -139.5q0 -81 -61.5 -138.5t-147.5 -57.5z" />
    <glyph glyph-name="uni04CD" unicode="&#x4cd;" horiz-adv-x="2675" 
d="M202 2048h454l608 -1484h24l608 1484h454v-2048h-356v1407h-19l-566 -1401h-266l-566 1404h-19v-1410h-356v2048zM2655 207v-221q0 -103 -27 -202t-77 -188.5t-119 -161.5l-217 80q32 69 63.5 137.5t52 145.5t20.5 170v240h304z" />
    <glyph glyph-name="uni039C" unicode="&#x39c;" horiz-adv-x="2552" 
d="M202 2048h454l608 -1484h24l608 1484h454v-2048h-356v1407h-19l-566 -1401h-266l-566 1404h-19v-1410h-356v2048z" />
    <glyph glyph-name="uni03FA" unicode="&#x3fa;" horiz-adv-x="2552" 
d="M202 2048h454l608 -1484h24l608 1484h454v-2048h-356v1407h-19l-566 -1401h-266l-566 1404h-19v-1410h-356v2048z" />
    <glyph glyph-name="uni041C" unicode="&#x41c;" horiz-adv-x="2552" 
d="M202 2048h454l608 -1484h24l608 1484h454v-2048h-356v1407h-19l-566 -1401h-266l-566 1404h-19v-1410h-356v2048z" />
    <glyph glyph-name="uni004E" unicode="N" horiz-adv-x="2086" 
d="M1885 2048v-2048h-330l-965 1395h-17v-1395h-371v2048h332l964 -1396h18v1396h369z" />
    <glyph glyph-name="uni00D1" unicode="&#xd1;" horiz-adv-x="2086" 
d="M1885 2048v-2048h-330l-965 1395h-17v-1395h-371v2048h332l964 -1396h18v1396h369zM750 2235l-219 5q0 178 92 279t227 101q65 0 113 -21.5t88.5 -49.5t79.5 -49.5t86 -21.5q57 0 90.5 43t34.5 110l215 -9q-1 -179 -93 -277.5t-226 -99.5q-72 -1 -121 21t-85.5 50
t-73.5 49.5t-87 21.5q-53 0 -87 -42t-34 -110z" />
    <glyph glyph-name="uni0143" unicode="&#x143;" horiz-adv-x="2086" 
d="M1885 2048v-2048h-330l-965 1395h-17v-1395h-371v2048h332l964 -1396h18v1396h369zM905 2250l224 457h354l-307 -457h-271z" />
    <glyph glyph-name="uni0145" unicode="&#x145;" horiz-adv-x="2086" 
d="M1885 2048v-2048h-330l-965 1395h-17v-1395h-371v2048h332l964 -1396h18v1396h369zM754 -664l120 502h344l-203 -502h-261z" />
    <glyph glyph-name="uni0147" unicode="&#x147;" horiz-adv-x="2086" 
d="M1885 2048v-2048h-330l-965 1395h-17v-1395h-371v2048h332l964 -1396h18v1396h369zM841 2678l203 -256l203 256h317v-14l-378 -432h-283l-379 432v14h317z" />
    <glyph glyph-name="uni01F8" unicode="&#x1f8;" horiz-adv-x="2086" 
d="M1885 2048v-2048h-330l-965 1395h-17v-1395h-371v2048h332l964 -1396h18v1396h369zM912 2250l-307 457h355l223 -457h-271z" />
    <glyph glyph-name="uni1E44" unicode="&#x1e44;" horiz-adv-x="2086" 
d="M1885 2048v-2048h-330l-965 1395h-17v-1395h-371v2048h332l964 -1396h18v1396h369zM1044 2266q-87 0 -148.5 57.5t-61.5 138.5q0 82 62 139.5t148 57.5t147.5 -57.5t61.5 -139.5q0 -81 -61.5 -138.5t-147.5 -57.5z" />
    <glyph glyph-name="uni1E46" unicode="&#x1e46;" horiz-adv-x="2086" 
d="M1885 2048v-2048h-330l-965 1395h-17v-1395h-371v2048h332l964 -1396h18v1396h369zM1045 -552q-87 0 -148.5 57.5t-61.5 138.5q0 82 62 139.5t148 57.5t147.5 -57.5t61.5 -139.5q0 -81 -61.5 -138.5t-147.5 -57.5z" />
    <glyph glyph-name="uni1E48" unicode="&#x1e48;" horiz-adv-x="2086" 
d="M1885 2048v-2048h-330l-965 1395h-17v-1395h-371v2048h332l964 -1396h18v1396h369zM1525 -254v-221h-962v221h962z" />
    <glyph glyph-name="uni1E4A" unicode="&#x1e4a;" horiz-adv-x="2086" 
d="M1885 2048v-2048h-330l-965 1395h-17v-1395h-371v2048h332l964 -1396h18v1396h369zM841 -575h-317v15l379 432h283l378 -432v-15h-317l-203 256z" />
    <glyph glyph-name="uni019D" unicode="&#x19d;" horiz-adv-x="2122" 
d="M238 0h371v-118q0 -131 -41 -219.5t-110.5 -141t-157.5 -75t-182 -22.5q-38 0 -91 1.5t-87 8.5v286q18 -3 40.5 -4t41.5 -1q89 0 152.5 35t63.5 135v115zM1921 2048v-2048h-330l-965 1395h-17v-1395h-371v2048h332l964 -1396h18v1396h369z" />
    <glyph glyph-name="uni014A" unicode="&#x14a;" horiz-adv-x="2086" 
d="M1555 0h330v-110q0 -173 -68.5 -280.5t-189.5 -157t-280 -49.5q-36 0 -76 4t-73 15v282q25 -5 58 -9t66 -4q103 0 168 45.5t65 151.5v112zM1885 2048v-2048h-330l-965 1395h-17v-1395h-371v2048h332l964 -1396h18v1396h369z" />
    <glyph glyph-name="uni0418" unicode="&#x418;" horiz-adv-x="2086" 
d="M202 2048h368v-1396h19l963 1396h333v-2048h-371v1395h-17l-966 -1395h-329v2048z" />
    <glyph glyph-name="uni040D" unicode="&#x40d;" horiz-adv-x="2086" 
d="M202 2048h368v-1396h19l963 1396h333v-2048h-371v1395h-17l-966 -1395h-329v2048zM910 2250l-307 457h355l223 -457h-271z" />
    <glyph glyph-name="uni0419" unicode="&#x419;" horiz-adv-x="2086" 
d="M202 2048h368v-1396h19l963 1396h333v-2048h-371v1395h-17l-966 -1395h-329v2048zM1240 2576h271q0 -175 -126.5 -283.5t-342.5 -108.5q-214 0 -340.5 108.5t-125.5 283.5h269q0 -72 44.5 -128.5t152.5 -56.5q106 0 151.5 56t46.5 129z" />
    <glyph glyph-name="uni04E2" unicode="&#x4e2;" horiz-adv-x="2086" 
d="M202 2048h368v-1396h19l963 1396h333v-2048h-371v1395h-17l-966 -1395h-329v2048zM1524 2560v-221h-962v221h962z" />
    <glyph glyph-name="uni04E4" unicode="&#x4e4;" horiz-adv-x="2086" 
d="M202 2048h368v-1396h19l963 1396h333v-2048h-371v1395h-17l-966 -1395h-329v2048zM743 2274q-79 0 -136.5 56t-57.5 132q0 80 57.5 134.5t136.5 54.5q81 0 136.5 -54.5t55.5 -134.5q0 -76 -55.5 -132t-136.5 -56zM1343 2274q-79 0 -136.5 56t-57.5 132q0 80 57.5 134.5
t136.5 54.5q81 0 136.5 -54.5t55.5 -134.5q0 -76 -55.5 -132t-136.5 -56z" />
    <glyph glyph-name="uni048A" unicode="&#x48a;" horiz-adv-x="2086" 
d="M202 2048h368v-1396h19l963 1396h333v-2048h-371v1395h-17l-966 -1395h-329v2048zM1240 2576h271q0 -175 -126.5 -283.5t-342.5 -108.5q-214 0 -340.5 108.5t-125.5 283.5h269q0 -72 44.5 -128.5t152.5 -56.5q106 0 151.5 56t46.5 129zM2184 207v-221q0 -103 -27 -202
t-77 -188.5t-119 -161.5l-217 80q32 69 63.5 137.5t52 145.5t20.5 170v240h304z" />
    <glyph glyph-name="uni0376" unicode="&#x376;" horiz-adv-x="2162" 
d="M239 2048h368v-1396h19l963 1396h333v-2048h-371v1395h-17l-966 -1395h-329v2048z" />
    <glyph glyph-name="uni039D" unicode="&#x39d;" horiz-adv-x="2086" 
d="M1885 2048v-2048h-330l-965 1395h-17v-1395h-371v2048h332l964 -1396h18v1396h369z" />
    <glyph glyph-name="uni01CB" unicode="&#x1cb;" horiz-adv-x="2758" 
d="M1885 2048v-2048h-330l-965 1395h-17v-1395h-371v2048h332l964 -1396h18v1396h369zM2210 1536h362v-1621q0 -166 -63 -275.5t-183.5 -162.5t-292.5 -50q-16 1 -32.5 1t-36.5 1v295q15 -1 27 -1.5t25 -0.5q104 0 149 50.5t45 147.5v1616zM2390 1754q-87 0 -148.5 57.5
t-61.5 138.5q0 82 62 139.5t148 57.5t147.5 -57.5t61.5 -139.5q0 -81 -61.5 -138.5t-147.5 -57.5z" />
    <glyph glyph-name="uni004F" unicode="O" horiz-adv-x="2182" 
d="M2032 1024q0 -331 -123.5 -566.5t-336 -360.5t-481.5 -125t-481.5 125.5t-336 361t-123.5 565.5q0 331 123.5 566.5t336 360.5t481.5 125t481.5 -125t336 -360.5t123.5 -566.5zM1659 1024q0 233 -72.5 393.5t-200.5 243t-295 82.5t-295 -82.5t-200.5 -243t-72.5 -393.5
t72.5 -393.5t200.5 -243t295 -82.5t295 82.5t200.5 243t72.5 393.5z" />
    <glyph glyph-name="uni00D6" unicode="&#xd6;" horiz-adv-x="2182" 
d="M2032 1024q0 -331 -123.5 -566.5t-336 -360.5t-481.5 -125t-481.5 125.5t-336 361t-123.5 565.5q0 331 123.5 566.5t336 360.5t481.5 125t481.5 -125t336 -360.5t123.5 -566.5zM1659 1024q0 233 -72.5 393.5t-200.5 243t-295 82.5t-295 -82.5t-200.5 -243t-72.5 -393.5
t72.5 -393.5t200.5 -243t295 -82.5t295 82.5t200.5 243t72.5 393.5zM792 2274q-79 0 -136.5 56t-57.5 132q0 80 57.5 134.5t136.5 54.5q81 0 136.5 -54.5t55.5 -134.5q0 -76 -55.5 -132t-136.5 -56zM1392 2274q-79 0 -136.5 56t-57.5 132q0 80 57.5 134.5t136.5 54.5
q81 0 136.5 -54.5t55.5 -134.5q0 -76 -55.5 -132t-136.5 -56z" />
    <glyph glyph-name="uni00D5" unicode="&#xd5;" horiz-adv-x="2182" 
d="M2032 1024q0 -331 -123.5 -566.5t-336 -360.5t-481.5 -125t-481.5 125.5t-336 361t-123.5 565.5q0 331 123.5 566.5t336 360.5t481.5 125t481.5 -125t336 -360.5t123.5 -566.5zM1659 1024q0 233 -72.5 393.5t-200.5 243t-295 82.5t-295 -82.5t-200.5 -243t-72.5 -393.5
t72.5 -393.5t200.5 -243t295 -82.5t295 82.5t200.5 243t72.5 393.5zM797 2250l-219 5q0 178 92 279t227 101q65 0 113 -21.5t88.5 -49.5t79.5 -49.5t86 -21.5q57 0 90.5 43t34.5 110l215 -9q-1 -179 -93 -277.5t-226 -99.5q-72 -1 -121 21t-85.5 50t-73.5 49.5t-87 21.5
q-53 0 -87 -42t-34 -110z" />
    <glyph glyph-name="uni00D8" unicode="&#xd8;" horiz-adv-x="2182" 
d="M453 -94l-181 124l1453 2108l181 -124zM2032 1024q0 -331 -123.5 -566.5t-336 -360.5t-481.5 -125t-481.5 125.5t-336 361t-123.5 565.5q0 331 123.5 566.5t336 360.5t481.5 125t481.5 -125t336 -360.5t123.5 -566.5zM1659 1024q0 233 -72.5 393.5t-200.5 243t-295 82.5
t-295 -82.5t-200.5 -243t-72.5 -393.5t72.5 -393.5t200.5 -243t295 -82.5t295 82.5t200.5 243t72.5 393.5z" />
    <glyph glyph-name="uni01A0" unicode="&#x1a0;" horiz-adv-x="2254" 
d="M1955 2164h262q0 -284 -130 -441t-401 -157v212q148 0 208.5 102t60.5 284zM2032 1024q0 -331 -123.5 -566.5t-336 -360.5t-481.5 -125t-481.5 125.5t-336 361t-123.5 565.5q0 331 123.5 566.5t336 360.5t481.5 125t481.5 -125t336 -360.5t123.5 -566.5zM1659 1024
q0 233 -72.5 393.5t-200.5 243t-295 82.5t-295 -82.5t-200.5 -243t-72.5 -393.5t72.5 -393.5t200.5 -243t295 -82.5t295 82.5t200.5 243t72.5 393.5z" />
    <glyph glyph-name="uni00D2" unicode="&#xd2;" horiz-adv-x="2182" 
d="M2032 1024q0 -331 -123.5 -566.5t-336 -360.5t-481.5 -125t-481.5 125.5t-336 361t-123.5 565.5q0 331 123.5 566.5t336 360.5t481.5 125t481.5 -125t336 -360.5t123.5 -566.5zM1659 1024q0 233 -72.5 393.5t-200.5 243t-295 82.5t-295 -82.5t-200.5 -243t-72.5 -393.5
t72.5 -393.5t200.5 -243t295 -82.5t295 82.5t200.5 243t72.5 393.5zM959 2250l-307 457h355l223 -457h-271z" />
    <glyph glyph-name="uni00D3" unicode="&#xd3;" horiz-adv-x="2182" 
d="M2032 1024q0 -331 -123.5 -566.5t-336 -360.5t-481.5 -125t-481.5 125.5t-336 361t-123.5 565.5q0 331 123.5 566.5t336 360.5t481.5 125t481.5 -125t336 -360.5t123.5 -566.5zM1659 1024q0 233 -72.5 393.5t-200.5 243t-295 82.5t-295 -82.5t-200.5 -243t-72.5 -393.5
t72.5 -393.5t200.5 -243t295 -82.5t295 82.5t200.5 243t72.5 393.5zM952 2250l224 457h354l-307 -457h-271z" />
    <glyph glyph-name="uni00D4" unicode="&#xd4;" horiz-adv-x="2182" 
d="M2032 1024q0 -331 -123.5 -566.5t-336 -360.5t-481.5 -125t-481.5 125.5t-336 361t-123.5 565.5q0 331 123.5 566.5t336 360.5t481.5 125t481.5 -125t336 -360.5t123.5 -566.5zM1659 1024q0 233 -72.5 393.5t-200.5 243t-295 82.5t-295 -82.5t-200.5 -243t-72.5 -393.5
t72.5 -393.5t200.5 -243t295 -82.5t295 82.5t200.5 243t72.5 393.5zM888 2231h-317v15l379 432h283l378 -432v-15h-317l-203 256z" />
    <glyph glyph-name="uni014C" unicode="&#x14c;" horiz-adv-x="2182" 
d="M2032 1024q0 -331 -123.5 -566.5t-336 -360.5t-481.5 -125t-481.5 125.5t-336 361t-123.5 565.5q0 331 123.5 566.5t336 360.5t481.5 125t481.5 -125t336 -360.5t123.5 -566.5zM1659 1024q0 233 -72.5 393.5t-200.5 243t-295 82.5t-295 -82.5t-200.5 -243t-72.5 -393.5
t72.5 -393.5t200.5 -243t295 -82.5t295 82.5t200.5 243t72.5 393.5zM1572 2560v-221h-962v221h962z" />
    <glyph glyph-name="uni014E" unicode="&#x14e;" horiz-adv-x="2182" 
d="M2032 1024q0 -331 -123.5 -566.5t-336 -360.5t-481.5 -125t-481.5 125.5t-336 361t-123.5 565.5q0 331 123.5 566.5t336 360.5t481.5 125t481.5 -125t336 -360.5t123.5 -566.5zM1659 1024q0 233 -72.5 393.5t-200.5 243t-295 82.5t-295 -82.5t-200.5 -243t-72.5 -393.5
t72.5 -393.5t200.5 -243t295 -82.5t295 82.5t200.5 243t72.5 393.5zM1289 2576h271q0 -175 -126.5 -283.5t-342.5 -108.5q-214 0 -340.5 108.5t-125.5 283.5h269q0 -72 44.5 -128.5t152.5 -56.5q106 0 151.5 56t46.5 129z" />
    <glyph glyph-name="uni0150" unicode="&#x150;" horiz-adv-x="2182" 
d="M2032 1024q0 -331 -123.5 -566.5t-336 -360.5t-481.5 -125t-481.5 125.5t-336 361t-123.5 565.5q0 331 123.5 566.5t336 360.5t481.5 125t481.5 -125t336 -360.5t123.5 -566.5zM1659 1024q0 233 -72.5 393.5t-200.5 243t-295 82.5t-295 -82.5t-200.5 -243t-72.5 -393.5
t72.5 -393.5t200.5 -243t295 -82.5t295 82.5t200.5 243t72.5 393.5zM1160 2222l315 418h328l-372 -418h-271zM681 2222l253 418h326l-317 -418h-262z" />
    <glyph glyph-name="uni01D1" unicode="&#x1d1;" horiz-adv-x="2182" 
d="M2032 1024q0 -331 -123.5 -566.5t-336 -360.5t-481.5 -125t-481.5 125.5t-336 361t-123.5 565.5q0 331 123.5 566.5t336 360.5t481.5 125t481.5 -125t336 -360.5t123.5 -566.5zM1659 1024q0 233 -72.5 393.5t-200.5 243t-295 82.5t-295 -82.5t-200.5 -243t-72.5 -393.5
t72.5 -393.5t200.5 -243t295 -82.5t295 82.5t200.5 243t72.5 393.5zM888 2678l203 -256l203 256h317v-14l-378 -432h-283l-379 432v14h317z" />
    <glyph glyph-name="uni01EA" unicode="&#x1ea;" horiz-adv-x="2182" 
d="M2032 1024q0 -331 -123.5 -566.5t-336 -360.5t-481.5 -125t-481.5 125.5t-336 361t-123.5 565.5q0 331 123.5 566.5t336 360.5t481.5 125t481.5 -125t336 -360.5t123.5 -566.5zM1659 1024q0 233 -72.5 393.5t-200.5 243t-295 82.5t-295 -82.5t-200.5 -243t-72.5 -393.5
t72.5 -393.5t200.5 -243t295 -82.5t295 82.5t200.5 243t72.5 393.5zM1129 -584q-129 0 -215.5 68t-101.5 196q-11 78 13 158t86 149t164 116l247 -105q-93 -52 -156 -110t-63 -136q0 -48 23.5 -74t75.5 -26q38 0 66.5 10t48.5 18l36 -204q-36 -21 -92 -40.5t-132 -19.5z" />
    <glyph glyph-name="uni01EC" unicode="&#x1ec;" horiz-adv-x="2182" 
d="M2032 1024q0 -331 -123.5 -566.5t-336 -360.5t-481.5 -125t-481.5 125.5t-336 361t-123.5 565.5q0 331 123.5 566.5t336 360.5t481.5 125t481.5 -125t336 -360.5t123.5 -566.5zM1659 1024q0 233 -72.5 393.5t-200.5 243t-295 82.5t-295 -82.5t-200.5 -243t-72.5 -393.5
t72.5 -393.5t200.5 -243t295 -82.5t295 82.5t200.5 243t72.5 393.5zM1129 -584q-129 0 -215.5 68t-101.5 196q-11 78 13 158t86 149t164 116l247 -105q-93 -52 -156 -110t-63 -136q0 -48 23.5 -74t75.5 -26q38 0 66.5 10t48.5 18l36 -204q-36 -21 -92 -40.5t-132 -19.5z
M1572 2560v-221h-962v221h962z" />
    <glyph glyph-name="uni020C" unicode="&#x20c;" horiz-adv-x="2182" 
d="M2032 1024q0 -331 -123.5 -566.5t-336 -360.5t-481.5 -125t-481.5 125.5t-336 361t-123.5 565.5q0 331 123.5 566.5t336 360.5t481.5 125t481.5 -125t336 -360.5t123.5 -566.5zM1659 1024q0 233 -72.5 393.5t-200.5 243t-295 82.5t-295 -82.5t-200.5 -243t-72.5 -393.5
t72.5 -393.5t200.5 -243t295 -82.5t295 82.5t200.5 243t72.5 393.5zM877 2250l-344 278l57 179l335 -278zM1344 2250l-288 278l103 179l268 -278z" />
    <glyph glyph-name="uni020E" unicode="&#x20e;" horiz-adv-x="2182" 
d="M2032 1024q0 -331 -123.5 -566.5t-336 -360.5t-481.5 -125t-481.5 125.5t-336 361t-123.5 565.5q0 331 123.5 566.5t336 360.5t481.5 125t481.5 -125t336 -360.5t123.5 -566.5zM1659 1024q0 233 -72.5 393.5t-200.5 243t-295 82.5t-295 -82.5t-200.5 -243t-72.5 -393.5
t72.5 -393.5t200.5 -243t295 -82.5t295 82.5t200.5 243t72.5 393.5zM621 2297q0 175 126 288t343 113q215 0 341 -113t127 -288h-271q-1 74 -46.5 130t-150.5 56q-109 0 -153.5 -57t-44.5 -129h-271z" />
    <glyph glyph-name="uni022A" unicode="&#x22a;" horiz-adv-x="2182" 
d="M2032 1024q0 -331 -123.5 -566.5t-336 -360.5t-481.5 -125t-481.5 125.5t-336 361t-123.5 565.5q0 331 123.5 566.5t336 360.5t481.5 125t481.5 -125t336 -360.5t123.5 -566.5zM1659 1024q0 233 -72.5 393.5t-200.5 243t-295 82.5t-295 -82.5t-200.5 -243t-72.5 -393.5
t72.5 -393.5t200.5 -243t295 -82.5t295 82.5t200.5 243t72.5 393.5zM791 2274q-79 0 -136.5 56t-57.5 132q0 80 57.5 134.5t136.5 54.5q81 0 136.5 -54.5t55.5 -134.5q0 -76 -55.5 -132t-136.5 -56zM1391 2274q-79 0 -136.5 56t-57.5 132q0 80 57.5 134.5t136.5 54.5
q81 0 136.5 -54.5t55.5 -134.5q0 -76 -55.5 -132t-136.5 -56zM1572 3072v-221h-962v221h962z" />
    <glyph glyph-name="uni022C" unicode="&#x22c;" horiz-adv-x="2182" 
d="M2032 1024q0 -331 -123.5 -566.5t-336 -360.5t-481.5 -125t-481.5 125.5t-336 361t-123.5 565.5q0 331 123.5 566.5t336 360.5t481.5 125t481.5 -125t336 -360.5t123.5 -566.5zM1659 1024q0 233 -72.5 393.5t-200.5 243t-295 82.5t-295 -82.5t-200.5 -243t-72.5 -393.5
t72.5 -393.5t200.5 -243t295 -82.5t295 82.5t200.5 243t72.5 393.5zM1340 2561l157 -43q0 -100 -66 -175.5t-167 -75.5q-75 0 -124.5 24t-94 48t-105.5 24q-40 0 -68.5 -36.5t-27.5 -84.5l-156 44q0 97 64 174.5t164 77.5q62 0 113.5 -23t102 -46.5t108.5 -23.5
q39 0 69.5 33t30.5 83zM1574 2922v-226h-966v226h966z" />
    <glyph glyph-name="uni022E" unicode="&#x22e;" horiz-adv-x="2182" 
d="M2032 1024q0 -331 -123.5 -566.5t-336 -360.5t-481.5 -125t-481.5 125.5t-336 361t-123.5 565.5q0 331 123.5 566.5t336 360.5t481.5 125t481.5 -125t336 -360.5t123.5 -566.5zM1659 1024q0 233 -72.5 393.5t-200.5 243t-295 82.5t-295 -82.5t-200.5 -243t-72.5 -393.5
t72.5 -393.5t200.5 -243t295 -82.5t295 82.5t200.5 243t72.5 393.5zM1092 2266q-87 0 -148.5 57.5t-61.5 138.5q0 82 62 139.5t148 57.5t147.5 -57.5t61.5 -139.5q0 -81 -61.5 -138.5t-147.5 -57.5z" />
    <glyph glyph-name="uni0230" unicode="&#x230;" horiz-adv-x="2182" 
d="M2032 1024q0 -331 -123.5 -566.5t-336 -360.5t-481.5 -125t-481.5 125.5t-336 361t-123.5 565.5q0 331 123.5 566.5t336 360.5t481.5 125t481.5 -125t336 -360.5t123.5 -566.5zM1659 1024q0 233 -72.5 393.5t-200.5 243t-295 82.5t-295 -82.5t-200.5 -243t-72.5 -393.5
t72.5 -393.5t200.5 -243t295 -82.5t295 82.5t200.5 243t72.5 393.5zM1091 2396q-87 0 -148.5 57.5t-61.5 138.5q0 82 62 139.5t148 57.5t147.5 -57.5t61.5 -139.5q0 -81 -61.5 -138.5t-147.5 -57.5zM1573 3168v-221h-962v221h962z" />
    <glyph glyph-name="uni1E4C" unicode="&#x1e4c;" horiz-adv-x="2182" 
d="M2032 1024q0 -331 -123.5 -566.5t-336 -360.5t-481.5 -125t-481.5 125.5t-336 361t-123.5 565.5q0 331 123.5 566.5t336 360.5t481.5 125t481.5 -125t336 -360.5t123.5 -566.5zM1659 1024q0 233 -72.5 393.5t-200.5 243t-295 82.5t-295 -82.5t-200.5 -243t-72.5 -393.5
t72.5 -393.5t200.5 -243t295 -82.5t295 82.5t200.5 243t72.5 393.5zM924 2688l282 337h346l-354 -337h-274zM805 2224l-212 5q0 168 89.5 264.5t219.5 96.5q63 0 110 -20.5t86 -47t77.5 -47.5t84.5 -20q55 0 88 41.5t34 104.5l208 -9q-1 -169 -90.5 -263t-219.5 -95
q-71 0 -118 20.5t-83 47t-72 47t-84 20.5q-52 0 -85 -40t-33 -105z" />
    <glyph glyph-name="uni1E4E" unicode="&#x1e4e;" horiz-adv-x="2182" 
d="M2032 1024q0 -331 -123.5 -566.5t-336 -360.5t-481.5 -125t-481.5 125.5t-336 361t-123.5 565.5q0 331 123.5 566.5t336 360.5t481.5 125t481.5 -125t336 -360.5t123.5 -566.5zM1659 1024q0 233 -72.5 393.5t-200.5 243t-295 82.5t-295 -82.5t-200.5 -243t-72.5 -393.5
t72.5 -393.5t200.5 -243t295 -82.5t295 82.5t200.5 243t72.5 393.5zM1339 2545l157 -43q-1 -101 -66.5 -176t-165.5 -75q-76 0 -125 24t-93.5 48t-105.5 24q-40 0 -68.5 -35.5t-27.5 -85.5l-156 44q0 97 63 174.5t165 77.5q62 0 113.5 -23t101.5 -46.5t109 -23.5
q39 0 68.5 34t30.5 82zM598 2787q0 67 47.5 113.5t130.5 46.5q84 0 134 -45.5t50 -114.5q0 -66 -49.5 -111t-134.5 -45q-81 0 -129.5 45t-48.5 111zM1220 2786q-1 68 48.5 114.5t133.5 46.5q82 0 131 -46.5t49 -113.5q0 -66 -48 -112t-133 -46q-83 0 -132.5 45t-48.5 112z
" />
    <glyph glyph-name="uni1E50" unicode="&#x1e50;" horiz-adv-x="2182" 
d="M2032 1024q0 -331 -123.5 -566.5t-336 -360.5t-481.5 -125t-481.5 125.5t-336 361t-123.5 565.5q0 331 123.5 566.5t336 360.5t481.5 125t481.5 -125t336 -360.5t123.5 -566.5zM1659 1024q0 233 -72.5 393.5t-200.5 243t-295 82.5t-295 -82.5t-200.5 -243t-72.5 -393.5
t72.5 -393.5t200.5 -243t295 -82.5t295 82.5t200.5 243t72.5 393.5zM963 2669l-343 337h351l287 -337h-295zM1572 2510v-220h-962v220h962z" />
    <glyph glyph-name="uni1E52" unicode="&#x1e52;" horiz-adv-x="2182" 
d="M2032 1024q0 -331 -123.5 -566.5t-336 -360.5t-481.5 -125t-481.5 125.5t-336 361t-123.5 565.5q0 331 123.5 566.5t336 360.5t481.5 125t481.5 -125t336 -360.5t123.5 -566.5zM1659 1024q0 233 -72.5 393.5t-200.5 243t-295 82.5t-295 -82.5t-200.5 -243t-72.5 -393.5
t72.5 -393.5t200.5 -243t295 -82.5t295 82.5t200.5 243t72.5 393.5zM925 2669l287 337h351l-342 -337h-296zM1572 2510v-220h-962v220h962z" />
    <glyph glyph-name="uni1ECC" unicode="&#x1ecc;" horiz-adv-x="2182" 
d="M2032 1024q0 -331 -123.5 -566.5t-336 -360.5t-481.5 -125t-481.5 125.5t-336 361t-123.5 565.5q0 331 123.5 566.5t336 360.5t481.5 125t481.5 -125t336 -360.5t123.5 -566.5zM1659 1024q0 233 -72.5 393.5t-200.5 243t-295 82.5t-295 -82.5t-200.5 -243t-72.5 -393.5
t72.5 -393.5t200.5 -243t295 -82.5t295 82.5t200.5 243t72.5 393.5zM1092 -552q-87 0 -148.5 57.5t-61.5 138.5q0 82 62 139.5t148 57.5t147.5 -57.5t61.5 -139.5q0 -81 -61.5 -138.5t-147.5 -57.5z" />
    <glyph glyph-name="uni1ECE" unicode="&#x1ece;" horiz-adv-x="2182" 
d="M2032 1024q0 -331 -123.5 -566.5t-336 -360.5t-481.5 -125t-481.5 125.5t-336 361t-123.5 565.5q0 331 123.5 566.5t336 360.5t481.5 125t481.5 -125t336 -360.5t123.5 -566.5zM1659 1024q0 233 -72.5 393.5t-200.5 243t-295 82.5t-295 -82.5t-200.5 -243t-72.5 -393.5
t72.5 -393.5t200.5 -243t295 -82.5t295 82.5t200.5 243t72.5 393.5zM1230 2264h-276l-14 192q106 4 150 27.5t43 65.5q1 54 -58 75t-146 21l9 179q248 0 376 -72t127 -196q1 -95 -65 -141.5t-146 -58.5v-92z" />
    <glyph glyph-name="uni1ED0" unicode="&#x1ed0;" horiz-adv-x="2182" 
d="M2032 1024q0 -331 -123.5 -566.5t-336 -360.5t-481.5 -125t-481.5 125.5t-336 361t-123.5 565.5q0 331 123.5 566.5t336 360.5t481.5 125t481.5 -125t336 -360.5t123.5 -566.5zM1659 1024q0 233 -72.5 393.5t-200.5 243t-295 82.5t-295 -82.5t-200.5 -243t-72.5 -393.5
t72.5 -393.5t200.5 -243t295 -82.5t295 82.5t200.5 243t72.5 393.5zM572 2224l405 329h226l407 -329h-301l-217 184l-218 -184h-302zM1503 2424l222 369h318l-309 -369h-231z" />
    <glyph glyph-name="uni1ED2" unicode="&#x1ed2;" horiz-adv-x="2182" 
d="M2032 1024q0 -331 -123.5 -566.5t-336 -360.5t-481.5 -125t-481.5 125.5t-336 361t-123.5 565.5q0 331 123.5 566.5t336 360.5t481.5 125t481.5 -125t336 -360.5t123.5 -566.5zM1659 1024q0 233 -72.5 393.5t-200.5 243t-295 82.5t-295 -82.5t-200.5 -243t-72.5 -393.5
t72.5 -393.5t200.5 -243t295 -82.5t295 82.5t200.5 243t72.5 393.5zM1203 2547l406 -329h-301l-216 184l-219 -184h-299l402 329h227zM457 2788l221 -370h-226l-312 370h317z" />
    <glyph glyph-name="uni1ED4" unicode="&#x1ed4;" horiz-adv-x="2182" 
d="M2032 1024q0 -331 -123.5 -566.5t-336 -360.5t-481.5 -125t-481.5 125.5t-336 361t-123.5 565.5q0 331 123.5 566.5t336 360.5t481.5 125t481.5 -125t336 -360.5t123.5 -566.5zM1659 1024q0 233 -72.5 393.5t-200.5 243t-295 82.5t-295 -82.5t-200.5 -243t-72.5 -393.5
t72.5 -393.5t200.5 -243t295 -82.5t295 82.5t200.5 243t72.5 393.5zM1216 2536l390 -329h-279l-238 201l-239 -201h-279l390 329h255zM1679 2388h-203l-13 162q85 5 124.5 22.5t39.5 54.5q0 47 -50 64.5t-127 17.5l10 151q196 0 297.5 -60t101.5 -165q0 -81 -56 -121
t-124 -50v-76z" />
    <glyph glyph-name="uni1ED6" unicode="&#x1ed6;" horiz-adv-x="2182" 
d="M2032 1024q0 -331 -123.5 -566.5t-336 -360.5t-481.5 -125t-481.5 125.5t-336 361t-123.5 565.5q0 331 123.5 566.5t336 360.5t481.5 125t481.5 -125t336 -360.5t123.5 -566.5zM1659 1024q0 233 -72.5 393.5t-200.5 243t-295 82.5t-295 -82.5t-200.5 -243t-72.5 -393.5
t72.5 -393.5t200.5 -243t295 -82.5t295 82.5t200.5 243t72.5 393.5zM1197 2512l409 -317h-278l-239 184l-236 -184h-282l410 317h216zM1317 2856l136 -45q0 -81 -56 -148.5t-146 -67.5q-49 0 -86.5 14t-69.5 32t-64.5 32t-71.5 14q-36 0 -62 -30t-25 -67l-132 36
q-1 78 54 146.5t146 68.5q39 0 76 -13t72 -30.5t70.5 -30.5t73.5 -13q34 0 59.5 32.5t25.5 69.5z" />
    <glyph glyph-name="uni1ED8" unicode="&#x1ed8;" horiz-adv-x="2182" 
d="M2032 1024q0 -331 -123.5 -566.5t-336 -360.5t-481.5 -125t-481.5 125.5t-336 361t-123.5 565.5q0 331 123.5 566.5t336 360.5t481.5 125t481.5 -125t336 -360.5t123.5 -566.5zM1659 1024q0 233 -72.5 393.5t-200.5 243t-295 82.5t-295 -82.5t-200.5 -243t-72.5 -393.5
t72.5 -393.5t200.5 -243t295 -82.5t295 82.5t200.5 243t72.5 393.5zM888 2231h-317v15l379 432h283l378 -432v-15h-317l-203 256zM1092 -552q-87 0 -148.5 57.5t-61.5 138.5q0 82 62 139.5t148 57.5t147.5 -57.5t61.5 -139.5q0 -81 -61.5 -138.5t-147.5 -57.5z" />
    <glyph glyph-name="uni1EDA" unicode="&#x1eda;" horiz-adv-x="2254" 
d="M1955 2164h262q0 -284 -130 -441t-401 -157v212q148 0 208.5 102t60.5 284zM2032 1024q0 -331 -123.5 -566.5t-336 -360.5t-481.5 -125t-481.5 125.5t-336 361t-123.5 565.5q0 331 123.5 566.5t336 360.5t481.5 125t481.5 -125t336 -360.5t123.5 -566.5zM1659 1024
q0 233 -72.5 393.5t-200.5 243t-295 82.5t-295 -82.5t-200.5 -243t-72.5 -393.5t72.5 -393.5t200.5 -243t295 -82.5t295 82.5t200.5 243t72.5 393.5zM952 2250l224 457h354l-307 -457h-271z" />
    <glyph glyph-name="uni1EDC" unicode="&#x1edc;" horiz-adv-x="2254" 
d="M1955 2164h262q0 -284 -130 -441t-401 -157v212q148 0 208.5 102t60.5 284zM2032 1024q0 -331 -123.5 -566.5t-336 -360.5t-481.5 -125t-481.5 125.5t-336 361t-123.5 565.5q0 331 123.5 566.5t336 360.5t481.5 125t481.5 -125t336 -360.5t123.5 -566.5zM1659 1024
q0 233 -72.5 393.5t-200.5 243t-295 82.5t-295 -82.5t-200.5 -243t-72.5 -393.5t72.5 -393.5t200.5 -243t295 -82.5t295 82.5t200.5 243t72.5 393.5zM959 2250l-307 457h355l223 -457h-271z" />
    <glyph glyph-name="uni1EDE" unicode="&#x1ede;" horiz-adv-x="2254" 
d="M1955 2164h262q0 -284 -130 -441t-401 -157v212q148 0 208.5 102t60.5 284zM2032 1024q0 -331 -123.5 -566.5t-336 -360.5t-481.5 -125t-481.5 125.5t-336 361t-123.5 565.5q0 331 123.5 566.5t336 360.5t481.5 125t481.5 -125t336 -360.5t123.5 -566.5zM1659 1024
q0 233 -72.5 393.5t-200.5 243t-295 82.5t-295 -82.5t-200.5 -243t-72.5 -393.5t72.5 -393.5t200.5 -243t295 -82.5t295 82.5t200.5 243t72.5 393.5zM1230 2264h-276l-14 192q106 4 150 27.5t43 65.5q1 54 -58 75t-146 21l9 179q248 0 376 -72t127 -196q1 -95 -65 -141.5
t-146 -58.5v-92z" />
    <glyph glyph-name="uni1EE0" unicode="&#x1ee0;" horiz-adv-x="2254" 
d="M1955 2164h262q0 -284 -130 -441t-401 -157v212q148 0 208.5 102t60.5 284zM2032 1024q0 -331 -123.5 -566.5t-336 -360.5t-481.5 -125t-481.5 125.5t-336 361t-123.5 565.5q0 331 123.5 566.5t336 360.5t481.5 125t481.5 -125t336 -360.5t123.5 -566.5zM1659 1024
q0 233 -72.5 393.5t-200.5 243t-295 82.5t-295 -82.5t-200.5 -243t-72.5 -393.5t72.5 -393.5t200.5 -243t295 -82.5t295 82.5t200.5 243t72.5 393.5zM797 2235l-219 5q0 178 92 279t227 101q65 0 113 -21.5t88.5 -49.5t79.5 -49.5t86 -21.5q57 0 90.5 43t34.5 110l215 -9
q-1 -179 -93 -277.5t-226 -99.5q-72 -1 -121 21t-85.5 50t-73.5 49.5t-87 21.5q-53 0 -87 -42t-34 -110z" />
    <glyph glyph-name="uni1EE2" unicode="&#x1ee2;" horiz-adv-x="2254" 
d="M1955 2164h262q0 -284 -130 -441t-401 -157v212q148 0 208.5 102t60.5 284zM2032 1024q0 -331 -123.5 -566.5t-336 -360.5t-481.5 -125t-481.5 125.5t-336 361t-123.5 565.5q0 331 123.5 566.5t336 360.5t481.5 125t481.5 -125t336 -360.5t123.5 -566.5zM1659 1024
q0 233 -72.5 393.5t-200.5 243t-295 82.5t-295 -82.5t-200.5 -243t-72.5 -393.5t72.5 -393.5t200.5 -243t295 -82.5t295 82.5t200.5 243t72.5 393.5zM1092 -552q-87 0 -148.5 57.5t-61.5 138.5q0 82 62 139.5t148 57.5t147.5 -57.5t61.5 -139.5q0 -81 -61.5 -138.5
t-147.5 -57.5z" />
    <glyph glyph-name="uni01FE" unicode="&#x1fe;" horiz-adv-x="2182" 
d="M453 -94l-181 124l1453 2108l181 -124zM2032 1024q0 -331 -123.5 -566.5t-336 -360.5t-481.5 -125t-481.5 125.5t-336 361t-123.5 565.5q0 331 123.5 566.5t336 360.5t481.5 125t481.5 -125t336 -360.5t123.5 -566.5zM1659 1024q0 233 -72.5 393.5t-200.5 243t-295 82.5
t-295 -82.5t-200.5 -243t-72.5 -393.5t72.5 -393.5t200.5 -243t295 -82.5t295 82.5t200.5 243t72.5 393.5zM952 2250l224 457h354l-307 -457h-271z" />
    <glyph glyph-name="uni039F" unicode="&#x39f;" horiz-adv-x="2182" 
d="M2032 1024q0 -331 -123.5 -566.5t-336 -360.5t-481.5 -125t-481.5 125.5t-336 361t-123.5 565.5q0 331 123.5 566.5t336 360.5t481.5 125t481.5 -125t336 -360.5t123.5 -566.5zM1659 1024q0 233 -72.5 393.5t-200.5 243t-295 82.5t-295 -82.5t-200.5 -243t-72.5 -393.5
t72.5 -393.5t200.5 -243t295 -82.5t295 82.5t200.5 243t72.5 393.5z" />
    <glyph glyph-name="uni038C" unicode="&#x38c;" horiz-adv-x="2243" 
d="M2139 1024q0 -331 -123.5 -566.5t-336 -360.5t-481.5 -125t-481.5 125.5t-336 361t-123.5 565.5q0 331 123.5 566.5t336 360.5t481.5 125t481.5 -125t336 -360.5t123.5 -566.5zM1766 1024q0 233 -72.5 393.5t-200.5 243t-295 82.5t-295 -82.5t-200.5 -243t-72.5 -393.5
t72.5 -393.5t200.5 -243t295 -82.5t295 82.5t200.5 243t72.5 393.5zM-25 1716l93 473h339l-211 -473h-221z" />
    <glyph glyph-name="uni1F48" unicode="&#x1f48;" horiz-adv-x="2301" 
d="M2197 1024q0 -331 -123.5 -566.5t-336 -360.5t-481.5 -125t-481.5 125.5t-336 361t-123.5 565.5q0 331 123.5 566.5t336 360.5t481.5 125t481.5 -125t336 -360.5t123.5 -566.5zM1824 1024q0 233 -72.5 393.5t-200.5 243t-295 82.5t-295 -82.5t-200.5 -243t-72.5 -393.5
t72.5 -393.5t200.5 -243t295 -82.5t295 82.5t200.5 243t72.5 393.5zM329 2048v-125q0 -84 -29.5 -154.5t-83 -125.5t-126.5 -91l-114 111q40 33 64.5 73t35 88.5t10.5 106.5v117h243z" />
    <glyph glyph-name="uni1F49" unicode="&#x1f49;" horiz-adv-x="2395" 
d="M2291 1024q0 -331 -123.5 -566.5t-336 -360.5t-481.5 -125t-481.5 125.5t-336 361t-123.5 565.5q0 331 123.5 566.5t336 360.5t481.5 125t481.5 -125t336 -360.5t123.5 -566.5zM1918 1024q0 233 -72.5 393.5t-200.5 243t-295 82.5t-295 -82.5t-200.5 -243t-72.5 -393.5
t72.5 -393.5t200.5 -243t295 -82.5t295 82.5t200.5 243t72.5 393.5zM108 1923v125h244v-117q1 -54 11 -102.5t33.5 -90t64.5 -75.5l-114 -111q-106 54 -172.5 149.5t-66.5 221.5z" />
    <glyph glyph-name="uni1F4A" unicode="&#x1f4a;" horiz-adv-x="2819" 
d="M2715 1024q0 -331 -123.5 -566.5t-336 -360.5t-481.5 -125t-481.5 125.5t-336 361t-123.5 565.5q0 331 123.5 566.5t336 360.5t481.5 125t481.5 -125t336 -360.5t123.5 -566.5zM2342 1024q0 233 -72.5 393.5t-200.5 243t-295 82.5t-295 -82.5t-200.5 -243t-72.5 -393.5
t72.5 -393.5t200.5 -243t295 -82.5t295 82.5t200.5 243t72.5 393.5zM866 1604v-20h-131l-322 436v28h294zM349 2048v-112q0 -80 -30.5 -151t-88.5 -130t-140 -103l-109 84q55 63 84.5 136.5t28.5 171.5v104h255z" />
    <glyph glyph-name="uni1F4B" unicode="&#x1f4b;" horiz-adv-x="2706" 
d="M2602 1024q0 -331 -123.5 -566.5t-336 -360.5t-481.5 -125t-481.5 125.5t-336 361t-123.5 565.5q0 331 123.5 566.5t336 360.5t481.5 125t481.5 -125t336 -360.5t123.5 -566.5zM2229 1024q0 233 -72.5 393.5t-200.5 243t-295 82.5t-295 -82.5t-200.5 -243t-72.5 -393.5
t72.5 -393.5t200.5 -243t295 -82.5t295 82.5t200.5 243t72.5 393.5zM758 1610v-28h-131l-322 438v28h298zM-47 1923v125h247v-117q-1 -81 22.5 -149t87.5 -119l-114 -111q-110 54 -176.5 149.5t-66.5 221.5z" />
    <glyph glyph-name="uni1F4C" unicode="&#x1f4c;" horiz-adv-x="2604" 
d="M2500 1024q0 -331 -123.5 -566.5t-336 -360.5t-481.5 -125t-481.5 125.5t-336 361t-123.5 565.5q0 331 123.5 566.5t336 360.5t481.5 125t481.5 -125t336 -360.5t123.5 -566.5zM2127 1024q0 233 -72.5 393.5t-200.5 243t-295 82.5t-295 -82.5t-200.5 -243t-72.5 -393.5
t72.5 -393.5t200.5 -243t295 -82.5t295 82.5t200.5 243t72.5 393.5zM375 1582v28l160 438h294v-28l-322 -438h-132zM341 2048v-125q0 -83 -30.5 -154t-85 -126t-126.5 -91l-115 111q62 51 86 119t25 149v117h246z" />
    <glyph glyph-name="uni1F4D" unicode="&#x1f4d;" horiz-adv-x="2636" 
d="M2532 1024q0 -331 -123.5 -566.5t-336 -360.5t-481.5 -125t-481.5 125.5t-336 361t-123.5 565.5q0 331 123.5 566.5t336 360.5t481.5 125t481.5 -125t336 -360.5t123.5 -566.5zM2159 1024q0 233 -72.5 393.5t-200.5 243t-295 82.5t-295 -82.5t-200.5 -243t-72.5 -393.5
t72.5 -393.5t200.5 -243t295 -82.5t295 82.5t200.5 243t72.5 393.5zM405 1582v28l154 438h298v-28l-324 -438h-128zM-18 1923v125h245v-117q0 -87 25 -152.5t84 -115.5l-115 -111q-104 53 -171 148t-68 223z" />
    <glyph glyph-name="uni1FF8" unicode="&#x1ff8;" horiz-adv-x="2391" 
d="M2287 1024q0 -331 -123.5 -566.5t-336 -360.5t-481.5 -125t-481.5 125.5t-336 361t-123.5 565.5q0 331 123.5 566.5t336 360.5t481.5 125t481.5 -125t336 -360.5t123.5 -566.5zM1914 1024q0 233 -72.5 393.5t-200.5 243t-295 82.5t-295 -82.5t-200.5 -243t-72.5 -393.5
t72.5 -393.5t200.5 -243t295 -82.5t295 82.5t200.5 243t72.5 393.5zM431 1580h-128l-322 440v28h294l156 -434v-34z" />
    <glyph glyph-name="uni03F4" unicode="&#x3f4;" horiz-adv-x="2182" 
d="M1701 1158v-264q-134 -58 -240 -68.5t-196 7t-174 46t-173.5 49.5t-195.5 17.5t-240 -51.5v264q134 58 240 67.5t195.5 -8.5t173.5 -46.5t174 -49t196 -16t240 52.5zM2032 1024q0 -331 -123.5 -566.5t-336 -360.5t-481.5 -125t-481.5 125.5t-336 361t-123.5 565.5
q0 331 123.5 566.5t336 360.5t481.5 125t481.5 -125t336 -360.5t123.5 -566.5zM1659 1024q0 233 -72.5 393.5t-200.5 243t-295 82.5t-295 -82.5t-200.5 -243t-72.5 -393.5t72.5 -393.5t200.5 -243t295 -82.5t295 82.5t200.5 243t72.5 393.5z" />
    <glyph glyph-name="uni1FF9" unicode="&#x1ff9;" horiz-adv-x="2206" 
d="M2102 1024q0 -331 -123.5 -566.5t-336 -360.5t-481.5 -125t-481.5 125.5t-336 361t-123.5 565.5q0 331 123.5 566.5t336 360.5t481.5 125t481.5 -125t336 -360.5t123.5 -566.5zM1729 1024q0 233 -72.5 393.5t-200.5 243t-295 82.5t-295 -82.5t-200.5 -243t-72.5 -393.5
t72.5 -393.5t200.5 -243t295 -82.5t295 82.5t200.5 243t72.5 393.5zM88 1728v34l156 434h351v-28l-323 -440h-184z" />
    <glyph glyph-name="uni041E" unicode="&#x41e;" horiz-adv-x="2182" 
d="M2032 1024q0 -331 -123.5 -566.5t-336 -360.5t-481.5 -125t-481.5 125.5t-336 361t-123.5 565.5q0 331 123.5 566.5t336 360.5t481.5 125t481.5 -125t336 -360.5t123.5 -566.5zM1659 1024q0 233 -72.5 393.5t-200.5 243t-295 82.5t-295 -82.5t-200.5 -243t-72.5 -393.5
t72.5 -393.5t200.5 -243t295 -82.5t295 82.5t200.5 243t72.5 393.5z" />
    <glyph glyph-name="uni04E6" unicode="&#x4e6;" horiz-adv-x="2182" 
d="M2032 1024q0 -331 -123.5 -566.5t-336 -360.5t-481.5 -125t-481.5 125.5t-336 361t-123.5 565.5q0 331 123.5 566.5t336 360.5t481.5 125t481.5 -125t336 -360.5t123.5 -566.5zM1659 1024q0 233 -72.5 393.5t-200.5 243t-295 82.5t-295 -82.5t-200.5 -243t-72.5 -393.5
t72.5 -393.5t200.5 -243t295 -82.5t295 82.5t200.5 243t72.5 393.5zM792 2274q-79 0 -136.5 56t-57.5 132q0 80 57.5 134.5t136.5 54.5q81 0 136.5 -54.5t55.5 -134.5q0 -76 -55.5 -132t-136.5 -56zM1392 2274q-79 0 -136.5 56t-57.5 132q0 80 57.5 134.5t136.5 54.5
q81 0 136.5 -54.5t55.5 -134.5q0 -76 -55.5 -132t-136.5 -56z" />
    <glyph glyph-name="uni019F" unicode="&#x19f;" horiz-adv-x="2182" 
d="M1701 1158v-264q-134 -58 -240 -68.5t-196 7t-174 46t-173.5 49.5t-195.5 17.5t-240 -51.5v264q134 58 240 67.5t195.5 -8.5t173.5 -46.5t174 -49t196 -16t240 52.5zM2032 1024q0 -331 -123.5 -566.5t-336 -360.5t-481.5 -125t-481.5 125.5t-336 361t-123.5 565.5
q0 331 123.5 566.5t336 360.5t481.5 125t481.5 -125t336 -360.5t123.5 -566.5zM1659 1024q0 233 -72.5 393.5t-200.5 243t-295 82.5t-295 -82.5t-200.5 -243t-72.5 -393.5t72.5 -393.5t200.5 -243t295 -82.5t295 82.5t200.5 243t72.5 393.5z" />
    <glyph glyph-name="uni04E8" unicode="&#x4e8;" horiz-adv-x="2182" 
d="M1701 1158v-264q-134 -58 -240 -68.5t-196 7t-174 46t-173.5 49.5t-195.5 17.5t-240 -51.5v264q134 58 240 67.5t195.5 -8.5t173.5 -46.5t174 -49t196 -16t240 52.5zM2032 1024q0 -331 -123.5 -566.5t-336 -360.5t-481.5 -125t-481.5 125.5t-336 361t-123.5 565.5
q0 331 123.5 566.5t336 360.5t481.5 125t481.5 -125t336 -360.5t123.5 -566.5zM1659 1024q0 233 -72.5 393.5t-200.5 243t-295 82.5t-295 -82.5t-200.5 -243t-72.5 -393.5t72.5 -393.5t200.5 -243t295 -82.5t295 82.5t200.5 243t72.5 393.5z" />
    <glyph glyph-name="uni04EA" unicode="&#x4ea;" horiz-adv-x="2182" 
d="M1701 1158v-264q-134 -58 -240 -68.5t-196 7t-174 46t-173.5 49.5t-195.5 17.5t-240 -51.5v264q134 58 240 67.5t195.5 -8.5t173.5 -46.5t174 -49t196 -16t240 52.5zM2032 1024q0 -331 -123.5 -566.5t-336 -360.5t-481.5 -125t-481.5 125.5t-336 361t-123.5 565.5
q0 331 123.5 566.5t336 360.5t481.5 125t481.5 -125t336 -360.5t123.5 -566.5zM1659 1024q0 233 -72.5 393.5t-200.5 243t-295 82.5t-295 -82.5t-200.5 -243t-72.5 -393.5t72.5 -393.5t200.5 -243t295 -82.5t295 82.5t200.5 243t72.5 393.5zM792 2274q-79 0 -136.5 56
t-57.5 132q0 80 57.5 134.5t136.5 54.5q81 0 136.5 -54.5t55.5 -134.5q0 -76 -55.5 -132t-136.5 -56zM1392 2274q-79 0 -136.5 56t-57.5 132q0 80 57.5 134.5t136.5 54.5q81 0 136.5 -54.5t55.5 -134.5q0 -76 -55.5 -132t-136.5 -56z" />
    <glyph glyph-name="uni0152" unicode="&#x152;" horiz-adv-x="2806" 
d="M1072 0q-268 0 -476 121t-327 350t-119 551q0 325 119 554.5t327 350.5t476 121h1556v-311h-961v-556h892v-311h-892v-559h969v-311h-1564zM1296 311v1426h-224q-163 0 -287.5 -80.5t-194.5 -240t-70 -394.5q0 -234 70 -392t194.5 -238.5t287.5 -80.5h224z" />
    <glyph glyph-name="uni0050" unicode="P" horiz-adv-x="1812" 
d="M202 0v2048h768q236 0 396.5 -88t243 -241.5t82.5 -348.5q0 -197 -83 -350t-245 -240.5t-399 -87.5h-509v305h459q138 0 226 48t130.5 132t42.5 193t-42.5 192t-131 129.5t-227.5 46.5h-340v-1738h-371z" />
    <glyph glyph-name="uni1E54" unicode="&#x1e54;" horiz-adv-x="1812" 
d="M202 0v2048h768q236 0 396.5 -88t243 -241.5t82.5 -348.5q0 -197 -83 -350t-245 -240.5t-399 -87.5h-509v305h459q138 0 226 48t130.5 132t42.5 193t-42.5 192t-131 129.5t-227.5 46.5h-340v-1738h-371zM758 2250l224 457h354l-307 -457h-271z" />
    </font>
</defs>
</svg>
