<?xml version="1.0" standalone="no"?>
<!DOCTYPE svg PUBLIC "-//W3C//DTD SVG 1.1//EN" "http://www.w3.org/Graphics/SVG/1.1/DTD/svg11.dtd" >
<svg xmlns="http://www.w3.org/2000/svg" xmlns:xlink="http://www.w3.org/1999/xlink" version="1.1">
<metadata>
Created by FontForge 20200511 at Mon Feb  3 19:34:06 2014
 By convertio
Copyright (c) 2012 by The Entente (AS&#38;EH). All rights reserved.
</metadata>
<defs>
<font id="Value-Bold" horiz-adv-x="1171" >
  <font-face 
    font-family="Value"
    font-weight="700"
    font-stretch="normal"
    units-per-em="2048"
    panose-1="2 11 8 3 3 2 4 2 2 3"
    ascent="1638"
    descent="-410"
    x-height="1012"
    cap-height="1434"
    bbox="-285 -700 2218 2134"
    underline-thickness="102"
    underline-position="-204"
    unicode-range="U+000D-FB02"
  />
<missing-glyph horiz-adv-x="645" 
 />
    <glyph glyph-name="fi" unicode="fi" horiz-adv-x="1247" 
d="M182 782h-112v230h112v110c0 117 44 211 111 263s144 77 225 77c66 0 125 -14 178 -43l11 -237h-25c-35 35 -78 53 -127 53c-63 0 -102 -40 -102 -109v-114h163v-230h-163v-782h-271v782zM819 1319c0 47 16 88 49 121c33 34 73 51 119 51c47 0 88 -17 121 -51
c34 -33 51 -74 51 -121c0 -46 -17 -86 -51 -119c-33 -33 -74 -49 -121 -49c-46 0 -86 16 -119 49s-49 73 -49 119zM1124 0h-270v1012h270v-1012z" />
    <glyph glyph-name="fl" unicode="fl" horiz-adv-x="1224" 
d="M182 782h-112v230h112v110c0 117 44 211 111 263s144 77 225 77c66 0 125 -14 178 -43l11 -237h-25c-35 35 -78 53 -127 53c-63 0 -102 -40 -102 -109v-114h163v-230h-163v-782h-271v782zM1114 0h-270v1475h270v-1475z" />
    <glyph glyph-name=".notdef" horiz-adv-x="645" 
 />
    <glyph glyph-name="NULL" horiz-adv-x="0" 
 />
    <glyph glyph-name="NULL" horiz-adv-x="0" 
 />
    <glyph glyph-name="CR.001" horiz-adv-x="682" 
 />
    <glyph glyph-name="CR" unicode="&#xd;" horiz-adv-x="0" 
 />
    <glyph glyph-name="space" unicode=" " horiz-adv-x="645" 
 />
    <glyph glyph-name="exclam" unicode="!" horiz-adv-x="602" 
d="M191 19c-32 33 -48 72 -48 118s16 85 48 117c33 33 72 49 118 49s85 -16 117 -49c33 -32 49 -71 49 -117s-16 -85 -49 -118c-32 -32 -71 -48 -117 -48s-85 16 -118 48zM444 451h-270v983h270v-983z" />
    <glyph glyph-name="quotedbl" unicode="&#x22;" horiz-adv-x="815" 
d="M127 952l-45 482h283l-46 -482h-192zM496 952l-45 482h282l-45 -482h-192z" />
    <glyph glyph-name="numbersign" unicode="#" horiz-adv-x="1492" 
d="M301 367h-240l48 221h233l47 258h-244l48 221h237l68 367h250l-68 -367h262l70 367h250l-70 -367h240l-48 -221h-233l-47 -258h244l-48 -221h-237l-68 -367h-250l68 367h-262l-70 -367h-250zM639 846l-47 -258h262l47 258h-262z" />
    <glyph glyph-name="dollar" unicode="$" horiz-adv-x="1054" 
d="M88 111l16 335h21c105 -135 215 -210 332 -225v424l-13 6c-229 105 -346 230 -346 418c0 107 34 195 102 265c69 70 154 112 257 126v129h159v-129c115 -14 205 -49 269 -106l10 -305h-27c-85 89 -169 144 -252 165v-356c7 -5 18 -9 33 -14c113 -51 197 -110 254 -177
c57 -66 86 -152 86 -259c0 -113 -34 -209 -102 -286s-158 -125 -271 -142v-136h-159v127c-153 11 -284 68 -369 140zM358 1081c0 -55 30 -95 99 -139v272c-66 -19 -99 -64 -99 -133zM616 559v-311c55 31 82 82 82 153c0 63 -27 116 -82 158z" />
    <glyph glyph-name="percent" unicode="%" horiz-adv-x="1327" 
d="M174 908c-65 63 -98 140 -98 231s33 168 98 230c66 62 145 93 238 93s172 -31 237 -93c66 -62 99 -139 99 -230s-33 -168 -99 -231c-65 -62 -144 -93 -237 -93s-172 31 -238 93zM211 403l-68 129l961 498l67 -129zM307 1245c-29 -27 -43 -62 -43 -106s14 -80 43 -107
s64 -41 105 -41s76 14 104 41c29 27 43 63 43 107s-14 79 -43 106c-28 27 -63 41 -104 41s-76 -14 -105 -41zM665 64c-65 63 -98 140 -98 231s33 168 98 230c66 62 145 93 238 93s172 -31 237 -93c66 -62 99 -139 99 -230s-33 -168 -99 -231c-65 -62 -144 -93 -237 -93
s-172 31 -238 93zM798 401c-28 -27 -42 -62 -42 -106s14 -80 42 -107c29 -27 64 -41 105 -41s76 14 105 41s43 63 43 107s-14 79 -43 106s-64 41 -105 41s-76 -14 -105 -41z" />
    <glyph glyph-name="ampersand" unicode="&#x26;" horiz-adv-x="1304" 
d="M57 397c0 82 23 159 69 232s108 131 187 174c-60 85 -104 193 -104 289c0 76 19 142 56 199c75 115 200 171 341 171c118 0 211 -30 280 -90c69 -59 103 -138 103 -237c0 -84 -23 -157 -70 -220c-47 -62 -124 -122 -233 -180l209 -258c51 72 107 164 168 277h37l63 -301
c-33 -69 -67 -128 -104 -177l225 -276h-332l-75 94c-112 -82 -239 -123 -381 -123c-129 0 -234 39 -316 116s-123 181 -123 310zM348 408c0 -119 75 -191 195 -191c58 0 118 23 180 70l-260 327c-77 -54 -115 -123 -115 -206zM459 1104c0 -54 29 -120 88 -197
c147 67 198 132 198 215c0 88 -56 135 -139 135c-41 0 -76 -14 -105 -43c-28 -29 -42 -65 -42 -110z" />
    <glyph glyph-name="quotesingle" unicode="'" horiz-adv-x="446" 
d="M127 952l-45 482h283l-46 -482h-192z" />
    <glyph glyph-name="parenleft" unicode="(" horiz-adv-x="655" 
d="M414 1434h200c-161 -268 -241 -584 -241 -949c0 -364 80 -680 241 -948h-200c-90 119 -165 261 -224 426s-88 339 -88 522s29 357 88 522s134 308 224 427z" />
    <glyph glyph-name="parenright" unicode=")" horiz-adv-x="655" 
d="M242 -463h-201c161 269 242 585 242 948c0 364 -81 680 -242 949h201c90 -119 164 -261 223 -426s88 -339 88 -523c0 -183 -29 -357 -88 -522s-133 -307 -223 -426z" />
    <glyph glyph-name="asterisk" unicode="*" horiz-adv-x="856" 
d="M174 850l-84 145l6 27l287 72l-287 71l-6 27l84 145l29 9l198 -205l-77 272l20 21h168l20 -21l-77 -272l198 205l29 -9l84 -145l-6 -27l-287 -71l287 -72l6 -27l-84 -145l-29 -8l-198 205l77 -273l-20 -20h-168l-20 20l77 273l-198 -205z" />
    <glyph glyph-name="plus" unicode="+" horiz-adv-x="1036" 
d="M410 643h-320v217h320v320h217v-320h319v-217h-319v-319h-217v319z" />
    <glyph glyph-name="comma" unicode="," horiz-adv-x="495" 
d="M90 127c0 44 15 82 46 113s67 47 110 47c44 0 82 -16 113 -47s47 -69 47 -113c0 -105 -27 -191 -79 -252c-52 -63 -104 -101 -184 -145l-18 51c73 48 112 111 119 190c-43 0 -79 15 -109 45c-30 31 -45 68 -45 111z" />
    <glyph glyph-name="hyphen" unicode="-" horiz-adv-x="827" 
d="M750 541h-672v217h672v-217z" />
    <glyph glyph-name="period" unicode="." horiz-adv-x="495" 
d="M90 127c0 44 15 82 46 113s67 47 110 47c44 0 82 -16 113 -47s47 -69 47 -113c0 -43 -16 -79 -47 -110s-69 -46 -113 -46c-43 0 -79 15 -110 45c-31 31 -46 68 -46 111z" />
    <glyph glyph-name="slash" unicode="/" horiz-adv-x="1193" 
d="M346 0h-315l817 1434h315z" />
    <glyph glyph-name="zero" unicode="0" horiz-adv-x="1449" 
d="M92 717c0 213 62 401 170 533s272 212 463 212s355 -80 463 -212s170 -320 170 -533c0 -143 -25 -270 -76 -383c-51 -112 -124 -201 -221 -266s-209 -97 -336 -97s-239 32 -336 97s-170 154 -221 266c-51 113 -76 240 -76 383zM469 1082c-57 -86 -86 -208 -86 -365
s29 -279 86 -366c58 -87 143 -130 256 -130s198 43 255 130c58 87 87 209 87 366s-29 279 -87 365c-57 87 -142 130 -255 130s-198 -43 -256 -130z" />
    <glyph glyph-name="one" unicode="1" horiz-adv-x="536" 
d="M414 0h-291v1300l194 134h97v-1434z" />
    <glyph glyph-name="two" unicode="2" horiz-adv-x="1134" 
d="M1051 0h-994v41l557 698c77 99 113 179 113 271c0 124 -83 207 -215 207c-65 0 -129 -22 -194 -65s-117 -96 -158 -159h-31l16 312c49 49 110 88 181 115c71 28 144 42 217 42c147 0 261 -38 342 -113s121 -176 121 -305c0 -79 -15 -154 -46 -227
c-31 -72 -80 -150 -149 -233l-281 -338h521v-246z" />
    <glyph glyph-name="three" unicode="3" horiz-adv-x="1165" 
d="M598 1188h-487v246h919v-41l-328 -424c235 -44 375 -205 375 -465c0 -166 -49 -296 -147 -391c-97 -95 -228 -142 -393 -142c-149 0 -276 29 -383 88l-33 295h31c69 -45 132 -80 187 -103s118 -34 187 -34c141 0 273 80 273 277c0 83 -26 151 -77 202
c-51 52 -123 78 -216 78c-49 0 -100 -5 -152 -16l-28 63z" />
    <glyph glyph-name="four" unicode="4" horiz-adv-x="1165" 
d="M664 328h-633v143l827 963h96v-861h150v-245h-150v-328h-290v328zM664 905l-275 -332h275v332z" />
    <glyph glyph-name="five" unicode="5" horiz-adv-x="1146" 
d="M154 31l-62 321h27c121 -90 249 -135 385 -135c183 0 295 85 295 256c0 81 -25 145 -76 191c-50 46 -118 69 -205 69c-104 0 -221 -32 -352 -96l-66 10l93 787h823v-246h-604l-43 -260c67 27 138 41 213 41c323 0 495 -177 495 -486c0 -105 -25 -196 -74 -275
c-99 -156 -269 -237 -473 -237c-57 0 -108 3 -151 8s-76 11 -101 17c-24 6 -65 18 -124 35z" />
    <glyph glyph-name="six" unicode="6" horiz-adv-x="1200" 
d="M80 647c0 172 30 330 97 469c96 205 275 345 530 346c107 0 195 -23 266 -69l28 -273h-34c-83 65 -170 97 -260 97c-91 0 -166 -35 -227 -105c-60 -70 -96 -167 -109 -291c31 29 74 54 129 75s114 32 176 32c132 0 241 -44 326 -131s128 -197 128 -332
c0 -90 -23 -173 -68 -249c-45 -75 -107 -135 -186 -179c-78 -44 -163 -66 -255 -66c-169 0 -323 70 -412 193c-86 119 -129 280 -129 483zM445 625c-43 -45 -64 -101 -64 -170s21 -126 64 -171s100 -67 171 -67s128 22 171 67s65 102 65 171s-22 125 -65 170
s-100 67 -171 67s-128 -22 -171 -67z" />
    <glyph glyph-name="seven" unicode="7" horiz-adv-x="1144" 
d="M713 1188h-623v246h1034v-41l-698 -1393h-315z" />
    <glyph glyph-name="eight" unicode="8" horiz-adv-x="1155" 
d="M82 410c0 180 79 287 215 364c-109 89 -164 184 -164 311c0 105 42 194 126 267c85 73 191 110 319 110s234 -37 318 -110s126 -162 126 -267c0 -127 -55 -222 -164 -311c136 -77 215 -184 215 -364c0 -81 -27 -166 -83 -242c-79 -110 -224 -197 -412 -197
c-152 0 -287 59 -368 144c-81 87 -128 192 -128 295zM425 601c-43 -42 -65 -96 -65 -161s22 -119 65 -161c43 -41 94 -62 153 -62s109 21 152 62c43 42 65 96 65 161s-22 119 -65 161s-93 63 -152 63s-110 -21 -153 -63zM457 1182c-30 -31 -45 -71 -45 -119s15 -88 45 -119
c31 -31 71 -47 121 -47s90 16 120 47s45 71 45 119s-15 88 -45 119s-70 47 -120 47s-90 -16 -121 -47z" />
    <glyph glyph-name="nine" unicode="9" horiz-adv-x="1200" 
d="M70 969c0 90 23 173 68 248c46 76 108 136 186 179c79 44 164 66 256 66c85 0 163 -17 236 -50s131 -81 175 -142c86 -119 129 -280 129 -484c0 -172 -30 -330 -97 -469c-95 -205 -274 -345 -529 -346c-107 0 -196 23 -267 70l-28 272h34c83 -64 170 -96 261 -96
s166 35 226 104c60 70 96 167 109 291c-31 -29 -74 -54 -129 -75s-114 -31 -176 -31c-132 0 -241 43 -326 130s-128 198 -128 333zM412 1149c-43 -45 -64 -101 -64 -170s21 -126 64 -171s101 -67 172 -67s128 22 171 67s64 102 64 171s-21 125 -64 170s-100 68 -171 68
s-129 -23 -172 -68z" />
    <glyph glyph-name="colon" unicode=":" horiz-adv-x="495" 
d="M90 127c0 44 15 82 46 113s67 47 110 47c44 0 82 -16 113 -47s47 -69 47 -113c0 -43 -16 -79 -47 -110s-69 -46 -113 -46c-43 0 -79 15 -110 45c-31 31 -46 68 -46 111zM90 823c0 44 15 82 46 113s67 47 110 47c44 0 82 -16 113 -47s47 -69 47 -113
c0 -43 -16 -79 -47 -110c-31 -30 -69 -45 -113 -45c-43 0 -80 15 -111 45c-30 31 -45 67 -45 110z" />
    <glyph glyph-name="semicolon" unicode=";" horiz-adv-x="495" 
d="M90 127c0 44 15 82 46 113s67 47 110 47c44 0 82 -16 113 -47s47 -69 47 -113c0 -105 -27 -191 -79 -252c-52 -63 -104 -101 -184 -145l-18 51c73 48 112 111 119 190c-43 0 -79 15 -109 45c-30 31 -45 68 -45 111zM90 823c0 44 15 82 46 113s67 47 110 47
c44 0 82 -16 113 -47s47 -69 47 -113c0 -43 -16 -79 -47 -110c-31 -30 -69 -45 -113 -45c-43 0 -80 15 -111 45c-30 31 -45 67 -45 110z" />
    <glyph glyph-name="less" unicode="&#x3c;" horiz-adv-x="876" 
d="M743 184l-653 434v185l653 434h43v-246l-450 -280l450 -281v-246h-43z" />
    <glyph glyph-name="equal" unicode="=" horiz-adv-x="1036" 
d="M946 356h-856v217h856v-217zM946 807h-856v217h856v-217z" />
    <glyph glyph-name="greater" unicode="&#x3e;" horiz-adv-x="876" 
d="M133 184h-43v246l451 281l-451 280v246h43l653 -434v-185z" />
    <glyph glyph-name="question" unicode="?" horiz-adv-x="1044" 
d="M139 1059h-26l18 297c92 65 219 106 340 106c239 3 419 -119 420 -352c0 -51 -7 -97 -22 -140c-28 -85 -71 -134 -122 -191l-69 -78c-41 -45 -74 -114 -74 -187v-63h-270v38c0 53 7 102 21 147c29 91 73 142 122 199c25 29 48 55 69 77c43 44 75 106 75 169
c0 91 -66 148 -179 148c-57 0 -114 -18 -169 -53s-99 -74 -134 -117zM359 19c-32 33 -48 72 -48 118s16 85 48 117c33 33 72 49 118 49s85 -16 117 -49c33 -32 49 -71 49 -117s-16 -85 -49 -118c-32 -32 -71 -48 -117 -48s-85 16 -118 48z" />
    <glyph glyph-name="at" unicode="@" horiz-adv-x="1832" 
d="M102 645c0 116 22 225 66 327c45 102 104 188 179 259s163 128 264 169s208 62 319 62c149 0 284 -33 406 -100c123 -66 219 -158 289 -275c71 -117 106 -246 106 -389c0 -136 -33 -242 -100 -318s-148 -114 -245 -114c-119 0 -205 60 -249 152
c-69 -101 -166 -152 -289 -152c-176 0 -356 146 -356 387c0 108 35 199 106 274s159 113 262 113c92 0 178 -36 219 -88v68h195v-422c0 -111 45 -156 112 -156c76 0 132 63 132 203c0 197 -53 350 -158 457c-105 108 -249 162 -430 162c-117 0 -221 -27 -314 -82
c-93 -54 -165 -128 -216 -222s-76 -199 -76 -315c0 -117 24 -223 72 -316s118 -167 211 -222s200 -82 323 -82c117 0 243 37 379 110h34l-14 -205c-125 -69 -258 -104 -399 -104c-237 0 -451 88 -596 232c-144 144 -232 354 -232 587zM887 442c61 0 109 20 145 61
c37 41 55 91 55 150s-18 108 -55 149c-36 41 -84 62 -145 62c-60 0 -109 -21 -146 -62s-55 -90 -55 -149s18 -109 55 -150s86 -61 146 -61z" />
    <glyph glyph-name="A" unicode="A" horiz-adv-x="1425" 
d="M317 0h-282l635 1434h86l635 -1434h-283l-107 246h-577zM713 926l-187 -434h373z" />
    <glyph glyph-name="B" unicode="B" horiz-adv-x="1245" 
d="M705 0h-582v1434h506c154 0 273 -33 357 -100c84 -66 126 -155 126 -267c0 -149 -89 -257 -217 -313c85 -23 153 -64 206 -125s79 -135 79 -223c0 -86 -22 -160 -66 -223c-87 -124 -233 -183 -409 -183zM414 610v-360h264c141 0 211 60 211 180s-70 180 -211 180h-264z
M414 1184v-324h215c79 0 133 14 162 43s43 68 43 119s-14 90 -43 119s-83 43 -162 43h-215z" />
    <glyph glyph-name="C" unicode="C" horiz-adv-x="1345" 
d="M61 717c0 142 33 270 100 384s158 203 274 266c117 63 247 95 390 95c87 0 162 -8 223 -25s124 -44 189 -83l23 -297h-39c-127 95 -254 143 -383 143c-151 0 -270 -45 -357 -135c-86 -90 -129 -206 -129 -348s43 -258 129 -349c87 -90 206 -135 357 -135
c128 0 256 48 383 144h39l-23 -297c-65 -39 -129 -66 -190 -83s-135 -26 -222 -26c-215 0 -410 79 -546 210c-67 65 -121 144 -160 237s-58 192 -58 299z" />
    <glyph glyph-name="D" unicode="D" horiz-adv-x="1300" 
d="M475 0h-352v1434h352c150 0 282 -28 397 -84c115 -55 204 -138 269 -247s98 -237 98 -386s-33 -278 -98 -387c-129 -217 -366 -330 -666 -330zM414 1184v-934h61c151 0 269 42 356 125s130 197 130 342s-43 259 -130 342s-205 125 -356 125h-61z" />
    <glyph glyph-name="E" unicode="E" horiz-adv-x="1114" 
d="M1042 0h-919v1434h911v-246h-620v-328h598v-246h-598v-368h628v-246z" />
    <glyph glyph-name="F" unicode="F" horiz-adv-x="1146" 
d="M414 0h-291v1434h934v-250h-643v-373h620v-250h-620v-561z" />
    <glyph glyph-name="G" unicode="G" horiz-adv-x="1513" 
d="M61 717c0 142 35 270 106 384s166 203 287 266s255 95 402 95c192 0 330 -44 463 -129l22 -297h-38c-152 109 -300 164 -445 164c-153 0 -275 -45 -368 -136c-92 -91 -138 -206 -138 -347c0 -142 43 -258 129 -349c87 -90 206 -135 357 -135c59 0 111 7 156 20
c45 14 92 37 139 69v251h-402v246h692v-616c-105 -81 -203 -140 -296 -177s-193 -55 -302 -55c-215 0 -410 79 -546 210c-67 65 -121 144 -160 237s-58 192 -58 299z" />
    <glyph glyph-name="H" unicode="H" horiz-adv-x="1396" 
d="M414 0h-291v1434h291v-555h569v555h291v-1434h-291v633h-569v-633z" />
    <glyph glyph-name="I" unicode="I" horiz-adv-x="536" 
d="M414 0h-291v1434h291v-1434z" />
    <glyph glyph-name="J" unicode="J" horiz-adv-x="817" 
d="M109 0l-29 246h39c53 -19 100 -29 143 -29c93 0 152 70 152 209v1008h291v-996c0 -151 -36 -267 -107 -347s-161 -120 -270 -120c-43 0 -79 2 -107 6c-27 4 -65 12 -112 23z" />
    <glyph glyph-name="K" unicode="K" horiz-adv-x="1308" 
d="M414 0h-291v1434h291v-652l501 652h316l-539 -695l590 -739h-344l-524 653v-653z" />
    <glyph glyph-name="L" unicode="L" horiz-adv-x="1200" 
d="M1114 0h-991v1434h291v-1188h700v-246z" />
    <glyph glyph-name="M" unicode="M" horiz-adv-x="1839" 
d="M330 0h-285l381 1434h94l400 -883l399 883h94l381 -1434h-285l-206 760l-351 -760h-65l-350 760z" />
    <glyph glyph-name="N" unicode="N" horiz-adv-x="1447" 
d="M414 0h-291v1434h123l788 -854v854h291v-1434h-123l-788 854v-854z" />
    <glyph glyph-name="O" unicode="O" horiz-adv-x="1650" 
d="M120 420c-39 93 -59 192 -59 297s20 204 59 296c80 185 217 317 405 392c95 38 195 57 300 57s205 -19 299 -57c189 -75 326 -207 405 -392c40 -92 60 -191 60 -296s-20 -204 -60 -297c-79 -185 -216 -316 -405 -392c-94 -38 -194 -57 -299 -57s-205 19 -300 57
c-188 76 -325 207 -405 392zM485 1076c-89 -91 -133 -210 -133 -359s44 -269 133 -360s203 -136 340 -136s250 45 339 136s134 211 134 360s-45 268 -134 359s-202 136 -339 136s-251 -45 -340 -136z" />
    <glyph glyph-name="P" unicode="P" horiz-adv-x="1105" 
d="M414 0h-291v1434h418c163 0 291 -40 385 -121c94 -80 141 -189 141 -326s-47 -246 -141 -326s-222 -120 -385 -120h-127v-541zM414 1184v-393h129c155 0 233 65 233 196s-78 197 -233 197h-129z" />
    <glyph glyph-name="Q" unicode="Q" horiz-adv-x="1669" 
d="M1589 717c0 -172 -50 -324 -151 -455l211 -209l-181 -184l-221 219c-122 -78 -263 -117 -422 -117c-105 0 -205 19 -300 57c-188 76 -325 207 -405 392c-39 93 -59 192 -59 297s20 204 59 296c40 93 94 172 162 237c68 66 149 118 243 155c95 38 195 57 300 57
s205 -19 299 -57c95 -37 176 -89 244 -155c68 -65 122 -144 161 -237c40 -92 60 -191 60 -296zM825 221c89 0 167 18 234 55l-133 136l182 182l133 -133c38 74 57 159 57 256c0 149 -45 268 -134 359s-202 136 -339 136s-251 -45 -340 -136s-133 -210 -133 -359
s44 -269 133 -360s203 -136 340 -136z" />
    <glyph glyph-name="R" unicode="R" horiz-adv-x="1202" 
d="M414 0h-291v1434h452c143 0 259 -37 348 -111c89 -73 134 -174 134 -303c0 -185 -103 -321 -271 -381l383 -639h-321l-365 606h-69v-606zM414 1184v-328h137c143 0 215 55 215 164s-72 164 -215 164h-137z" />
    <glyph glyph-name="S" unicode="S" horiz-adv-x="1054" 
d="M88 111l16 335h21c109 -140 228 -225 381 -225c116 0 192 67 192 180c4 63 -28 112 -67 145c-11 11 -28 23 -51 36s-43 24 -61 33c-17 9 -42 21 -75 36c-229 105 -346 230 -346 418c0 80 20 150 61 211c81 121 217 182 369 182c158 0 277 -36 357 -108l10 -305h-27
c-109 117 -220 176 -333 176c-108 0 -177 -49 -177 -144c0 -43 21 -81 62 -113c42 -31 118 -73 229 -124c113 -51 197 -110 254 -177c57 -66 86 -152 86 -259c0 -129 -43 -235 -130 -316c-86 -81 -199 -121 -339 -121c-183 0 -335 59 -432 140z" />
    <glyph glyph-name="T" unicode="T" horiz-adv-x="1101" 
d="M406 1188h-345v246h979v-246h-344v-1188h-290v1188z" />
    <glyph glyph-name="U" unicode="U" horiz-adv-x="1355" 
d="M102 569v865h291v-889c0 -121 33 -212 88 -260c56 -48 120 -68 197 -68s141 20 196 68c56 48 89 139 89 260v889h290v-865c0 -185 -51 -331 -152 -438s-242 -160 -423 -160s-323 53 -424 160s-152 253 -152 438z" />
    <glyph glyph-name="V" unicode="V" horiz-adv-x="1449" 
d="M662 0l-631 1434h315l379 -918l379 918h315l-631 -1434h-126z" />
    <glyph glyph-name="W" unicode="W" horiz-adv-x="2039" 
d="M537 0l-492 1434h315l273 -805l309 805h156l309 -805l272 805h316l-492 -1434h-127l-356 926l-356 -926h-127z" />
    <glyph glyph-name="X" unicode="X" horiz-adv-x="1306" 
d="M350 0h-315l467 774l-400 660h316l235 -408l238 408h315l-401 -660l469 -774h-316l-305 518z" />
    <glyph glyph-name="Y" unicode="Y" horiz-adv-x="1257" 
d="M483 606l-454 828h321l279 -551l278 551h322l-455 -828v-606h-291v606z" />
    <glyph glyph-name="Z" unicode="Z" horiz-adv-x="1239" 
d="M1171 0h-1130v41l674 1147h-613v246h1045v-41l-674 -1147h698v-246z" />
    <glyph glyph-name="bracketleft" unicode="[" horiz-adv-x="632" 
d="M561 -463h-438v1897h438v-246h-168v-1405h168v-246z" />
    <glyph glyph-name="backslash" unicode="\" horiz-adv-x="1193" 
d="M848 0l-817 1434h315l817 -1434h-315z" />
    <glyph glyph-name="bracketright" unicode="]" horiz-adv-x="632" 
d="M72 -463v246h168v1405h-168v246h438v-1897h-438z" />
    <glyph glyph-name="asciicircum" unicode="^" horiz-adv-x="1114" 
d="M317 799h-245v43l393 592h184l393 -592v-43h-245l-240 362z" />
    <glyph glyph-name="underscore" unicode="_" horiz-adv-x="1069" 
d="M45 -217v217h979v-217h-979z" />
    <glyph glyph-name="grave" unicode="`" horiz-adv-x="667" 
d="M365 1153l-291 281h332l188 -281h-229z" />
    <glyph glyph-name="a" unicode="a" horiz-adv-x="1249" 
d="M57 506c0 97 22 186 67 268s107 147 185 194c78 48 163 72 256 72c131 0 246 -47 303 -120v92h271v-1012h-271v92c-42 -40 -87 -70 -135 -91c-48 -20 -109 -30 -184 -30c-97 0 -194 31 -278 92c-122 88 -215 244 -214 443zM403 709c-50 -55 -75 -122 -75 -203
s25 -148 75 -203c51 -55 118 -82 201 -82s150 27 201 82s76 122 76 203s-25 148 -76 203s-118 82 -201 82s-150 -27 -201 -82z" />
    <glyph glyph-name="b" unicode="b" horiz-adv-x="1261" 
d="M381 0h-270v1475h270v-560c73 83 180 125 321 125c139 0 263 -50 354 -139c92 -89 148 -230 148 -395c0 -156 -47 -284 -141 -385c-93 -100 -212 -150 -356 -150c-137 0 -245 45 -326 135v-106zM447 710c-52 -53 -78 -121 -78 -204s26 -151 78 -205
c53 -53 121 -80 204 -80s151 27 204 80c53 54 79 122 79 205s-26 151 -79 204c-53 54 -121 81 -204 81s-151 -27 -204 -81z" />
    <glyph glyph-name="c" unicode="c" horiz-adv-x="997" 
d="M606 1040c124 0 222 -26 295 -79l10 -285h-28c-88 77 -180 115 -277 115c-84 0 -151 -27 -202 -80s-76 -122 -76 -205s25 -152 76 -205s118 -80 202 -80c97 0 189 38 277 115h28l-10 -285c-74 -53 -172 -80 -295 -80c-144 0 -281 51 -382 140s-167 231 -167 395
s66 306 167 394c101 89 238 140 382 140z" />
    <glyph glyph-name="d" unicode="d" horiz-adv-x="1261" 
d="M57 506c0 165 56 306 147 395c92 89 216 139 355 139c141 0 249 -42 322 -125v560h270v-1475h-270v106c-81 -90 -189 -135 -326 -135c-144 0 -263 50 -357 150c-94 101 -141 229 -141 385zM406 710c-52 -53 -78 -121 -78 -204s26 -151 78 -205c53 -53 121 -80 204 -80
s151 27 204 80c53 54 79 122 79 205s-26 151 -79 204c-53 54 -121 81 -204 81s-151 -27 -204 -81z" />
    <glyph glyph-name="e" unicode="e" horiz-adv-x="1157" 
d="M57 514c0 148 50 273 151 374s225 152 372 152c167 0 304 -62 385 -161c83 -99 127 -226 127 -365v-80h-777c31 -151 149 -233 310 -233c139 0 261 44 364 133h29l-10 -256c-123 -71 -257 -107 -402 -107c-101 0 -193 24 -277 71s-150 113 -199 196s-73 175 -73 276z
M322 618h499c-7 63 -33 114 -78 153c-45 40 -99 60 -163 60c-121 0 -222 -78 -258 -213z" />
    <glyph glyph-name="f" unicode="f" horiz-adv-x="731" 
d="M182 782h-112v230h112v110c0 117 44 211 111 263s144 77 225 77c66 0 125 -14 178 -43l11 -237h-25c-35 35 -78 53 -127 53c-63 0 -102 -40 -102 -109v-114h163v-230h-163v-782h-271v782z" />
    <glyph glyph-name="g" unicode="g" horiz-adv-x="1232" 
d="M57 520c0 160 64 301 160 386s217 134 338 134c129 0 228 -40 297 -120v92h270v-920c0 -205 -56 -359 -159 -450c-101 -91 -235 -134 -404 -134c-127 0 -234 27 -323 80l-11 256h54c82 -57 175 -86 280 -86c184 0 293 101 293 285v66c-63 -65 -168 -109 -295 -109
c-141 0 -260 50 -356 149c-96 100 -144 224 -144 371zM400 712c-48 -53 -72 -117 -72 -192s24 -139 72 -192c48 -52 113 -78 196 -78s148 26 196 78c48 53 72 117 72 192s-24 139 -72 192s-113 79 -196 79s-148 -26 -196 -79z" />
    <glyph glyph-name="h" unicode="h" horiz-adv-x="1187" 
d="M381 0h-270v1475h270v-588c36 46 85 83 147 111s126 42 193 42c113 0 202 -30 269 -89s100 -146 100 -261v-690h-271v594c0 131 -73 197 -192 197c-67 0 -125 -25 -174 -74c-48 -49 -72 -114 -72 -195v-522z" />
    <glyph glyph-name="i" unicode="i" horiz-adv-x="516" 
d="M88 1319c0 47 16 88 49 121c33 34 73 51 119 51c47 0 87 -17 121 -51c34 -33 51 -74 51 -121c0 -46 -17 -86 -51 -119c-33 -33 -74 -49 -121 -49c-46 0 -86 16 -119 49s-49 73 -49 119zM393 0h-270v1012h270v-1012z" />
    <glyph glyph-name="j" unicode="j" horiz-adv-x="516" 
d="M-70 -457l-24 221h41c19 -12 34 -20 46 -24s29 -6 50 -6c51 0 80 33 80 92v1186h270v-1162c0 -248 -152 -342 -325 -342c-55 0 -101 12 -138 35zM90 1319c0 47 16 88 49 121c33 34 73 51 119 51c47 0 87 -17 121 -51c34 -33 51 -74 51 -121c0 -46 -17 -86 -51 -119
c-33 -33 -74 -49 -121 -49c-46 0 -86 16 -119 49s-49 73 -49 119z" />
    <glyph glyph-name="k" unicode="k" horiz-adv-x="1097" 
d="M381 0h-270v1475h270v-879l352 416h322l-398 -469l426 -543h-346l-356 469v-469z" />
    <glyph glyph-name="l" unicode="l" horiz-adv-x="491" 
d="M381 0h-270v1475h270v-1475z" />
    <glyph glyph-name="m" unicode="m" horiz-adv-x="1767" 
d="M381 0h-270v1012h270v-125c32 45 78 81 137 110s120 43 182 43c147 0 246 -48 297 -143c91 95 208 143 349 143c99 0 177 -28 235 -85c59 -57 88 -135 88 -236v-719h-270v610c0 121 -56 181 -156 181c-61 0 -112 -23 -154 -69s-63 -105 -63 -177v-545h-270v610
c0 121 -53 181 -158 181c-61 0 -112 -24 -154 -72c-42 -47 -63 -109 -63 -184v-535z" />
    <glyph glyph-name="n" unicode="n" 
d="M381 0h-270v1012h270v-125c37 47 85 84 144 111c59 28 122 42 188 42c110 0 197 -30 262 -89s98 -146 98 -261v-690h-270v594c0 129 -77 197 -193 197c-66 0 -121 -24 -164 -73s-65 -114 -65 -196v-522z" />
    <glyph glyph-name="o" unicode="o" horiz-adv-x="1224" 
d="M57 506c0 148 64 286 163 381c100 95 243 153 392 153s292 -58 391 -153c100 -95 164 -233 164 -381c0 -99 -25 -189 -75 -272c-50 -82 -118 -146 -203 -193s-177 -70 -277 -70s-193 23 -278 70s-152 111 -202 193c-50 83 -75 173 -75 272zM411 711
c-55 -53 -83 -122 -83 -205s28 -152 83 -205s122 -80 201 -80s146 27 201 80c56 53 84 122 84 205s-28 152 -84 205c-55 53 -122 80 -201 80s-146 -27 -201 -80z" />
    <glyph glyph-name="p" unicode="p" horiz-adv-x="1261" 
d="M381 -463h-270v1475h270v-107c81 90 189 135 326 135c144 0 263 -50 356 -150c94 -100 141 -228 141 -384c0 -165 -56 -307 -148 -396c-91 -88 -215 -139 -354 -139c-141 0 -248 42 -321 125v-559zM447 710c-52 -53 -78 -121 -78 -204s26 -151 78 -205
c53 -53 121 -80 204 -80s151 27 204 80c53 54 79 122 79 205s-26 151 -79 204c-53 54 -121 81 -204 81s-151 -27 -204 -81z" />
    <glyph glyph-name="q" unicode="q" horiz-adv-x="1261" 
d="M57 506c0 156 47 284 141 384s213 150 357 150c137 0 245 -45 326 -135v107h270v-1475h-270v559c-73 -83 -181 -125 -322 -125c-139 0 -263 51 -355 139c-91 89 -147 231 -147 396zM406 710c-52 -53 -78 -121 -78 -204s26 -151 78 -205c53 -53 121 -80 204 -80
s151 27 204 80c53 54 79 122 79 205s-26 151 -79 204c-53 54 -121 81 -204 81s-151 -27 -204 -81z" />
    <glyph glyph-name="r" unicode="r" horiz-adv-x="872" 
d="M381 0h-270v1012h270v-101c63 81 161 129 260 129c66 0 121 -16 164 -47l18 -284h-39c-41 49 -109 82 -178 82c-64 0 -118 -20 -161 -61c-43 -40 -64 -100 -64 -179v-551z" />
    <glyph glyph-name="s" unicode="s" horiz-adv-x="860" 
d="M61 70l62 254h12c90 -69 181 -103 273 -103c77 0 129 29 129 84c0 28 -14 51 -42 69s-80 40 -157 66c-156 52 -246 154 -246 287c0 93 35 169 106 226c71 58 160 87 267 87c104 0 193 -22 266 -65l10 -258h-14c-49 32 -92 56 -131 71c-38 15 -81 23 -129 23
c-68 0 -117 -31 -117 -74c0 -29 14 -52 41 -71c28 -19 79 -41 154 -66c64 -21 104 -37 152 -70c70 -46 106 -112 110 -225c0 -71 -18 -133 -55 -185c-73 -103 -191 -149 -330 -149c-140 0 -260 33 -361 99z" />
    <glyph glyph-name="t" unicode="t" horiz-adv-x="806" 
d="M182 782h-168v230h168v168l271 123v-291h274v-230h-274v-458c0 -85 45 -125 110 -125c51 0 103 20 156 59h31l-19 -235c-45 -21 -82 -34 -113 -41s-71 -11 -120 -11c-160 0 -316 100 -316 340v471z" />
    <glyph glyph-name="u" unicode="u" 
d="M98 322v690h271v-594c0 -131 76 -197 192 -197c67 0 122 24 165 72c43 49 65 114 65 196v523h270v-1012h-270v125c-37 -47 -85 -84 -144 -112s-122 -42 -188 -42c-110 0 -198 30 -263 89c-65 60 -98 147 -98 262z" />
    <glyph glyph-name="v" unicode="v" horiz-adv-x="1081" 
d="M508 0l-494 1012h279l248 -531l247 531h279l-494 -1012h-65z" />
    <glyph glyph-name="w" unicode="w" horiz-adv-x="1585" 
d="M469 0l-449 1012h279l215 -531l221 531h115l221 -531l215 531h279l-449 -1012h-65l-258 614l-258 -614h-66z" />
    <glyph glyph-name="x" unicode="x" horiz-adv-x="1034" 
d="M334 0h-303l327 526l-301 486h303l156 -271l158 271h303l-303 -486l330 -526h-304l-184 311z" />
    <glyph glyph-name="y" unicode="y" horiz-adv-x="1079" 
d="M412 197l-398 815h279l248 -531l245 531h279l-717 -1475h-278z" />
    <glyph glyph-name="z" unicode="z" horiz-adv-x="1019" 
d="M932 0h-860v41l436 721h-391v250h807v-41l-430 -721h438v-250z" />
    <glyph glyph-name="braceleft" unicode="{" horiz-adv-x="731" 
d="M115 362h-54v246h54c72 0 106 30 106 113v450c0 161 93 263 260 263h178v-246h-79c-59 0 -88 -34 -88 -103v-370c0 -132 -55 -198 -154 -230c99 -32 154 -97 154 -229v-371c0 -68 29 -102 88 -102h79v-246h-178c-167 0 -260 101 -260 262v451c0 83 -34 112 -106 112z" />
    <glyph glyph-name="bar" unicode="|" horiz-adv-x="516" 
d="M393 -463h-270v1897h270v-1897z" />
    <glyph glyph-name="braceright" unicode="}" horiz-adv-x="731" 
d="M72 -463v246h80c59 0 88 34 88 102v371c0 133 54 197 153 229c-99 32 -153 97 -153 230v370c0 69 -29 103 -88 103h-80v246h178c167 0 260 -102 260 -263v-450c0 -83 34 -113 106 -113h54v-246h-54c-72 0 -106 -29 -106 -112v-451c0 -161 -93 -262 -260 -262h-178z" />
    <glyph glyph-name="asciitilde" unicode="~" horiz-adv-x="989" 
d="M111 535h-21l16 219c48 64 120 96 216 96c68 0 150 -27 205 -55c55 -27 125 -54 173 -54c67 0 126 32 179 95h20l-16 -220c-48 -64 -120 -96 -215 -96c-68 0 -152 27 -208 54c-56 28 -127 55 -171 55c-56 0 -115 -31 -178 -94z" />
    <glyph glyph-name="uni00A0" unicode="&#xa0;" horiz-adv-x="645" 
 />
    <glyph glyph-name="exclamdown" unicode="&#xa1;" horiz-adv-x="602" 
d="M191 757c-32 32 -48 71 -48 117s16 85 48 117c33 33 72 49 118 49s85 -16 117 -49c33 -32 49 -71 49 -117s-16 -85 -49 -117c-32 -32 -71 -48 -117 -48s-85 16 -118 48zM444 -422h-270v983h270v-983z" />
    <glyph glyph-name="cent" unicode="&#xa2;" horiz-adv-x="997" 
d="M57 506c0 148 53 278 138 365c87 88 201 146 329 163v256h160v-254c87 -8 160 -33 217 -75l10 -285h-28c-69 57 -135 93 -199 106v-555c64 13 130 50 199 109h28l-10 -285c-59 -43 -131 -68 -217 -76v-254h-160v256c-86 11 -164 39 -234 83c-69 44 -126 105 -169 182
s-64 165 -64 264zM524 231v549c-123 -33 -196 -138 -196 -274s73 -242 196 -275z" />
    <glyph glyph-name="sterling" unicode="&#xa3;" horiz-adv-x="1118" 
d="M117 655h-127v217h145c21 187 82 332 182 435s227 155 381 155c59 0 111 -6 154 -18c43 -11 88 -29 135 -53l33 -293l-37 -11c-99 87 -194 130 -285 130c-163 0 -251 -113 -280 -345h327v-217h-346l-32 -409h680v-246h-986z" />
    <glyph glyph-name="currency" unicode="&#xa4;" horiz-adv-x="1224" 
d="M244 219l-129 129l129 131c-49 71 -74 151 -74 238s25 166 74 237l-129 131l129 129l137 -135c75 43 152 64 231 64c80 0 157 -21 232 -64l137 135l129 -129l-129 -131c49 -71 74 -150 74 -237s-25 -167 -74 -238l129 -131l-129 -129l-137 135c-73 -42 -151 -63 -232 -63
s-158 21 -231 63zM456 875c-43 -41 -65 -94 -65 -158s22 -117 65 -159c43 -41 95 -62 156 -62s113 21 156 62c44 42 66 95 66 159s-22 117 -66 158c-43 42 -95 63 -156 63s-113 -21 -156 -63z" />
    <glyph glyph-name="yen" unicode="&#xa5;" horiz-adv-x="1257" 
d="M360 852l-331 582h321l279 -510l278 510h322l-332 -582h160v-217h-283v-117h283v-217h-283v-301h-291v301h-282v217h282v117h-282v217h159z" />
    <glyph glyph-name="brokenbar" unicode="&#xa6;" horiz-adv-x="516" 
d="M123 -463v819h270v-819h-270zM393 614h-270v820h270v-820z" />
    <glyph glyph-name="section" unicode="&#xa7;" horiz-adv-x="1069" 
d="M72 524c0 67 14 123 41 168c28 45 69 89 123 131c-77 75 -115 161 -115 260c0 115 40 206 121 275s186 104 313 104c153 0 283 -47 350 -108l10 -305h-26c-109 117 -220 176 -334 176c-105 0 -172 -46 -172 -127c0 -45 19 -82 56 -112c38 -30 113 -73 225 -130
c224 -115 340 -241 340 -410c0 -67 -14 -123 -42 -168c-27 -45 -68 -89 -122 -131c76 -74 114 -161 114 -260c0 -115 -41 -206 -122 -275s-185 -104 -312 -104c-153 0 -282 48 -350 109l-10 305h26c109 -117 220 -176 334 -176c105 0 172 46 172 127c0 39 -16 70 -39 97
c-11 13 -30 27 -57 44s-52 32 -77 45c-24 13 -60 32 -107 56c-224 115 -340 240 -340 409zM362 549c0 -51 22 -96 67 -135s115 -82 210 -129l10 -6c43 43 64 90 64 143c0 51 -22 96 -67 135s-115 82 -210 129l-10 6c-43 -43 -64 -90 -64 -143z" />
    <glyph glyph-name="dieresis" unicode="&#xa8;" horiz-adv-x="808" 
d="M61 1284c0 41 14 77 43 106s63 44 103 44c41 0 76 -15 105 -44s44 -65 44 -106c0 -40 -15 -74 -44 -103c-29 -28 -64 -42 -105 -42c-40 0 -74 14 -103 42c-29 29 -43 63 -43 103zM453 1284c0 41 14 77 42 106c29 29 63 44 103 44c41 0 77 -15 106 -44s44 -65 44 -106
c0 -40 -15 -74 -44 -103c-29 -28 -65 -42 -106 -42c-40 0 -74 14 -103 42c-28 29 -42 63 -42 103z" />
    <glyph glyph-name="copyright" unicode="&#xa9;" horiz-adv-x="1646" 
d="M158 342c-65 114 -97 239 -97 375s32 261 97 374c65 114 156 204 273 271s248 100 392 100s274 -33 391 -100s208 -157 273 -271c65 -113 98 -238 98 -374s-33 -261 -98 -375c-65 -113 -156 -204 -273 -271s-247 -100 -391 -100s-275 33 -392 100s-208 158 -273 271z
M335 1002c-46 -86 -69 -181 -69 -285s23 -199 69 -286c47 -87 113 -156 198 -207c86 -51 183 -77 290 -77s204 26 289 77c86 51 152 120 198 207c47 87 70 182 70 286s-23 199 -70 285c-46 87 -112 156 -198 207c-85 51 -182 77 -289 77s-204 -26 -290 -77
c-85 -51 -151 -120 -198 -207zM864 1102c87 0 158 -19 213 -58l6 -204h-20c-63 55 -130 82 -199 82c-61 0 -109 -19 -146 -57c-36 -38 -54 -87 -54 -148s18 -110 54 -148c37 -38 85 -57 146 -57c69 0 136 27 199 82h20l-6 -205c-53 -38 -124 -57 -213 -57
c-70 0 -135 15 -194 44c-59 30 -108 75 -145 134s-56 128 -56 207s19 148 56 207c75 119 199 178 339 178z" />
    <glyph glyph-name="ordfeminine" unicode="&#xaa;" horiz-adv-x="882" 
d="M408 1448c99 0 174 -28 225 -84v63h178v-710h-178v63c-51 -56 -126 -84 -225 -84c-101 0 -185 35 -254 106s-103 161 -103 271s34 200 102 270c69 70 154 105 255 105zM229 1073c0 -61 19 -111 56 -152c38 -41 88 -61 151 -61s113 20 150 61c38 41 57 91 57 152
c0 59 -19 109 -57 150c-37 41 -87 61 -150 61s-113 -20 -151 -61c-37 -41 -56 -91 -56 -150z" />
    <glyph glyph-name="guillemotleft" unicode="&#xab;" horiz-adv-x="1165" 
d="M549 225l-483 414v143l483 414h43v-250l-273 -235l273 -236v-250h-43zM1040 225l-483 414v143l483 414h43v-250l-272 -235l272 -236v-250h-43z" />
    <glyph glyph-name="logicalnot" unicode="&#xac;" horiz-adv-x="1007" 
d="M631 598h-525v229h795v-481h-270v252z" />
    <glyph glyph-name="uni00AD" unicode="&#xad;" horiz-adv-x="827" 
d="M750 541h-672v217h672v-217z" />
    <glyph glyph-name="registered" unicode="&#xae;" horiz-adv-x="1646" 
d="M158 342c-65 114 -97 239 -97 375s32 261 97 374c65 114 156 204 273 271s248 100 392 100s274 -33 391 -100s208 -157 273 -271c65 -113 98 -238 98 -374s-33 -261 -98 -375c-65 -113 -156 -204 -273 -271s-247 -100 -391 -100s-275 33 -392 100s-208 158 -273 271z
M335 1002c-46 -86 -69 -181 -69 -285s23 -199 69 -286c47 -87 113 -156 198 -207c86 -51 183 -77 290 -77s204 26 289 77c86 51 152 120 198 207c47 87 70 182 70 286s-23 199 -70 285c-46 87 -112 156 -198 207c-85 51 -182 77 -289 77s-204 -26 -290 -77
c-85 -51 -151 -120 -198 -207zM743 352h-184v762h299c75 0 136 -21 184 -62s72 -96 72 -165c0 -103 -58 -180 -151 -213l211 -322h-199l-193 305h-39v-305zM743 973v-174h74c75 0 113 29 113 88c0 57 -38 86 -113 86h-74z" />
    <glyph glyph-name="overscore" unicode="&#xaf;" horiz-adv-x="634" 
d="M573 1167h-512v193h512v-193z" />
    <glyph glyph-name="degree" unicode="&#xb0;" horiz-adv-x="620" 
d="M132 1035c-49 48 -73 107 -73 177s24 129 73 177c49 49 109 73 181 73s132 -24 181 -73c49 -48 73 -107 73 -177s-24 -129 -73 -177s-109 -72 -181 -72s-132 24 -181 72zM212 1315c-25 -27 -38 -61 -38 -103s13 -76 38 -103s59 -40 101 -40s76 13 101 40
c26 27 39 61 39 103s-13 76 -39 103c-25 27 -59 41 -101 41s-76 -14 -101 -41z" />
    <glyph glyph-name="plusminus" unicode="&#xb1;" horiz-adv-x="1036" 
d="M946 0h-856v217h856v-217zM410 643h-320v217h320v320h217v-320h319v-217h-319v-319h-217v319z" />
    <glyph glyph-name="twosuperior" unicode="&#xb2;" horiz-adv-x="600" 
d="M557 717h-528v33l268 333c38 47 57 93 57 138c0 51 -38 86 -98 86c-59 0 -110 -36 -154 -109h-45l9 170c51 51 136 80 221 80c159 0 245 -82 245 -205c0 -83 -31 -151 -108 -244l-113 -135h246v-147z" />
    <glyph glyph-name="threesuperior" unicode="&#xb3;" horiz-adv-x="614" 
d="M285 1286h-230v148h492v-21l-162 -209c112 -27 184 -103 184 -235c0 -85 -26 -151 -78 -198c-52 -46 -120 -69 -204 -69c-81 0 -164 19 -207 43l-17 173h27c68 -47 129 -70 182 -70c83 0 125 40 125 121c0 71 -46 116 -127 116c-10 0 -36 -3 -77 -10l-27 53z" />
    <glyph glyph-name="acute" unicode="&#xb4;" horiz-adv-x="667" 
d="M303 1153h-229l188 281h332z" />
    <glyph glyph-name="mu" unicode="&#xb5;" 
d="M369 -463h-271v1475h271v-594c0 -131 76 -197 192 -197c67 0 122 24 165 72c43 49 65 114 65 196v523h270v-1012h-270v125c-37 -47 -85 -84 -144 -112s-122 -42 -188 -42c-31 0 -61 3 -90 9v-443z" />
    <glyph glyph-name="paragraph" unicode="&#xb6;" horiz-adv-x="1359" 
d="M514 1434h723v-1897h-250v1680h-186v-1680h-250v1098h-37c-145 0 -258 36 -341 107s-124 169 -124 292s41 221 124 292c83 72 196 108 341 108z" />
    <glyph glyph-name="middot" unicode="&#xb7;" horiz-adv-x="473" 
d="M90 741c0 44 15 82 46 113s67 47 110 47c44 0 82 -16 113 -47s47 -69 47 -113c0 -43 -16 -79 -47 -110c-31 -30 -69 -45 -113 -45c-43 0 -80 15 -111 45c-30 31 -45 67 -45 110z" />
    <glyph glyph-name="cedilla" unicode="&#xb8;" horiz-adv-x="716" 
d="M137 -465l-22 146l24 10c51 -29 101 -43 150 -43c59 0 96 26 96 71c0 49 -31 74 -94 74c-37 0 -74 -6 -111 -18l-18 20l129 307c-1 0 13 -5 40 -14l83 -28l41 -15l-131 -162c36 9 69 13 100 13c109 0 178 -66 178 -177c0 -67 -25 -118 -75 -155s-116 -56 -197 -56
c-73 0 -138 9 -193 27z" />
    <glyph glyph-name="onesuperior" unicode="&#xb9;" horiz-adv-x="290" 
d="M229 717h-168v649l97 68h71v-717z" />
    <glyph glyph-name="ordmasculine" unicode="&#xba;" horiz-adv-x="884" 
d="M166 805c-77 73 -115 163 -115 268s38 194 115 266c77 73 169 109 276 109s199 -36 276 -109c77 -72 116 -161 116 -266s-39 -195 -116 -268s-169 -109 -276 -109s-199 36 -276 109zM229 1073c0 -63 21 -114 62 -154c41 -39 92 -59 151 -59s110 20 151 59
c41 40 62 91 62 154c0 62 -21 113 -62 152s-92 59 -151 59s-110 -20 -151 -59s-62 -90 -62 -152z" />
    <glyph glyph-name="guillemotright" unicode="&#xbb;" horiz-adv-x="1165" 
d="M125 225h-43v250l272 236l-272 235v250h43l483 -414v-143zM616 225h-43v250l273 236l-273 235v250h43l484 -414v-143z" />
    <glyph glyph-name="onequarter" unicode="&#xbc;" horiz-adv-x="1081" 
d="M94 199l-67 129l960 497l68 -129zM434 717h-168v649l96 68h72v-717zM307 -324v121l389 457h105v-430h90v-148h-90v-139h-168v139h-326zM633 -10l-137 -166h137v166z" />
    <glyph glyph-name="onehalf" unicode="&#xbd;" horiz-adv-x="1081" 
d="M94 199l-67 129l960 497l68 -129zM434 717h-168v649l96 68h72v-717zM401 -463v33l269 334c38 47 57 92 57 137c0 51 -38 86 -98 86c-59 0 -110 -36 -154 -109h-45l8 170c51 51 136 80 221 80c159 0 246 -84 246 -205c0 -83 -31 -150 -108 -243l-113 -135h246v-148h-529z
" />
    <glyph glyph-name="threequarters" unicode="&#xbe;" horiz-adv-x="1081" 
d="M94 199l-67 129l960 497l68 -129zM272 1286h-229v148h492v-21l-162 -209c112 -27 184 -103 184 -235c0 -85 -26 -151 -79 -198c-52 -46 -120 -69 -204 -69c-86 0 -155 14 -206 43l-17 173h27c68 -47 129 -70 182 -70c83 0 125 40 125 121c0 71 -46 116 -127 116
c-11 0 -37 -3 -78 -10l-26 53zM307 -324v121l389 457h105v-430h90v-148h-90v-139h-168v139h-326zM633 -10l-137 -166h137v166z" />
    <glyph glyph-name="questiondown" unicode="&#xbf;" horiz-adv-x="929" 
d="M90 -98c0 51 7 97 21 140c29 85 73 134 122 191c25 29 48 54 69 77c43 47 75 115 75 188v63h270v-39c0 -53 -7 -103 -22 -148c-28 -89 -71 -140 -122 -199c-25 -29 -48 -54 -69 -76c-41 -44 -74 -106 -74 -169c0 -91 66 -147 179 -147c57 0 113 18 168 53s100 74 135 117
h26l-18 -297c-93 -65 -219 -107 -340 -107c-238 -4 -420 120 -420 353zM386 757c-32 32 -48 71 -48 117s16 85 48 117c33 33 72 49 118 49s85 -16 117 -49c33 -32 49 -71 49 -117s-16 -85 -49 -117c-32 -32 -71 -48 -117 -48s-85 16 -118 48z" />
    <glyph glyph-name="Agrave" unicode="&#xc0;" horiz-adv-x="1425" 
d="M317 0h-282l635 1434h86l635 -1434h-283l-107 246h-577zM584 1575l-291 280h332l188 -280h-229zM713 926l-187 -434h373z" />
    <glyph glyph-name="Aacute" unicode="&#xc1;" horiz-adv-x="1425" 
d="M317 0h-282l635 1434h86l635 -1434h-283l-107 246h-577zM713 926l-187 -434h373zM842 1575h-230l189 280h332z" />
    <glyph glyph-name="Acircumflex" unicode="&#xc2;" horiz-adv-x="1425" 
d="M317 0h-282l635 1434h86l635 -1434h-283l-107 246h-577zM586 1575h-209l188 280h297l189 -280h-209l-129 123zM713 926l-187 -434h373z" />
    <glyph glyph-name="Atilde" unicode="&#xc3;" horiz-adv-x="1425" 
d="M317 0h-282l635 1434h86l635 -1434h-283l-107 246h-577zM371 1571h-21l17 188c48 64 117 96 206 96c68 0 133 -27 169 -54c37 -27 89 -54 137 -54c67 0 126 31 178 94h20l-16 -188c-49 -65 -118 -97 -207 -97c-68 0 -133 27 -172 54c-37 28 -89 55 -133 55
c-56 0 -115 -31 -178 -94zM713 926l-187 -434h373z" />
    <glyph glyph-name="Adieresis" unicode="&#xc4;" horiz-adv-x="1425" 
d="M317 0h-282l635 1434h86l635 -1434h-283l-107 246h-577zM371 1706c0 41 14 76 42 105c29 29 63 44 103 44c41 0 77 -15 106 -44s44 -64 44 -105c0 -40 -15 -74 -44 -103c-29 -28 -65 -42 -106 -42c-40 0 -74 14 -103 42c-28 29 -42 63 -42 103zM713 926l-187 -434h373z
M762 1706c0 41 14 76 42 105c29 29 63 44 103 44c41 0 77 -15 106 -44s44 -64 44 -105c0 -40 -15 -74 -44 -103c-29 -28 -65 -42 -106 -42c-40 0 -74 14 -103 42c-28 29 -42 63 -42 103z" />
    <glyph glyph-name="Aring" unicode="&#xc5;" horiz-adv-x="1425" 
d="M317 0h-282l608 1374c-85 29 -141 106 -141 197c0 58 20 107 61 147s91 60 150 60s109 -20 150 -60s61 -89 61 -147c0 -91 -57 -168 -142 -197l609 -1374h-283l-107 246h-577zM713 926l-187 -434h373zM604 1571c0 -61 45 -109 109 -109s108 48 108 109s-44 108 -108 108
s-109 -48 -109 -108z" />
    <glyph glyph-name="AE" unicode="&#xc6;" horiz-adv-x="2074" 
d="M317 0h-282l635 1434h733l110 -246h-636l145 -328h586l106 -246h-584l162 -368h641l107 -246h-932l-107 246h-579zM713 926l-187 -434h371z" />
    <glyph glyph-name="Ccedilla" unicode="&#xc7;" horiz-adv-x="1345" 
d="M61 717c0 142 33 270 100 384s158 203 274 266c117 63 247 95 390 95c87 0 162 -8 223 -25s124 -44 189 -83l23 -297h-39c-127 95 -254 143 -383 143c-151 0 -270 -45 -357 -135c-86 -90 -129 -206 -129 -348s43 -258 129 -349c87 -90 206 -135 357 -135
c128 0 256 48 383 144h39l-23 -297c-65 -38 -127 -65 -186 -82s-130 -26 -213 -27l-72 -88c36 9 69 13 100 13c109 0 178 -66 178 -177c0 -67 -25 -118 -75 -155s-116 -56 -197 -56c-73 0 -137 9 -192 27l-23 146l25 10c51 -29 101 -43 149 -43c59 0 96 26 96 71
c0 49 -31 74 -94 74c-36 0 -73 -6 -110 -18l-19 20l78 189c-183 30 -332 112 -448 246c-115 134 -173 296 -173 487z" />
    <glyph glyph-name="Egrave" unicode="&#xc8;" horiz-adv-x="1114" 
d="M1042 0h-919v1434h911v-246h-620v-328h598v-246h-598v-368h628v-246zM569 1575l-290 280h331l189 -280h-230z" />
    <glyph glyph-name="Eacute" unicode="&#xc9;" horiz-adv-x="1114" 
d="M1042 0h-919v1434h911v-246h-620v-328h598v-246h-598v-368h628v-246zM608 1575h-229l188 280h332z" />
    <glyph glyph-name="Ecircumflex" unicode="&#xca;" horiz-adv-x="1114" 
d="M1042 0h-919v1434h911v-246h-620v-328h598v-246h-598v-368h628v-246zM473 1575h-209l189 280h297l188 -280h-209l-129 123z" />
    <glyph glyph-name="Edieresis" unicode="&#xcb;" horiz-adv-x="1114" 
d="M1042 0h-919v1434h911v-246h-620v-328h598v-246h-598v-368h628v-246zM266 1706c0 41 14 76 43 105s63 44 103 44c41 0 76 -15 105 -44s44 -64 44 -105c0 -40 -15 -74 -44 -103c-29 -28 -64 -42 -105 -42c-40 0 -74 14 -103 42c-29 29 -43 63 -43 103zM657 1706
c0 41 14 76 43 105s63 44 103 44c41 0 76 -15 105 -44s44 -64 44 -105c0 -40 -15 -74 -44 -103c-29 -28 -64 -42 -105 -42c-40 0 -74 14 -103 42c-29 29 -43 63 -43 103z" />
    <glyph glyph-name="Igrave" unicode="&#xcc;" horiz-adv-x="536" 
d="M207 1575l-291 280h332l188 -280h-229zM414 0h-291v1434h291v-1434z" />
    <glyph glyph-name="Iacute" unicode="&#xcd;" horiz-adv-x="536" 
d="M319 1575h-229l189 280h331zM414 0h-291v1434h291v-1434z" />
    <glyph glyph-name="Icircumflex" unicode="&#xce;" horiz-adv-x="536" 
d="M141 1575h-209l189 280h297l188 -280h-209l-129 123zM414 0h-291v1434h291v-1434z" />
    <glyph glyph-name="Idieresis" unicode="&#xcf;" horiz-adv-x="536" 
d="M-74 1706c0 41 14 76 43 105s63 44 103 44c41 0 76 -15 105 -44s44 -64 44 -105c0 -40 -15 -74 -44 -103c-29 -28 -64 -42 -105 -42c-40 0 -74 14 -103 42c-29 29 -43 63 -43 103zM414 0h-291v1434h291v-1434zM317 1706c0 41 14 76 43 105s63 44 103 44
c41 0 76 -15 105 -44s44 -64 44 -105c0 -40 -15 -74 -44 -103c-29 -28 -64 -42 -105 -42c-40 0 -74 14 -103 42c-29 29 -43 63 -43 103z" />
    <glyph glyph-name="Eth" unicode="&#xd0;" horiz-adv-x="1349" 
d="M172 608h-156v217h156v609h352c150 0 282 -28 397 -84c115 -55 204 -138 269 -247s98 -237 98 -386s-33 -278 -98 -387c-129 -217 -366 -330 -666 -330h-352v608zM463 608v-358h61c151 0 269 42 356 125s130 197 130 342s-43 259 -130 342s-205 125 -356 125h-61v-359
h266v-217h-266z" />
    <glyph glyph-name="Ntilde" unicode="&#xd1;" horiz-adv-x="1447" 
d="M414 0h-291v1434h123l788 -854v854h291v-1434h-123l-788 854v-854zM381 1571h-21l17 188c48 64 117 96 207 96c68 0 132 -27 168 -54c37 -27 89 -54 137 -54c67 0 126 31 178 94h20l-16 -188c-49 -65 -118 -97 -207 -97c-68 0 -133 27 -172 54c-37 28 -89 55 -133 55
c-56 0 -115 -31 -178 -94z" />
    <glyph glyph-name="Ograve" unicode="&#xd2;" horiz-adv-x="1650" 
d="M120 420c-39 93 -59 192 -59 297s20 204 59 296c80 185 217 317 405 392c95 38 195 57 300 57s205 -19 299 -57c189 -75 326 -207 405 -392c40 -92 60 -191 60 -296s-20 -204 -60 -297c-79 -185 -216 -316 -405 -392c-94 -38 -194 -57 -299 -57s-205 19 -300 57
c-188 76 -325 207 -405 392zM485 1076c-89 -91 -133 -210 -133 -359s44 -269 133 -360s203 -136 340 -136s250 45 339 136s134 211 134 360s-45 268 -134 359s-202 136 -339 136s-251 -45 -340 -136zM764 1575l-291 280h332l188 -280h-229z" />
    <glyph glyph-name="Oacute" unicode="&#xd3;" horiz-adv-x="1650" 
d="M120 420c-39 93 -59 192 -59 297s20 204 59 296c80 185 217 317 405 392c95 38 195 57 300 57s205 -19 299 -57c189 -75 326 -207 405 -392c40 -92 60 -191 60 -296s-20 -204 -60 -297c-79 -185 -216 -316 -405 -392c-94 -38 -194 -57 -299 -57s-205 19 -300 57
c-188 76 -325 207 -405 392zM485 1076c-89 -91 -133 -210 -133 -359s44 -269 133 -360s203 -136 340 -136s250 45 339 136s134 211 134 360s-45 268 -134 359s-202 136 -339 136s-251 -45 -340 -136zM887 1575h-230l189 280h332z" />
    <glyph glyph-name="Ocircumflex" unicode="&#xd4;" horiz-adv-x="1650" 
d="M120 420c-39 93 -59 192 -59 297s20 204 59 296c80 185 217 317 405 392c95 38 195 57 300 57s205 -19 299 -57c189 -75 326 -207 405 -392c40 -92 60 -191 60 -296s-20 -204 -60 -297c-79 -185 -216 -316 -405 -392c-94 -38 -194 -57 -299 -57s-205 19 -300 57
c-188 76 -325 207 -405 392zM485 1076c-89 -91 -133 -210 -133 -359s44 -269 133 -360s203 -136 340 -136s250 45 339 136s134 211 134 360s-45 268 -134 359s-202 136 -339 136s-251 -45 -340 -136zM698 1575h-209l189 280h297l188 -280h-209l-129 123z" />
    <glyph glyph-name="Otilde" unicode="&#xd5;" horiz-adv-x="1650" 
d="M120 420c-39 93 -59 192 -59 297s20 204 59 296c80 185 217 317 405 392c95 38 195 57 300 57s205 -19 299 -57c189 -75 326 -207 405 -392c40 -92 60 -191 60 -296s-20 -204 -60 -297c-79 -185 -216 -316 -405 -392c-94 -38 -194 -57 -299 -57s-205 19 -300 57
c-188 76 -325 207 -405 392zM485 1076c-89 -91 -133 -210 -133 -359s44 -269 133 -360s203 -136 340 -136s250 45 339 136s134 211 134 360s-45 268 -134 359s-202 136 -339 136s-251 -45 -340 -136zM483 1571h-20l16 188c48 64 117 96 207 96c68 0 132 -27 168 -54
c37 -27 89 -54 137 -54c67 0 126 31 178 94h21l-16 -188c-49 -65 -118 -97 -207 -97c-68 0 -133 27 -172 54c-37 28 -89 55 -133 55c-57 0 -116 -31 -179 -94z" />
    <glyph glyph-name="Odieresis" unicode="&#xd6;" horiz-adv-x="1650" 
d="M120 420c-39 93 -59 192 -59 297s20 204 59 296c80 185 217 317 405 392c95 38 195 57 300 57s205 -19 299 -57c189 -75 326 -207 405 -392c40 -92 60 -191 60 -296s-20 -204 -60 -297c-79 -185 -216 -316 -405 -392c-94 -38 -194 -57 -299 -57s-205 19 -300 57
c-188 76 -325 207 -405 392zM485 1076c-89 -91 -133 -210 -133 -359s44 -269 133 -360s203 -136 340 -136s250 45 339 136s134 211 134 360s-45 268 -134 359s-202 136 -339 136s-251 -45 -340 -136zM483 1706c0 41 14 76 43 105s63 44 103 44c41 0 76 -15 105 -44
s44 -64 44 -105c0 -40 -15 -74 -44 -103c-29 -28 -64 -42 -105 -42c-40 0 -74 14 -103 42c-29 29 -43 63 -43 103zM874 1706c0 41 14 76 43 105s63 44 103 44c41 0 76 -15 105 -44s44 -64 44 -105c0 -40 -15 -74 -44 -103c-29 -28 -64 -42 -105 -42c-40 0 -74 14 -103 42
c-29 29 -43 63 -43 103z" />
    <glyph glyph-name="multiply" unicode="&#xd7;" horiz-adv-x="937" 
d="M244 373l-154 153l225 226l-225 225l154 153l225 -225l225 225l154 -153l-225 -225l225 -226l-154 -153l-225 225z" />
    <glyph glyph-name="Oslash" unicode="&#xd8;" horiz-adv-x="1650" 
d="M61 717c0 105 20 204 59 296c40 93 94 172 162 237c68 66 149 118 243 155c95 38 195 57 300 57c81 0 163 -12 246 -37l66 117l237 -131l-63 -111c175 -137 278 -344 278 -583c0 -105 -20 -204 -60 -297c-39 -93 -93 -172 -161 -237s-149 -117 -244 -155
c-94 -38 -194 -57 -299 -57c-80 0 -162 12 -245 37l-66 -117l-238 132l64 110c-87 69 -156 153 -205 254s-74 211 -74 330zM352 717c0 -144 40 -259 121 -346l469 829c-37 8 -76 12 -117 12c-137 0 -251 -45 -340 -136s-133 -210 -133 -359zM1178 1063l-469 -830
c37 -8 75 -12 116 -12c137 0 250 45 339 136s134 211 134 360c0 145 -40 260 -120 346z" />
    <glyph glyph-name="Ugrave" unicode="&#xd9;" horiz-adv-x="1355" 
d="M102 569v865h291v-889c0 -121 33 -212 88 -260c56 -48 120 -68 197 -68s141 20 196 68c56 48 89 139 89 260v889h290v-865c0 -185 -51 -331 -152 -438s-242 -160 -423 -160s-323 53 -424 160s-152 253 -152 438zM668 1575l-291 280h332l188 -280h-229z" />
    <glyph glyph-name="Uacute" unicode="&#xda;" horiz-adv-x="1355" 
d="M102 569v865h291v-889c0 -121 33 -212 88 -260c56 -48 120 -68 197 -68s141 20 196 68c56 48 89 139 89 260v889h290v-865c0 -185 -51 -331 -152 -438s-242 -160 -423 -160s-323 53 -424 160s-152 253 -152 438zM688 1575h-229l188 280h332z" />
    <glyph glyph-name="Ucircumflex" unicode="&#xdb;" horiz-adv-x="1355" 
d="M102 569v865h291v-889c0 -121 33 -212 88 -260c56 -48 120 -68 197 -68s141 20 196 68c56 48 89 139 89 260v889h290v-865c0 -185 -51 -331 -152 -438s-242 -160 -423 -160s-323 53 -424 160s-152 253 -152 438zM551 1575h-209l188 280h297l189 -280h-209l-129 123z" />
    <glyph glyph-name="Udieresis" unicode="&#xdc;" horiz-adv-x="1355" 
d="M102 569v865h291v-889c0 -121 33 -212 88 -260c56 -48 120 -68 197 -68s141 20 196 68c56 48 89 139 89 260v889h290v-865c0 -185 -51 -331 -152 -438s-242 -160 -423 -160s-323 53 -424 160s-152 253 -152 438zM336 1706c0 41 14 76 42 105c29 29 63 44 103 44
c41 0 77 -15 106 -44s44 -64 44 -105c0 -40 -15 -74 -44 -103c-29 -28 -65 -42 -106 -42c-40 0 -74 14 -103 42c-28 29 -42 63 -42 103zM727 1706c0 41 14 76 42 105c29 29 63 44 103 44c41 0 77 -15 106 -44s44 -64 44 -105c0 -40 -15 -74 -44 -103
c-29 -28 -65 -42 -106 -42c-40 0 -74 14 -103 42c-28 29 -42 63 -42 103z" />
    <glyph glyph-name="Yacute" unicode="&#xdd;" horiz-adv-x="1257" 
d="M483 606l-454 828h321l279 -551l278 551h322l-455 -828v-606h-291v606zM639 1575h-229l188 280h332z" />
    <glyph glyph-name="Thorn" unicode="&#xde;" horiz-adv-x="1105" 
d="M414 0h-291v1434h291v-271h127c163 0 291 -40 385 -120s141 -189 141 -326s-47 -246 -141 -327c-94 -80 -222 -120 -385 -120h-127v-270zM414 913v-393h129c155 0 233 66 233 197s-78 196 -233 196h-129z" />
    <glyph glyph-name="germandbls" unicode="&#xdf;" horiz-adv-x="1243" 
d="M182 782h-112v230h112v32c0 289 227 414 412 414c127 0 228 -33 303 -98s113 -151 113 -256c0 -139 -76 -243 -203 -307c111 -27 200 -74 267 -143c67 -68 100 -158 100 -271c0 -125 -37 -225 -111 -300c-73 -75 -166 -112 -277 -112c-103 0 -195 33 -276 99l61 254h13
c52 -71 103 -103 186 -103s133 53 133 150c0 65 -31 124 -92 175s-149 82 -266 93v246c119 17 194 86 194 202c0 40 -13 74 -40 102c-26 28 -60 42 -103 42c-95 0 -143 -62 -143 -187v-1044h-271v782z" />
    <glyph glyph-name="agrave" unicode="&#xe0;" horiz-adv-x="1249" 
d="M57 506c0 97 22 186 67 268s107 147 185 194c78 48 163 72 256 72c131 0 246 -47 303 -120v92h271v-1012h-271v92c-42 -40 -87 -70 -135 -91c-48 -20 -109 -30 -184 -30c-97 0 -194 31 -278 92c-122 88 -215 244 -214 443zM594 1153l-291 281h332l188 -281h-229zM403 709
c-50 -55 -75 -122 -75 -203s25 -148 75 -203c51 -55 118 -82 201 -82s150 27 201 82s76 122 76 203s-25 148 -76 203s-118 82 -201 82s-150 -27 -201 -82z" />
    <glyph glyph-name="aacute" unicode="&#xe1;" horiz-adv-x="1249" 
d="M57 506c0 97 22 186 67 268s107 147 185 194c78 48 163 72 256 72c131 0 246 -47 303 -120v92h271v-1012h-271v92c-42 -40 -87 -70 -135 -91c-48 -20 -109 -30 -184 -30c-97 0 -194 31 -278 92c-122 88 -215 244 -214 443zM403 709c-50 -55 -75 -122 -75 -203
s25 -148 75 -203c51 -55 118 -82 201 -82s150 27 201 82s76 122 76 203s-25 148 -76 203s-118 82 -201 82s-150 -27 -201 -82zM614 1153h-229l188 281h332z" />
    <glyph glyph-name="acircumflex" unicode="&#xe2;" horiz-adv-x="1249" 
d="M57 506c0 97 22 186 67 268s107 147 185 194c78 48 163 72 256 72c131 0 246 -47 303 -120v92h271v-1012h-271v92c-42 -40 -87 -70 -135 -91c-48 -20 -109 -30 -184 -30c-97 0 -194 31 -278 92c-122 88 -215 244 -214 443zM477 1153h-209l189 281h297l188 -281h-209
l-129 123zM403 709c-50 -55 -75 -122 -75 -203s25 -148 75 -203c51 -55 118 -82 201 -82s150 27 201 82s76 122 76 203s-25 148 -76 203s-118 82 -201 82s-150 -27 -201 -82z" />
    <glyph glyph-name="atilde" unicode="&#xe3;" horiz-adv-x="1249" 
d="M57 506c0 97 22 186 67 268s107 147 185 194c78 48 163 72 256 72c131 0 246 -47 303 -120v92h271v-1012h-271v92c-42 -40 -87 -70 -135 -91c-48 -20 -109 -30 -184 -30c-97 0 -194 31 -278 92c-122 88 -215 244 -214 443zM262 1149h-20l16 188c49 65 118 97 207 97
c68 0 132 -27 168 -55c37 -27 89 -54 137 -54c67 0 126 31 178 94h21l-17 -188c-48 -64 -117 -96 -207 -96c-68 0 -133 27 -172 54c-37 27 -89 54 -133 54c-56 0 -115 -31 -178 -94zM403 709c-50 -55 -75 -122 -75 -203s25 -148 75 -203c51 -55 118 -82 201 -82
s150 27 201 82s76 122 76 203s-25 148 -76 203s-118 82 -201 82s-150 -27 -201 -82z" />
    <glyph glyph-name="adieresis" unicode="&#xe4;" horiz-adv-x="1249" 
d="M57 506c0 97 22 186 67 268s107 147 185 194c78 48 163 72 256 72c131 0 246 -47 303 -120v92h271v-1012h-271v92c-42 -40 -87 -70 -135 -91c-48 -20 -109 -30 -184 -30c-97 0 -194 31 -278 92c-122 88 -215 244 -214 443zM262 1284c0 41 14 77 43 106s63 44 103 44
c41 0 76 -15 105 -44s44 -65 44 -106c0 -40 -15 -74 -44 -103c-29 -28 -64 -42 -105 -42c-40 0 -74 14 -103 42c-29 29 -43 63 -43 103zM403 709c-50 -55 -75 -122 -75 -203s25 -148 75 -203c51 -55 118 -82 201 -82s150 27 201 82s76 122 76 203s-25 148 -76 203
s-118 82 -201 82s-150 -27 -201 -82zM653 1284c0 41 14 77 43 106s63 44 103 44c41 0 76 -15 105 -44s44 -65 44 -106c0 -40 -15 -74 -44 -103c-29 -28 -64 -42 -105 -42c-40 0 -74 14 -103 42c-29 29 -43 63 -43 103z" />
    <glyph glyph-name="aring" unicode="&#xe5;" horiz-adv-x="1249" 
d="M57 506c0 97 22 186 67 268s107 147 185 194c78 48 163 72 256 72c131 0 246 -47 303 -120v92h271v-1012h-271v92c-42 -40 -87 -70 -135 -91c-48 -20 -109 -30 -184 -30c-97 0 -194 31 -278 92c-122 88 -215 244 -214 443zM403 709c-50 -55 -75 -122 -75 -203
s25 -148 75 -203c51 -55 118 -82 201 -82s150 27 201 82s76 122 76 203s-25 148 -76 203s-118 82 -201 82s-150 -27 -201 -82zM454 1174c-41 40 -61 89 -61 147s20 107 61 147s91 60 150 60s109 -20 150 -60s61 -89 61 -147s-20 -107 -61 -147s-91 -60 -150 -60
s-109 20 -150 60zM526 1398c-20 -21 -30 -46 -30 -77s10 -57 30 -78s46 -31 78 -31s58 10 78 31c21 21 31 47 31 78s-10 56 -31 77c-20 21 -46 32 -78 32s-58 -11 -78 -32z" />
    <glyph glyph-name="ae" unicode="&#xe6;" horiz-adv-x="1771" 
d="M57 274c0 224 190 344 574 344h37c-2 63 -22 113 -59 150s-82 55 -136 55c-112 0 -191 -36 -280 -112h-43l22 233c41 27 93 49 158 68s128 28 190 28c145 0 252 -46 322 -139c103 93 221 139 354 139c167 0 303 -62 384 -162c83 -99 126 -225 126 -364v-80h-776
c31 -151 148 -233 309 -233c140 0 262 44 365 133h28l-10 -256c-123 -71 -256 -107 -401 -107c-171 0 -325 74 -426 197c-57 -74 -118 -125 -183 -154s-140 -43 -223 -43c-92 0 -170 28 -235 84s-97 129 -97 219zM319 289c0 -65 49 -109 121 -109c68 0 123 25 165 75
s63 110 63 179c-89 0 -151 -3 -212 -16c-87 -17 -137 -56 -137 -129zM938 618h498c-7 63 -33 114 -78 153c-44 40 -98 60 -162 60c-121 0 -222 -78 -258 -213z" />
    <glyph glyph-name="ccedilla" unicode="&#xe7;" horiz-adv-x="997" 
d="M57 506c0 164 66 306 167 394c101 89 238 140 382 140c124 0 222 -26 295 -79l10 -285h-28c-88 77 -180 115 -277 115c-84 0 -151 -27 -202 -80s-76 -122 -76 -205s25 -152 76 -205s118 -80 202 -80c97 0 189 38 277 115h28l-10 -285c-72 -51 -165 -78 -280 -80l-72 -88
c36 9 69 13 100 13c109 0 178 -66 178 -177c0 -67 -25 -118 -75 -155s-116 -56 -197 -56c-73 0 -138 9 -193 27l-22 146l25 10c51 -29 101 -43 149 -43c59 0 96 26 96 71c0 49 -31 74 -94 74c-36 0 -73 -6 -110 -18l-19 20l80 193c-119 27 -218 86 -295 177
s-115 205 -115 341z" />
    <glyph glyph-name="egrave" unicode="&#xe8;" horiz-adv-x="1157" 
d="M57 514c0 148 50 273 151 374s225 152 372 152c167 0 304 -62 385 -161c83 -99 127 -226 127 -365v-80h-777c31 -151 149 -233 310 -233c139 0 261 44 364 133h29l-10 -256c-123 -71 -257 -107 -402 -107c-101 0 -193 24 -277 71s-150 113 -199 196s-73 175 -73 276z
M547 1153l-291 281h332l188 -281h-229zM322 618h499c-7 63 -33 114 -78 153c-45 40 -99 60 -163 60c-121 0 -222 -78 -258 -213z" />
    <glyph glyph-name="eacute" unicode="&#xe9;" horiz-adv-x="1157" 
d="M57 514c0 148 50 273 151 374s225 152 372 152c167 0 304 -62 385 -161c83 -99 127 -226 127 -365v-80h-777c31 -151 149 -233 310 -233c139 0 261 44 364 133h29l-10 -256c-123 -71 -257 -107 -402 -107c-101 0 -193 24 -277 71s-150 113 -199 196s-73 175 -73 276z
M322 618h499c-7 63 -33 114 -78 153c-45 40 -99 60 -163 60c-121 0 -222 -78 -258 -213zM608 1153h-229l188 281h332z" />
    <glyph glyph-name="ecircumflex" unicode="&#xea;" horiz-adv-x="1157" 
d="M57 514c0 148 50 273 151 374s225 152 372 152c167 0 304 -62 385 -161c83 -99 127 -226 127 -365v-80h-777c31 -151 149 -233 310 -233c139 0 261 44 364 133h29l-10 -256c-123 -71 -257 -107 -402 -107c-101 0 -193 24 -277 71s-150 113 -199 196s-73 175 -73 276z
M451 1153h-209l188 281h297l188 -281h-208l-129 123zM322 618h499c-7 63 -33 114 -78 153c-45 40 -99 60 -163 60c-121 0 -222 -78 -258 -213z" />
    <glyph glyph-name="edieresis" unicode="&#xeb;" horiz-adv-x="1157" 
d="M57 514c0 148 50 273 151 374s225 152 372 152c167 0 304 -62 385 -161c83 -99 127 -226 127 -365v-80h-777c31 -151 149 -233 310 -233c139 0 261 44 364 133h29l-10 -256c-123 -71 -257 -107 -402 -107c-101 0 -193 24 -277 71s-150 113 -199 196s-73 175 -73 276z
M236 1284c0 41 14 77 42 106c29 29 63 44 103 44c41 0 76 -15 105 -44s44 -65 44 -106c0 -40 -15 -74 -44 -103c-29 -28 -64 -42 -105 -42c-40 0 -74 14 -103 42c-28 29 -42 63 -42 103zM322 618h499c-7 63 -33 114 -78 153c-45 40 -99 60 -163 60
c-121 0 -222 -78 -258 -213zM627 1284c0 41 14 77 42 106c29 29 63 44 103 44c41 0 77 -15 106 -44s44 -65 44 -106c0 -40 -15 -74 -44 -103c-29 -28 -65 -42 -106 -42c-40 0 -74 14 -103 42c-28 29 -42 63 -42 103z" />
    <glyph glyph-name="igrave" unicode="&#xec;" horiz-adv-x="516" 
d="M207 1153l-291 281h332l188 -281h-229zM393 0h-270v1012h270v-1012z" />
    <glyph glyph-name="iacute" unicode="&#xed;" horiz-adv-x="516" 
d="M289 1153h-230l189 281h332zM393 0h-270v1012h270v-1012z" />
    <glyph glyph-name="icircumflex" unicode="&#xee;" horiz-adv-x="516" 
d="M131 1153h-209l189 281h297l188 -281h-209l-129 123zM393 0h-270v1012h270v-1012z" />
    <glyph glyph-name="idieresis" unicode="&#xef;" horiz-adv-x="516" 
d="M-84 1284c0 41 14 77 43 106c28 29 62 44 102 44c41 0 76 -15 105 -44c30 -29 45 -65 45 -106c0 -40 -15 -74 -44 -103c-29 -28 -65 -42 -106 -42c-40 0 -74 14 -102 42c-29 29 -43 63 -43 103zM393 0h-270v1012h270v-1012zM307 1284c0 41 14 77 43 106s63 44 103 44
c41 0 76 -15 105 -44s44 -65 44 -106c0 -40 -15 -74 -44 -103c-29 -28 -64 -42 -105 -42c-40 0 -74 14 -103 42c-29 29 -43 63 -43 103z" />
    <glyph glyph-name="eth" unicode="&#xf0;" horiz-adv-x="1173" 
d="M66 455c0 138 44 251 133 340s198 133 327 133c100 0 184 -27 252 -82c-29 101 -80 191 -153 268l-285 -117l-43 107l231 94c-61 47 -132 90 -213 131v33l248 108c93 -47 171 -101 236 -161l176 73l43 -106l-135 -55c147 -177 221 -387 221 -631
c0 -195 -49 -347 -148 -456c-98 -109 -227 -163 -387 -163c-148 0 -279 55 -366 143c-85 88 -137 209 -137 341zM575 217c67 0 122 23 166 68s66 102 66 170c0 67 -22 124 -66 169s-99 68 -166 68s-122 -23 -166 -68c-43 -45 -65 -101 -65 -169s22 -125 66 -170
s99 -68 165 -68z" />
    <glyph glyph-name="ntilde" unicode="&#xf1;" 
d="M381 0h-270v1012h270v-125c37 47 85 84 144 111c59 28 122 42 188 42c110 0 197 -30 262 -89s98 -146 98 -261v-690h-270v594c0 129 -77 197 -193 197c-66 0 -121 -24 -164 -73s-65 -114 -65 -196v-522zM260 1149h-20l16 188c49 65 118 97 207 97c68 0 132 -27 168 -55
c37 -27 89 -54 137 -54c67 0 126 31 178 94h21l-17 -188c-48 -64 -117 -96 -207 -96c-68 0 -133 27 -172 54c-37 27 -89 54 -133 54c-56 0 -115 -31 -178 -94z" />
    <glyph glyph-name="ograve" unicode="&#xf2;" horiz-adv-x="1224" 
d="M57 506c0 148 64 286 163 381c100 95 243 153 392 153s292 -58 391 -153c100 -95 164 -233 164 -381c0 -99 -25 -189 -75 -272c-50 -82 -118 -146 -203 -193s-177 -70 -277 -70s-193 23 -278 70s-152 111 -202 193c-50 83 -75 173 -75 272zM582 1153l-291 281h332
l188 -281h-229zM411 711c-55 -53 -83 -122 -83 -205s28 -152 83 -205s122 -80 201 -80s146 27 201 80c56 53 84 122 84 205s-28 152 -84 205c-55 53 -122 80 -201 80s-146 -27 -201 -80z" />
    <glyph glyph-name="oacute" unicode="&#xf3;" horiz-adv-x="1224" 
d="M57 506c0 148 64 286 163 381c100 95 243 153 392 153s292 -58 391 -153c100 -95 164 -233 164 -381c0 -99 -25 -189 -75 -272c-50 -82 -118 -146 -203 -193s-177 -70 -277 -70s-193 23 -278 70s-152 111 -202 193c-50 83 -75 173 -75 272zM411 711
c-55 -53 -83 -122 -83 -205s28 -152 83 -205s122 -80 201 -80s146 27 201 80c56 53 84 122 84 205s-28 152 -84 205c-55 53 -122 80 -201 80s-146 -27 -201 -80zM643 1153h-229l188 281h332z" />
    <glyph glyph-name="ocircumflex" unicode="&#xf4;" horiz-adv-x="1224" 
d="M57 506c0 148 64 286 163 381c100 95 243 153 392 153s292 -58 391 -153c100 -95 164 -233 164 -381c0 -99 -25 -189 -75 -272c-50 -82 -118 -146 -203 -193s-177 -70 -277 -70s-193 23 -278 70s-152 111 -202 193c-50 83 -75 173 -75 272zM485 1153h-209l189 281h297
l188 -281h-209l-129 123zM411 711c-55 -53 -83 -122 -83 -205s28 -152 83 -205s122 -80 201 -80s146 27 201 80c56 53 84 122 84 205s-28 152 -84 205c-55 53 -122 80 -201 80s-146 -27 -201 -80z" />
    <glyph glyph-name="otilde" unicode="&#xf5;" horiz-adv-x="1224" 
d="M57 506c0 148 64 286 163 381c100 95 243 153 392 153s292 -58 391 -153c100 -95 164 -233 164 -381c0 -99 -25 -189 -75 -272c-50 -82 -118 -146 -203 -193s-177 -70 -277 -70s-193 23 -278 70s-152 111 -202 193c-50 83 -75 173 -75 272zM270 1149h-20l16 188
c49 65 118 97 207 97c68 0 132 -27 168 -55c37 -27 89 -54 137 -54c67 0 126 31 178 94h21l-16 -188c-48 -64 -117 -96 -207 -96c-68 0 -133 27 -172 54c-37 27 -89 54 -133 54c-57 0 -116 -31 -179 -94zM411 711c-55 -53 -83 -122 -83 -205s28 -152 83 -205
s122 -80 201 -80s146 27 201 80c56 53 84 122 84 205s-28 152 -84 205c-55 53 -122 80 -201 80s-146 -27 -201 -80z" />
    <glyph glyph-name="odieresis" unicode="&#xf6;" horiz-adv-x="1224" 
d="M57 506c0 148 64 286 163 381c100 95 243 153 392 153s292 -58 391 -153c100 -95 164 -233 164 -381c0 -99 -25 -189 -75 -272c-50 -82 -118 -146 -203 -193s-177 -70 -277 -70s-193 23 -278 70s-152 111 -202 193c-50 83 -75 173 -75 272zM270 1284c0 41 14 77 43 106
s63 44 103 44c41 0 76 -15 105 -44s44 -65 44 -106c0 -40 -15 -74 -44 -103c-29 -28 -64 -42 -105 -42c-40 0 -74 14 -103 42c-29 29 -43 63 -43 103zM411 711c-55 -53 -83 -122 -83 -205s28 -152 83 -205s122 -80 201 -80s146 27 201 80c56 53 84 122 84 205
s-28 152 -84 205c-55 53 -122 80 -201 80s-146 -27 -201 -80zM662 1284c0 41 14 77 42 106c29 29 63 44 103 44c41 0 76 -15 105 -44s44 -65 44 -106c0 -40 -15 -74 -44 -103c-29 -28 -64 -42 -105 -42c-40 0 -74 14 -103 42c-28 29 -42 63 -42 103z" />
    <glyph glyph-name="divide" unicode="&#xf7;" horiz-adv-x="1036" 
d="M946 573h-856v218h856v-218zM360 332c0 44 15 82 46 113s67 47 110 47c44 0 82 -16 113 -47s47 -69 47 -113c0 -43 -16 -79 -47 -110s-69 -46 -113 -46c-43 0 -79 15 -110 46s-46 67 -46 110zM360 1028c0 44 15 82 46 113s67 47 110 47c44 0 82 -16 113 -47
s47 -69 47 -113c0 -43 -16 -79 -47 -110s-69 -46 -113 -46c-43 0 -79 15 -110 46s-46 67 -46 110z" />
    <glyph glyph-name="oslash" unicode="&#xf8;" horiz-adv-x="1224" 
d="M57 506c0 148 64 286 163 381c100 95 243 153 392 153c48 0 98 -7 150 -20l51 94l211 -115l-49 -88c120 -99 192 -242 192 -405c0 -99 -25 -189 -75 -272c-50 -82 -118 -146 -203 -193s-177 -70 -277 -70c-45 0 -94 7 -149 21l-51 -94l-211 114l49 88
c-120 99 -193 243 -193 406zM328 506c0 -68 18 -125 53 -170l252 455h-21c-79 0 -146 -27 -201 -80s-83 -122 -83 -205zM844 676l-252 -455h20c79 0 146 27 201 80c56 53 84 122 84 205c0 68 -18 125 -53 170z" />
    <glyph glyph-name="ugrave" unicode="&#xf9;" 
d="M98 322v690h271v-594c0 -131 76 -197 192 -197c67 0 122 24 165 72c43 49 65 114 65 196v523h270v-1012h-270v125c-37 -47 -85 -84 -144 -112s-122 -42 -188 -42c-110 0 -198 30 -263 89c-65 60 -98 147 -98 262zM535 1153l-291 281h331l189 -281h-229z" />
    <glyph glyph-name="uacute" unicode="&#xfa;" 
d="M98 322v690h271v-594c0 -131 76 -197 192 -197c67 0 122 24 165 72c43 49 65 114 65 196v523h270v-1012h-270v125c-37 -47 -85 -84 -144 -112s-122 -42 -188 -42c-110 0 -198 30 -263 89c-65 60 -98 147 -98 262zM616 1153h-229l188 281h332z" />
    <glyph glyph-name="ucircumflex" unicode="&#xfb;" 
d="M98 322v690h271v-594c0 -131 76 -197 192 -197c67 0 122 24 165 72c43 49 65 114 65 196v523h270v-1012h-270v125c-37 -47 -85 -84 -144 -112s-122 -42 -188 -42c-110 0 -198 30 -263 89c-65 60 -98 147 -98 262zM455 1153h-209l188 281h297l189 -281h-209l-129 123z" />
    <glyph glyph-name="udieresis" unicode="&#xfc;" 
d="M98 322v690h271v-594c0 -131 76 -197 192 -197c67 0 122 24 165 72c43 49 65 114 65 196v523h270v-1012h-270v125c-37 -47 -85 -84 -144 -112s-122 -42 -188 -42c-110 0 -198 30 -263 89c-65 60 -98 147 -98 262zM244 1284c0 41 14 77 42 106c29 29 63 44 103 44
c41 0 76 -15 105 -44c30 -29 45 -65 45 -106c0 -40 -15 -74 -44 -103c-29 -28 -65 -42 -106 -42c-40 0 -74 14 -103 42c-28 29 -42 63 -42 103zM635 1284c0 41 14 77 42 106c29 29 63 44 103 44c41 0 77 -15 106 -44s44 -65 44 -106c0 -40 -15 -74 -44 -103
c-29 -28 -65 -42 -106 -42c-40 0 -74 14 -103 42c-28 29 -42 63 -42 103z" />
    <glyph glyph-name="yacute" unicode="&#xfd;" horiz-adv-x="1079" 
d="M412 197l-398 815h279l248 -531l245 531h279l-717 -1475h-278zM569 1153h-229l188 281h332z" />
    <glyph glyph-name="thorn" unicode="&#xfe;" horiz-adv-x="1261" 
d="M381 -463h-270v1897h270v-529c81 90 189 135 326 135c144 0 263 -50 356 -150c94 -100 141 -228 141 -384c0 -165 -56 -307 -148 -396c-91 -88 -215 -139 -354 -139c-141 0 -248 42 -321 125v-559zM447 710c-52 -53 -78 -121 -78 -204s26 -151 78 -205
c53 -53 121 -80 204 -80s151 27 204 80c53 54 79 122 79 205s-26 151 -79 204c-53 54 -121 81 -204 81s-151 -27 -204 -81z" />
    <glyph glyph-name="ydieresis" unicode="&#xff;" horiz-adv-x="1079" 
d="M412 197l-398 815h279l248 -531l245 531h279l-717 -1475h-278zM184 1284c0 41 14 77 43 106s63 44 103 44c41 0 76 -15 105 -44s44 -65 44 -106c0 -40 -15 -74 -44 -103c-29 -28 -64 -42 -105 -42c-40 0 -74 14 -103 42c-29 29 -43 63 -43 103zM575 1284
c0 41 14 77 43 106s63 44 103 44c41 0 76 -15 105 -44s44 -65 44 -106c0 -40 -15 -74 -44 -103c-29 -28 -64 -42 -105 -42c-40 0 -74 14 -103 42c-29 29 -43 63 -43 103z" />
    <glyph glyph-name="Amacron" unicode="&#x100;" horiz-adv-x="1425" 
d="M317 0h-282l635 1434h86l635 -1434h-283l-107 246h-577zM969 1589h-512v193h512v-193zM713 926l-187 -434h373z" />
    <glyph glyph-name="amacron" unicode="&#x101;" horiz-adv-x="1249" 
d="M57 506c0 97 22 186 67 268s107 147 185 194c78 48 163 72 256 72c131 0 246 -47 303 -120v92h271v-1012h-271v92c-42 -40 -87 -70 -135 -91c-48 -20 -109 -30 -184 -30c-97 0 -194 31 -278 92c-122 88 -215 244 -214 443zM403 709c-50 -55 -75 -122 -75 -203
s25 -148 75 -203c51 -55 118 -82 201 -82s150 27 201 82s76 122 76 203s-25 148 -76 203s-118 82 -201 82s-150 -27 -201 -82zM881 1167h-512v193h512v-193z" />
    <glyph glyph-name="Abreve" unicode="&#x102;" horiz-adv-x="1425" 
d="M317 0h-282l635 1434h86l635 -1434h-283l-107 246h-577zM469 1774h176c0 -47 24 -78 68 -78s67 31 67 78h176c0 -71 -22 -129 -67 -174s-103 -68 -176 -68s-132 23 -177 68c-45 46 -67 104 -67 174zM713 926l-187 -434h373z" />
    <glyph glyph-name="abreve" unicode="&#x103;" horiz-adv-x="1249" 
d="M57 506c0 97 22 186 67 268s107 147 185 194c78 48 163 72 256 72c131 0 246 -47 303 -120v92h271v-1012h-271v92c-42 -40 -87 -70 -135 -91c-48 -20 -109 -30 -184 -30c-97 0 -194 31 -278 92c-122 88 -215 244 -214 443zM403 709c-50 -55 -75 -122 -75 -203
s25 -148 75 -203c51 -55 118 -82 201 -82s150 27 201 82s76 122 76 203s-25 148 -76 203s-118 82 -201 82s-150 -27 -201 -82zM381 1393h176c0 -47 24 -78 68 -78s67 31 67 78h176c0 -71 -22 -129 -67 -174s-103 -68 -176 -68s-132 23 -177 68c-45 46 -67 104 -67 174z" />
    <glyph glyph-name="Aogonek" unicode="&#x104;" horiz-adv-x="1425" 
d="M317 0h-282l635 1434h86l635 -1434c-72 -72 -123 -161 -123 -233c0 -71 45 -119 118 -119c55 0 84 11 127 43l25 -10l-22 -146c-55 -18 -114 -27 -177 -27c-172 0 -272 92 -272 232c0 100 61 196 160 260h-119l-107 246h-577zM713 926l-187 -434h373z" />
    <glyph glyph-name="aogonek" unicode="&#x105;" horiz-adv-x="1249" 
d="M57 506c0 97 22 186 67 268s107 147 185 194c78 48 163 72 256 72c131 0 246 -47 303 -120v92h271v-1012c-72 -72 -123 -161 -123 -233c0 -71 46 -119 119 -119c55 0 84 11 127 43l24 -10l-22 -146c-55 -18 -114 -27 -177 -27c-172 0 -272 92 -272 232
c0 100 61 196 160 260h-107v92c-42 -40 -87 -70 -135 -91c-48 -20 -109 -30 -184 -30c-97 0 -194 31 -278 92c-122 88 -215 244 -214 443zM403 709c-50 -55 -75 -122 -75 -203s25 -148 75 -203c51 -55 118 -82 201 -82s150 27 201 82s76 122 76 203s-25 148 -76 203
s-118 82 -201 82s-150 -27 -201 -82z" />
    <glyph glyph-name="Cacute" unicode="&#x106;" horiz-adv-x="1345" 
d="M61 717c0 142 33 270 100 384s158 203 274 266c117 63 247 95 390 95c87 0 162 -8 223 -25s124 -44 189 -83l23 -297h-39c-127 95 -254 143 -383 143c-151 0 -270 -45 -357 -135c-86 -90 -129 -206 -129 -348s43 -258 129 -349c87 -90 206 -135 357 -135
c128 0 256 48 383 144h39l-23 -297c-65 -39 -129 -66 -190 -83s-135 -26 -222 -26c-215 0 -410 79 -546 210c-67 65 -121 144 -160 237s-58 192 -58 299zM846 1575h-230l189 280h332z" />
    <glyph glyph-name="cacute" unicode="&#x107;" horiz-adv-x="997" 
d="M606 1040c124 0 222 -26 295 -79l10 -285h-28c-88 77 -180 115 -277 115c-84 0 -151 -27 -202 -80s-76 -122 -76 -205s25 -152 76 -205s118 -80 202 -80c97 0 189 38 277 115h28l-10 -285c-74 -53 -172 -80 -295 -80c-144 0 -281 51 -382 140s-167 231 -167 395
s66 306 167 394c101 89 238 140 382 140zM610 1153h-229l188 281h332z" />
    <glyph glyph-name="Ccircumflex" unicode="&#x108;" horiz-adv-x="1345" 
d="M61 717c0 142 33 270 100 384s158 203 274 266c117 63 247 95 390 95c87 0 162 -8 223 -25s124 -44 189 -83l23 -297h-39c-127 95 -254 143 -383 143c-151 0 -270 -45 -357 -135c-86 -90 -129 -206 -129 -348s43 -258 129 -349c87 -90 206 -135 357 -135
c128 0 256 48 383 144h39l-23 -297c-65 -39 -129 -66 -190 -83s-135 -26 -222 -26c-215 0 -410 79 -546 210c-67 65 -121 144 -160 237s-58 192 -58 299zM668 1575h-209l188 280h297l189 -280h-209l-129 123z" />
    <glyph glyph-name="ccircumflex" unicode="&#x109;" horiz-adv-x="997" 
d="M606 1040c124 0 222 -26 295 -79l10 -285h-28c-88 77 -180 115 -277 115c-84 0 -151 -27 -202 -80s-76 -122 -76 -205s25 -152 76 -205s118 -80 202 -80c97 0 189 38 277 115h28l-10 -285c-74 -53 -172 -80 -295 -80c-144 0 -281 51 -382 140s-167 231 -167 395
s66 306 167 394c101 89 238 140 382 140zM453 1153h-209l188 281h297l189 -281h-209l-129 123z" />
    <glyph glyph-name="Cdotaccent" unicode="&#x10a;" horiz-adv-x="1345" 
d="M61 717c0 142 33 270 100 384s158 203 274 266c117 63 247 95 390 95c87 0 162 -8 223 -25s124 -44 189 -83l23 -297h-39c-127 95 -254 143 -383 143c-151 0 -270 -45 -357 -135c-86 -90 -129 -206 -129 -348s43 -258 129 -349c87 -90 206 -135 357 -135
c128 0 256 48 383 144h39l-23 -297c-65 -39 -129 -66 -190 -83s-135 -26 -222 -26c-215 0 -410 79 -546 210c-67 65 -121 144 -160 237s-58 192 -58 299zM625 1741c0 47 16 88 49 121c33 34 73 51 119 51c47 0 88 -17 121 -51c34 -33 51 -74 51 -121c0 -46 -17 -86 -51 -119
c-33 -33 -74 -49 -121 -49c-46 0 -86 16 -119 49s-49 73 -49 119z" />
    <glyph glyph-name="cdotaccent" unicode="&#x10b;" horiz-adv-x="997" 
d="M606 1040c124 0 222 -26 295 -79l10 -285h-28c-88 77 -180 115 -277 115c-84 0 -151 -27 -202 -80s-76 -122 -76 -205s25 -152 76 -205s118 -80 202 -80c97 0 189 38 277 115h28l-10 -285c-74 -53 -172 -80 -295 -80c-144 0 -281 51 -382 140s-167 231 -167 395
s66 306 167 394c101 89 238 140 382 140zM410 1319c0 47 16 88 49 121c33 34 73 51 119 51c47 0 87 -17 121 -51c34 -33 51 -74 51 -121c0 -46 -17 -86 -51 -119c-33 -33 -74 -49 -121 -49c-46 0 -86 16 -119 49s-49 73 -49 119z" />
    <glyph glyph-name="Ccaron" unicode="&#x10c;" horiz-adv-x="1345" 
d="M61 717c0 142 33 270 100 384s158 203 274 266c117 63 247 95 390 95c87 0 162 -8 223 -25s124 -44 189 -83l23 -297h-39c-127 95 -254 143 -383 143c-151 0 -270 -45 -357 -135c-86 -90 -129 -206 -129 -348s43 -258 129 -349c87 -90 206 -135 357 -135
c128 0 256 48 383 144h39l-23 -297c-65 -39 -129 -66 -190 -83s-135 -26 -222 -26c-215 0 -410 79 -546 210c-67 65 -121 144 -160 237s-58 192 -58 299zM647 1575l-188 280h209l127 -122l129 122h209l-189 -280h-297z" />
    <glyph glyph-name="ccaron" unicode="&#x10d;" horiz-adv-x="997" 
d="M606 1040c124 0 222 -26 295 -79l10 -285h-28c-88 77 -180 115 -277 115c-84 0 -151 -27 -202 -80s-76 -122 -76 -205s25 -152 76 -205s118 -80 202 -80c97 0 189 38 277 115h28l-10 -285c-74 -53 -172 -80 -295 -80c-144 0 -281 51 -382 140s-167 231 -167 395
s66 306 167 394c101 89 238 140 382 140zM432 1153l-188 281h209l127 -123l129 123h209l-189 -281h-297z" />
    <glyph glyph-name="Dcaron" unicode="&#x10e;" horiz-adv-x="1300" 
d="M475 0h-352v1434h352c150 0 282 -28 397 -84c115 -55 204 -138 269 -247s98 -237 98 -386s-33 -278 -98 -387c-129 -217 -366 -330 -666 -330zM440 1575l-188 280h209l127 -122l129 122h209l-189 -280h-297zM414 1184v-934h61c151 0 269 42 356 125s130 197 130 342
s-43 259 -130 342s-205 125 -356 125h-61z" />
    <glyph glyph-name="dcaron" unicode="&#x10f;" horiz-adv-x="1697" 
d="M57 506c0 165 56 306 147 395c92 89 216 139 355 139c141 0 249 -42 322 -125v560h270v-1475h-270v106c-81 -90 -189 -135 -326 -135c-144 0 -263 50 -357 150c-94 101 -141 229 -141 385zM406 710c-52 -53 -78 -121 -78 -204s26 -151 78 -205c53 -53 121 -80 204 -80
s151 27 204 80c53 54 79 122 79 205s-26 151 -79 204c-53 54 -121 81 -204 81s-151 -27 -204 -81zM1309 1294c0 44 15 82 45 113c31 31 67 47 110 47c48 0 87 -17 116 -50s44 -74 44 -124c0 -152 -79 -277 -238 -375l-43 43c73 53 112 116 119 191c-43 0 -79 15 -109 45
c-29 30 -44 67 -44 110z" />
    <glyph glyph-name="Dcroat" unicode="&#x110;" horiz-adv-x="1349" 
d="M172 608h-156v217h156v609h352c150 0 282 -28 397 -84c115 -55 204 -138 269 -247s98 -237 98 -386s-33 -278 -98 -387c-129 -217 -366 -330 -666 -330h-352v608zM463 608v-358h61c151 0 269 42 356 125s130 197 130 342s-43 259 -130 342s-205 125 -356 125h-61v-359
h266v-217h-266z" />
    <glyph glyph-name="dslash" unicode="&#x111;" horiz-adv-x="1261" 
d="M57 506c0 165 56 306 147 395c92 89 216 139 355 139c141 0 249 -42 322 -125v240h-287v176h287v144h270v-144h115v-176h-115v-1155h-270v106c-81 -90 -189 -135 -326 -135c-144 0 -263 50 -357 150c-94 101 -141 229 -141 385zM406 710c-52 -53 -78 -121 -78 -204
s26 -151 78 -205c53 -53 121 -80 204 -80s151 27 204 80c53 54 79 122 79 205s-26 151 -79 204c-53 54 -121 81 -204 81s-151 -27 -204 -81z" />
    <glyph glyph-name="Emacron" unicode="&#x112;" horiz-adv-x="1114" 
d="M1042 0h-919v1434h911v-246h-620v-328h598v-246h-598v-368h628v-246zM874 1589h-512v193h512v-193z" />
    <glyph glyph-name="emacron" unicode="&#x113;" horiz-adv-x="1157" 
d="M57 514c0 148 50 273 151 374s225 152 372 152c167 0 304 -62 385 -161c83 -99 127 -226 127 -365v-80h-777c31 -151 149 -233 310 -233c139 0 261 44 364 133h29l-10 -256c-123 -71 -257 -107 -402 -107c-101 0 -193 24 -277 71s-150 113 -199 196s-73 175 -73 276z
M322 618h499c-7 63 -33 114 -78 153c-45 40 -99 60 -163 60c-121 0 -222 -78 -258 -213zM834 1167h-512v193h512v-193z" />
    <glyph glyph-name="Ebreve" unicode="&#x114;" horiz-adv-x="1114" 
d="M1042 0h-919v1434h911v-246h-620v-328h598v-246h-598v-368h628v-246zM375 1774h176c0 -47 23 -78 67 -78s68 31 68 78h176c0 -70 -23 -128 -68 -174c-45 -45 -103 -68 -176 -68s-131 23 -176 68s-67 103 -67 174z" />
    <glyph glyph-name="ebreve" unicode="&#x115;" horiz-adv-x="1157" 
d="M57 514c0 148 50 273 151 374s225 152 372 152c167 0 304 -62 385 -161c83 -99 127 -226 127 -365v-80h-777c31 -151 149 -233 310 -233c139 0 261 44 364 133h29l-10 -256c-123 -71 -257 -107 -402 -107c-101 0 -193 24 -277 71s-150 113 -199 196s-73 175 -73 276z
M322 618h499c-7 63 -33 114 -78 153c-45 40 -99 60 -163 60c-121 0 -222 -78 -258 -213zM334 1393h176c0 -47 24 -78 68 -78s67 31 67 78h176c0 -71 -22 -129 -67 -174s-103 -68 -176 -68s-132 23 -177 68c-45 46 -67 104 -67 174z" />
    <glyph glyph-name="Edotaccent" unicode="&#x116;" horiz-adv-x="1114" 
d="M1042 0h-919v1434h911v-246h-620v-328h598v-246h-598v-368h628v-246zM428 1741c0 47 16 88 49 121c33 34 73 51 119 51c47 0 87 -17 121 -51c34 -33 51 -74 51 -121c0 -46 -17 -86 -51 -119c-33 -33 -74 -49 -121 -49c-46 0 -86 16 -119 49s-49 73 -49 119z" />
    <glyph glyph-name="edotaccent" unicode="&#x117;" horiz-adv-x="1157" 
d="M57 514c0 148 50 273 151 374s225 152 372 152c167 0 304 -62 385 -161c83 -99 127 -226 127 -365v-80h-777c31 -151 149 -233 310 -233c139 0 261 44 364 133h29l-10 -256c-123 -71 -257 -107 -402 -107c-101 0 -193 24 -277 71s-150 113 -199 196s-73 175 -73 276z
M322 618h499c-7 63 -33 114 -78 153c-45 40 -99 60 -163 60c-121 0 -222 -78 -258 -213zM426 1319c0 47 16 88 49 121c33 34 73 51 119 51c47 0 87 -17 121 -51c34 -33 51 -74 51 -121c0 -46 -17 -86 -51 -119c-33 -33 -74 -49 -121 -49c-46 0 -86 16 -119 49
s-49 73 -49 119z" />
    <glyph glyph-name="Eogonek" unicode="&#x118;" horiz-adv-x="1114" 
d="M879 0h-756v1434h911v-246h-620v-328h598v-246h-598v-368h628v-246c-72 -72 -122 -160 -122 -233c0 -71 45 -119 118 -119c55 0 84 11 127 43l25 -10l-23 -146c-55 -18 -114 -27 -176 -27c-172 0 -272 92 -272 232c0 100 61 196 160 260z" />
    <glyph glyph-name="eogonek" unicode="&#x119;" horiz-adv-x="1157" 
d="M57 514c0 148 50 273 151 374s225 152 372 152c167 0 304 -62 385 -161c83 -99 127 -226 127 -365v-80h-777c31 -151 149 -233 310 -233c139 0 261 44 364 133h29l-10 -256c-63 -36 -125 -62 -185 -78c-72 -72 -123 -161 -123 -233c0 -71 46 -119 119 -119
c55 0 84 11 127 43l25 -10l-23 -146c-55 -18 -114 -27 -176 -27c-172 0 -272 92 -272 232c0 87 40 164 121 231h-15c-101 0 -193 24 -277 71s-150 113 -199 196s-73 175 -73 276zM322 618h499c-7 63 -33 114 -78 153c-45 40 -99 60 -163 60c-121 0 -222 -78 -258 -213z" />
    <glyph glyph-name="Ecaron" unicode="&#x11a;" horiz-adv-x="1114" 
d="M1042 0h-919v1434h911v-246h-620v-328h598v-246h-598v-368h628v-246zM451 1575l-189 280h209l127 -122l129 122h209l-188 -280h-297z" />
    <glyph glyph-name="ecaron" unicode="&#x11b;" horiz-adv-x="1157" 
d="M57 514c0 148 50 273 151 374s225 152 372 152c167 0 304 -62 385 -161c83 -99 127 -226 127 -365v-80h-777c31 -151 149 -233 310 -233c139 0 261 44 364 133h29l-10 -256c-123 -71 -257 -107 -402 -107c-101 0 -193 24 -277 71s-150 113 -199 196s-73 175 -73 276z
M430 1153l-188 281h209l127 -123l129 123h208l-188 -281h-297zM322 618h499c-7 63 -33 114 -78 153c-45 40 -99 60 -163 60c-121 0 -222 -78 -258 -213z" />
    <glyph glyph-name="Gcircumflex" unicode="&#x11c;" horiz-adv-x="1513" 
d="M61 717c0 142 35 270 106 384s166 203 287 266s255 95 402 95c192 0 330 -44 463 -129l22 -297h-38c-152 109 -300 164 -445 164c-153 0 -275 -45 -368 -136c-92 -91 -138 -206 -138 -347c0 -142 43 -258 129 -349c87 -90 206 -135 357 -135c59 0 111 7 156 20
c45 14 92 37 139 69v251h-402v246h692v-616c-105 -81 -203 -140 -296 -177s-193 -55 -302 -55c-215 0 -410 79 -546 210c-67 65 -121 144 -160 237s-58 192 -58 299zM709 1575h-209l188 280h297l189 -280h-209l-129 123z" />
    <glyph glyph-name="gcircumflex" unicode="&#x11d;" horiz-adv-x="1232" 
d="M57 520c0 160 64 301 160 386s217 134 338 134c129 0 228 -40 297 -120v92h270v-920c0 -205 -56 -359 -159 -450c-101 -91 -235 -134 -404 -134c-127 0 -234 27 -323 80l-11 256h54c82 -57 175 -86 280 -86c184 0 293 101 293 285v66c-63 -65 -168 -109 -295 -109
c-141 0 -260 50 -356 149c-96 100 -144 224 -144 371zM479 1153h-209l189 281h297l188 -281h-209l-129 123zM400 712c-48 -53 -72 -117 -72 -192s24 -139 72 -192c48 -52 113 -78 196 -78s148 26 196 78c48 53 72 117 72 192s-24 139 -72 192s-113 79 -196 79
s-148 -26 -196 -79z" />
    <glyph glyph-name="Gbreve" unicode="&#x11e;" horiz-adv-x="1513" 
d="M61 717c0 142 35 270 106 384s166 203 287 266s255 95 402 95c192 0 330 -44 463 -129l22 -297h-38c-152 109 -300 164 -445 164c-153 0 -275 -45 -368 -136c-92 -91 -138 -206 -138 -347c0 -142 43 -258 129 -349c87 -90 206 -135 357 -135c59 0 111 7 156 20
c45 14 92 37 139 69v251h-402v246h692v-616c-105 -81 -203 -140 -296 -177s-193 -55 -302 -55c-215 0 -410 79 -546 210c-67 65 -121 144 -160 237s-58 192 -58 299zM594 1815h176c0 -47 24 -78 68 -78s67 31 67 78h176c0 -71 -22 -129 -67 -174s-103 -68 -176 -68
s-132 23 -177 68c-45 46 -67 104 -67 174z" />
    <glyph glyph-name="gbreve" unicode="&#x11f;" horiz-adv-x="1232" 
d="M57 520c0 160 64 301 160 386s217 134 338 134c129 0 228 -40 297 -120v92h270v-920c0 -205 -56 -359 -159 -450c-101 -91 -235 -134 -404 -134c-127 0 -234 27 -323 80l-11 256h54c82 -57 175 -86 280 -86c184 0 293 101 293 285v66c-63 -65 -168 -109 -295 -109
c-141 0 -260 50 -356 149c-96 100 -144 224 -144 371zM400 712c-48 -53 -72 -117 -72 -192s24 -139 72 -192c48 -52 113 -78 196 -78s148 26 196 78c48 53 72 117 72 192s-24 139 -72 192s-113 79 -196 79s-148 -26 -196 -79zM346 1393h176c0 -47 24 -78 68 -78s67 31 67 78
h177c0 -70 -23 -128 -68 -174c-45 -45 -103 -68 -176 -68s-132 23 -177 68c-45 46 -67 104 -67 174z" />
    <glyph glyph-name="Gdotaccent" unicode="&#x120;" horiz-adv-x="1513" 
d="M61 717c0 142 35 270 106 384s166 203 287 266s255 95 402 95c192 0 330 -44 463 -129l22 -297h-38c-152 109 -300 164 -445 164c-153 0 -275 -45 -368 -136c-92 -91 -138 -206 -138 -347c0 -142 43 -258 129 -349c87 -90 206 -135 357 -135c59 0 111 7 156 20
c45 14 92 37 139 69v251h-402v246h692v-616c-105 -81 -203 -140 -296 -177s-193 -55 -302 -55c-215 0 -410 79 -546 210c-67 65 -121 144 -160 237s-58 192 -58 299zM647 1741c0 47 16 88 49 121c33 34 73 51 119 51c47 0 88 -17 121 -51c34 -33 51 -74 51 -121
c0 -46 -17 -86 -51 -119c-33 -33 -74 -49 -121 -49c-46 0 -86 16 -119 49s-49 73 -49 119z" />
    <glyph glyph-name="gdotaccent" unicode="&#x121;" horiz-adv-x="1232" 
d="M57 520c0 160 64 301 160 386s217 134 338 134c129 0 228 -40 297 -120v92h270v-920c0 -205 -56 -359 -159 -450c-101 -91 -235 -134 -404 -134c-127 0 -234 27 -323 80l-11 256h54c82 -57 175 -86 280 -86c184 0 293 101 293 285v66c-63 -65 -168 -109 -295 -109
c-141 0 -260 50 -356 149c-96 100 -144 224 -144 371zM400 712c-48 -53 -72 -117 -72 -192s24 -139 72 -192c48 -52 113 -78 196 -78s148 26 196 78c48 53 72 117 72 192s-24 139 -72 192s-113 79 -196 79s-148 -26 -196 -79zM426 1319c0 47 16 88 49 121
c33 34 73 51 119 51c47 0 87 -17 121 -51c34 -33 51 -74 51 -121c0 -46 -17 -86 -51 -119c-33 -33 -74 -49 -121 -49c-46 0 -86 16 -119 49s-49 73 -49 119z" />
    <glyph glyph-name="uni0122" unicode="&#x122;" horiz-adv-x="1513" 
d="M61 717c0 142 35 270 106 384s166 203 287 266s255 95 402 95c192 0 330 -44 463 -129l22 -297h-38c-152 109 -300 164 -445 164c-153 0 -275 -45 -368 -136c-92 -91 -138 -206 -138 -347c0 -142 43 -258 129 -349c87 -90 206 -135 357 -135c59 0 111 7 156 20
c45 14 92 37 139 69v251h-402v246h692v-616c-105 -81 -203 -140 -296 -177s-193 -55 -302 -55c-215 0 -410 79 -546 210c-67 65 -121 144 -160 237s-58 192 -58 299zM639 -303c0 44 15 82 46 113s67 47 110 47c44 0 81 -16 112 -47s47 -69 47 -113c0 -105 -27 -191 -79 -252
c-51 -63 -103 -101 -183 -145l-18 51c73 48 112 111 119 190c-43 0 -79 15 -109 46c-30 30 -45 67 -45 110z" />
    <glyph glyph-name="uni0123" unicode="&#x123;" horiz-adv-x="1232" 
d="M57 520c0 160 64 301 160 386s217 134 338 134c129 0 228 -40 297 -120v92h270v-920c0 -205 -56 -359 -159 -450c-101 -91 -235 -134 -404 -134c-127 0 -234 27 -323 80l-11 256h54c82 -57 175 -86 280 -86c184 0 293 101 293 285v66c-63 -65 -168 -109 -295 -109
c-141 0 -260 50 -356 149c-96 100 -144 224 -144 371zM400 712c-48 -53 -72 -117 -72 -192s24 -139 72 -192c48 -52 113 -78 196 -78s148 26 196 78c48 53 72 117 72 192s-24 139 -72 192s-113 79 -196 79s-148 -26 -196 -79zM418 1346c0 152 79 277 237 374l43 -43
c-72 -52 -111 -115 -118 -190c43 0 79 -15 108 -46c30 -30 45 -67 45 -110c0 -44 -15 -82 -46 -113c-30 -31 -66 -47 -109 -47c-48 0 -87 17 -116 50s-44 75 -44 125z" />
    <glyph glyph-name="Hcircumflex" unicode="&#x124;" horiz-adv-x="1396" 
d="M414 0h-291v1434h291v-555h569v555h291v-1434h-291v633h-569v-633zM571 1575h-209l189 280h297l188 -280h-209l-129 123z" />
    <glyph glyph-name="hcircumflex" unicode="&#x125;" horiz-adv-x="1187" 
d="M381 0h-270v1475h270v-588c36 46 85 83 147 111s126 42 193 42c113 0 202 -30 269 -89s100 -146 100 -261v-690h-271v594c0 131 -73 197 -192 197c-67 0 -125 -25 -174 -74c-48 -49 -72 -114 -72 -195v-522zM422 1575h-209l188 280h297l189 -280h-209l-129 123z" />
    <glyph glyph-name="Hbar" unicode="&#x126;" horiz-adv-x="1458" 
d="M154 1040h-154v193h154v201h290v-201h570v201h291v-201h153v-193h-153v-1040h-291v633h-570v-633h-290v1040zM444 1040v-161h570v161h-570z" />
    <glyph glyph-name="hbar" unicode="&#x127;" horiz-adv-x="1202" 
d="M125 1155h-115v176h115v144h270v-144h287v-176h-287v-268c36 46 85 83 147 111s126 42 193 42c113 0 202 -30 269 -89s100 -146 100 -261v-690h-270v594c0 131 -73 197 -193 197c-67 0 -125 -25 -174 -74c-48 -49 -72 -114 -72 -195v-522h-270v1155z" />
    <glyph glyph-name="Itilde" unicode="&#x128;" horiz-adv-x="536" 
d="M-74 1571h-20l16 188c48 64 117 96 207 96c68 0 132 -27 168 -54c37 -27 89 -54 137 -54c67 0 126 31 178 94h21l-17 -188c-49 -65 -117 -97 -206 -97c-68 0 -135 27 -172 54c-37 28 -90 55 -134 55c-56 0 -115 -31 -178 -94zM414 0h-291v1434h291v-1434z" />
    <glyph glyph-name="itilde" unicode="&#x129;" horiz-adv-x="516" 
d="M-84 1149h-20l16 188c49 65 118 97 207 97c68 0 132 -27 168 -55c37 -27 89 -54 137 -54c67 0 126 31 178 94h21l-17 -188c-48 -64 -117 -96 -207 -96c-68 0 -133 27 -172 54c-37 27 -89 54 -133 54c-56 0 -115 -31 -178 -94zM393 0h-270v1012h270v-1012z" />
    <glyph glyph-name="Imacron" unicode="&#x12a;" horiz-adv-x="536" 
d="M524 1589h-512v193h512v-193zM414 0h-291v1434h291v-1434z" />
    <glyph glyph-name="imacron" unicode="&#x12b;" horiz-adv-x="516" 
d="M514 1167h-512v193h512v-193zM393 0h-270v1012h270v-1012z" />
    <glyph glyph-name="Ibreve" unicode="&#x12c;" horiz-adv-x="536" 
d="M25 1815h176c0 -47 23 -78 67 -78s68 31 68 78h176c0 -70 -23 -128 -68 -174c-45 -45 -103 -68 -176 -68s-131 23 -176 68s-67 103 -67 174zM414 0h-291v1434h291v-1434z" />
    <glyph glyph-name="ibreve" unicode="&#x12d;" horiz-adv-x="516" 
d="M14 1393h176c0 -47 24 -78 68 -78s68 31 68 78h176c0 -70 -23 -128 -68 -174c-45 -45 -103 -68 -176 -68s-132 23 -177 68c-45 46 -67 104 -67 174zM393 0h-270v1012h270v-1012z" />
    <glyph glyph-name="Iogonek" unicode="&#x12e;" horiz-adv-x="536" 
d="M90 -260c0 100 61 196 160 260h-127v1434h291v-1434c-72 -72 -123 -161 -123 -233c0 -71 46 -119 119 -119c55 0 84 11 127 43l24 -10l-22 -146c-55 -18 -114 -27 -177 -27c-172 0 -272 92 -272 232z" />
    <glyph glyph-name="iogonek" unicode="&#x12f;" horiz-adv-x="516" 
d="M70 -260c0 100 60 196 159 260h-106v1012h270v-1012c-72 -72 -123 -161 -123 -233c0 -71 46 -119 119 -119c55 0 84 11 127 43l25 -10l-23 -146c-55 -18 -114 -27 -176 -27c-172 0 -272 92 -272 232zM90 1319c0 47 16 88 49 121c33 34 73 51 119 51c47 0 87 -17 121 -51
c34 -33 51 -74 51 -121c0 -46 -17 -86 -51 -119c-33 -33 -74 -49 -121 -49c-46 0 -86 16 -119 49s-49 73 -49 119z" />
    <glyph glyph-name="Idot" unicode="&#x130;" horiz-adv-x="536" 
d="M98 1741c0 47 16 88 49 121c33 34 73 51 119 51c47 0 87 -17 121 -51c34 -33 51 -74 51 -121c0 -46 -17 -86 -51 -119c-33 -33 -74 -49 -121 -49c-46 0 -86 16 -119 49s-49 73 -49 119zM414 0h-291v1434h291v-1434z" />
    <glyph glyph-name="dotlessi" unicode="&#x131;" horiz-adv-x="516" 
d="M393 0h-270v1012h270v-1012z" />
    <glyph glyph-name="IJ" unicode="&#x132;" horiz-adv-x="1265" 
d="M123 985v449h291v-490c0 -157 72 -235 215 -235c139 0 213 71 213 235v490h291v-940c0 -349 -191 -523 -572 -523c-116 0 -220 10 -311 29l-33 293h39c81 -51 183 -76 305 -76c147 0 281 65 281 258v62c-71 -49 -153 -74 -248 -74c-147 0 -262 42 -346 127
c-83 85 -125 216 -125 395z" />
    <glyph glyph-name="ij" unicode="&#x133;" horiz-adv-x="1169" 
d="M86 1319c0 47 16 88 49 121c33 34 73 51 119 51c47 0 87 -17 121 -51c34 -33 51 -74 51 -121c0 -46 -17 -86 -51 -119c-33 -33 -74 -49 -121 -49c-46 0 -86 16 -119 49s-49 73 -49 119zM119 381v631h270v-590c0 -129 69 -201 189 -201c121 0 198 73 198 201v590h271v-949
c0 -173 -46 -308 -138 -407s-211 -148 -356 -148c-151 0 -282 27 -393 80l-10 256h53c53 -31 103 -53 151 -66c49 -13 105 -20 170 -20c172 0 252 100 252 273v30c-73 -60 -161 -90 -266 -90c-112 0 -205 37 -280 110c-74 74 -111 174 -111 300zM743 1319c0 47 16 88 49 121
c33 34 73 51 119 51c47 0 88 -17 121 -51c34 -33 51 -74 51 -121c0 -46 -17 -86 -51 -119c-33 -33 -74 -49 -121 -49c-46 0 -86 16 -119 49s-49 73 -49 119z" />
    <glyph glyph-name="Jcircumflex" unicode="&#x134;" horiz-adv-x="817" 
d="M109 0l-29 246h39c53 -19 100 -29 143 -29c93 0 152 70 152 209v1008h291v-996c0 -151 -36 -267 -107 -347s-161 -120 -270 -120c-43 0 -79 2 -107 6c-27 4 -65 12 -112 23zM434 1575h-209l189 280h297l188 -280h-209l-129 123z" />
    <glyph glyph-name="jcircumflex" unicode="&#x135;" horiz-adv-x="516" 
d="M-70 -457l-24 224h41c19 -13 34 -21 46 -25s29 -6 50 -6c51 0 80 33 80 92v1184h270v-1162c0 -248 -152 -342 -325 -342c-55 0 -101 12 -138 35zM135 1153h-209l189 281h297l188 -281h-209l-129 123z" />
    <glyph glyph-name="uni0136" unicode="&#x136;" horiz-adv-x="1308" 
d="M414 0h-291v1434h291v-652l501 652h316l-539 -695l590 -739h-344l-524 653v-653zM496 -303c0 44 15 82 45 113c31 31 67 47 110 47c44 0 82 -16 113 -47s47 -69 47 -113c0 -105 -27 -191 -79 -252c-51 -63 -103 -101 -183 -145l-19 51c73 48 112 111 119 190
c-43 0 -79 15 -109 46c-29 30 -44 67 -44 110z" />
    <glyph glyph-name="uni0137" unicode="&#x137;" horiz-adv-x="1097" 
d="M381 0h-270v1475h270v-879l352 416h322l-398 -469l426 -543h-346l-356 469v-469zM391 -303c0 44 15 82 46 113s67 47 110 47c44 0 82 -16 113 -47s47 -69 47 -113c0 -105 -27 -191 -79 -252c-52 -63 -104 -101 -184 -145l-18 51c73 48 112 111 119 190
c-43 0 -79 15 -109 46c-30 30 -45 67 -45 110z" />
    <glyph glyph-name="kgreenlandic" unicode="&#x138;" horiz-adv-x="1097" 
d="M381 0h-270v1012h270v-416l352 416h322l-398 -469l426 -543h-346l-356 469v-469z" />
    <glyph glyph-name="Lacute" unicode="&#x139;" horiz-adv-x="1200" 
d="M1114 0h-991v1434h291v-1188h700v-246zM365 1575h-230l189 280h331z" />
    <glyph glyph-name="lacute" unicode="&#x13a;" horiz-adv-x="491" 
d="M317 1575h-229l188 280h332zM381 0h-270v1475h270v-1475z" />
    <glyph glyph-name="uni013B" unicode="&#x13b;" horiz-adv-x="1200" 
d="M1114 0h-991v1434h291v-1188h700v-246zM467 -303c0 44 15 82 46 113s67 47 110 47c44 0 81 -16 112 -47s47 -69 47 -113c0 -105 -27 -191 -79 -252c-51 -63 -103 -101 -183 -145l-18 51c73 48 112 111 119 190c-43 0 -79 15 -109 46c-30 30 -45 67 -45 110z" />
    <glyph glyph-name="uni013C" unicode="&#x13c;" horiz-adv-x="491" 
d="M88 -303c0 44 15 82 46 113s67 47 110 47c44 0 81 -16 112 -47s47 -69 47 -113c0 -105 -27 -191 -79 -252c-51 -63 -103 -101 -183 -145l-18 51c73 48 112 111 119 190c-43 0 -79 15 -109 46c-30 30 -45 67 -45 110zM381 0h-270v1475h270v-1475z" />
    <glyph glyph-name="Lcaron" unicode="&#x13d;" horiz-adv-x="1200" 
d="M1114 0h-991v1434h291v-1188h700v-246zM823 1294c0 44 15 82 46 113s67 47 110 47c48 0 87 -17 116 -50s44 -74 44 -124c0 -152 -79 -277 -238 -375l-43 43c73 53 112 116 119 191c-43 0 -79 15 -109 45s-45 67 -45 110z" />
    <glyph glyph-name="lcaron" unicode="&#x13e;" horiz-adv-x="858" 
d="M381 0h-270v1475h270v-1475zM502 1294c0 44 15 82 45 113c31 31 67 47 110 47c48 0 87 -17 116 -50s44 -74 44 -124c0 -153 -79 -278 -237 -375l-43 43c72 52 111 116 118 191c-43 0 -79 15 -109 45c-29 30 -44 67 -44 110z" />
    <glyph glyph-name="Ldot" unicode="&#x13f;" horiz-adv-x="1200" 
d="M1114 0h-991v1434h291v-1188h700v-246zM721 754c0 44 15 81 45 112c31 31 68 47 111 47c44 0 81 -16 112 -47s47 -68 47 -112c0 -43 -16 -80 -47 -111c-31 -30 -68 -45 -112 -45c-43 0 -80 15 -111 46c-30 31 -45 67 -45 110z" />
    <glyph glyph-name="ldot" unicode="&#x140;" horiz-adv-x="833" 
d="M381 0h-270v1475h270v-1475zM504 754c0 44 15 81 45 112c31 31 67 47 110 47c44 0 82 -16 113 -47s47 -68 47 -112c0 -43 -16 -79 -47 -110s-69 -46 -113 -46c-43 0 -79 15 -110 45c-30 31 -45 68 -45 111z" />
    <glyph glyph-name="Lslash" unicode="&#x141;" horiz-adv-x="1232" 
d="M156 338l-156 -90v264l156 90v832h290v-662l328 191v-265l-328 -190v-262h701v-246h-991v338z" />
    <glyph glyph-name="lslash" unicode="&#x142;" horiz-adv-x="593" 
d="M162 420l-156 -90v264l156 90v791h270v-633l156 92v-264l-156 -92v-578h-270v420z" />
    <glyph glyph-name="Nacute" unicode="&#x143;" horiz-adv-x="1447" 
d="M414 0h-291v1434h123l788 -854v854h291v-1434h-123l-788 854v-854zM754 1575h-230l189 280h331z" />
    <glyph glyph-name="nacute" unicode="&#x144;" 
d="M381 0h-270v1012h270v-125c37 47 85 84 144 111c59 28 122 42 188 42c110 0 197 -30 262 -89s98 -146 98 -261v-690h-270v594c0 129 -77 197 -193 197c-66 0 -121 -24 -164 -73s-65 -114 -65 -196v-522zM637 1153h-229l188 281h332z" />
    <glyph glyph-name="uni0145" unicode="&#x145;" horiz-adv-x="1447" 
d="M414 0h-291v1434h123l788 -854v854h291v-1434h-123l-788 854v-854zM565 -303c0 44 15 82 46 113s67 47 110 47c44 0 82 -16 113 -47s47 -69 47 -113c0 -105 -27 -191 -79 -252c-52 -63 -104 -101 -184 -145l-18 51c73 48 112 111 119 190c-43 0 -79 15 -109 46
c-30 30 -45 67 -45 110z" />
    <glyph glyph-name="uni0146" unicode="&#x146;" 
d="M381 0h-270v1012h270v-125c37 47 85 84 144 111c59 28 122 42 188 42c110 0 197 -30 262 -89s98 -146 98 -261v-690h-270v594c0 129 -77 197 -193 197c-66 0 -121 -24 -164 -73s-65 -114 -65 -196v-522zM436 -303c0 44 15 82 46 113s67 47 110 47c44 0 82 -16 113 -47
s47 -69 47 -113c0 -105 -27 -191 -79 -252c-52 -63 -104 -101 -184 -145l-18 51c73 48 112 111 119 190c-43 0 -79 15 -109 46c-30 30 -45 67 -45 110z" />
    <glyph glyph-name="Ncaron" unicode="&#x147;" horiz-adv-x="1447" 
d="M414 0h-291v1434h123l788 -854v854h291v-1434h-123l-788 854v-854zM575 1575l-188 280h209l127 -122l129 122h209l-189 -280h-297z" />
    <glyph glyph-name="ncaron" unicode="&#x148;" 
d="M381 0h-270v1012h270v-125c37 47 85 84 144 111c59 28 122 42 188 42c110 0 197 -30 262 -89s98 -146 98 -261v-690h-270v594c0 129 -77 197 -193 197c-66 0 -121 -24 -164 -73s-65 -114 -65 -196v-522zM463 1153l-189 281h209l127 -123l129 123h209l-188 -281h-297z" />
    <glyph glyph-name="napostrophe" unicode="&#x149;" horiz-adv-x="1433" 
d="M25 1294c0 44 15 82 45 113c31 31 67 47 110 47c48 0 87 -17 116 -50s44 -74 44 -124c0 -152 -79 -277 -238 -375l-43 43c73 53 112 116 119 191c-43 0 -79 15 -109 45c-29 30 -44 67 -44 110zM643 0h-270v1012h270v-125c37 47 85 84 144 111c59 28 122 42 188 42
c110 0 197 -30 262 -89s98 -146 98 -261v-690h-270v594c0 129 -77 197 -193 197c-66 0 -121 -24 -164 -73s-65 -114 -65 -196v-522z" />
    <glyph glyph-name="Eng" unicode="&#x14a;" horiz-adv-x="1447" 
d="M414 0h-291v1434h123l788 -996v996h291v-1459c0 -151 -36 -267 -107 -347s-161 -120 -270 -120c-43 0 -79 2 -107 6c-27 4 -65 12 -112 23l-29 246h39c53 -19 101 -29 144 -29c93 0 151 70 151 209v37l-620 797v-797z" />
    <glyph glyph-name="eng" unicode="&#x14b;" 
d="M381 0h-270v1012h270v-125c37 47 85 84 144 111c59 28 122 42 188 42c110 0 197 -30 262 -89s98 -146 98 -261v-840c0 -248 -152 -342 -325 -342c-55 0 -101 12 -138 35l-24 221h41c19 -12 34 -20 46 -24s29 -6 50 -6c51 0 80 33 80 92v768c0 129 -77 197 -193 197
c-66 0 -121 -24 -164 -73s-65 -114 -65 -196v-522z" />
    <glyph glyph-name="Omacron" unicode="&#x14c;" horiz-adv-x="1650" 
d="M120 420c-39 93 -59 192 -59 297s20 204 59 296c80 185 217 317 405 392c95 38 195 57 300 57s205 -19 299 -57c189 -75 326 -207 405 -392c40 -92 60 -191 60 -296s-20 -204 -60 -297c-79 -185 -216 -316 -405 -392c-94 -38 -194 -57 -299 -57s-205 19 -300 57
c-188 76 -325 207 -405 392zM485 1076c-89 -91 -133 -210 -133 -359s44 -269 133 -360s203 -136 340 -136s250 45 339 136s134 211 134 360s-45 268 -134 359s-202 136 -339 136s-251 -45 -340 -136zM1081 1589h-512v193h512v-193z" />
    <glyph glyph-name="omacron" unicode="&#x14d;" horiz-adv-x="1224" 
d="M57 506c0 148 64 286 163 381c100 95 243 153 392 153s292 -58 391 -153c100 -95 164 -233 164 -381c0 -99 -25 -189 -75 -272c-50 -82 -118 -146 -203 -193s-177 -70 -277 -70s-193 23 -278 70s-152 111 -202 193c-50 83 -75 173 -75 272zM411 711
c-55 -53 -83 -122 -83 -205s28 -152 83 -205s122 -80 201 -80s146 27 201 80c56 53 84 122 84 205s-28 152 -84 205c-55 53 -122 80 -201 80s-146 -27 -201 -80zM868 1167h-512v193h512v-193z" />
    <glyph glyph-name="Obreve" unicode="&#x14e;" horiz-adv-x="1650" 
d="M120 420c-39 93 -59 192 -59 297s20 204 59 296c80 185 217 317 405 392c95 38 195 57 300 57s205 -19 299 -57c189 -75 326 -207 405 -392c40 -92 60 -191 60 -296s-20 -204 -60 -297c-79 -185 -216 -316 -405 -392c-94 -38 -194 -57 -299 -57s-205 19 -300 57
c-188 76 -325 207 -405 392zM485 1076c-89 -91 -133 -210 -133 -359s44 -269 133 -360s203 -136 340 -136s250 45 339 136s134 211 134 360s-45 268 -134 359s-202 136 -339 136s-251 -45 -340 -136zM582 1815h176c0 -47 23 -78 67 -78s68 31 68 78h176
c0 -70 -23 -128 -68 -174c-45 -45 -103 -68 -176 -68s-131 23 -176 68s-67 103 -67 174z" />
    <glyph glyph-name="obreve" unicode="&#x14f;" horiz-adv-x="1224" 
d="M57 506c0 148 64 286 163 381c100 95 243 153 392 153s292 -58 391 -153c100 -95 164 -233 164 -381c0 -99 -25 -189 -75 -272c-50 -82 -118 -146 -203 -193s-177 -70 -277 -70s-193 23 -278 70s-152 111 -202 193c-50 83 -75 173 -75 272zM411 711
c-55 -53 -83 -122 -83 -205s28 -152 83 -205s122 -80 201 -80s146 27 201 80c56 53 84 122 84 205s-28 152 -84 205c-55 53 -122 80 -201 80s-146 -27 -201 -80zM369 1393h176c0 -47 23 -78 67 -78s68 31 68 78h176c0 -70 -23 -128 -68 -174c-45 -45 -103 -68 -176 -68
s-131 23 -176 68s-67 103 -67 174z" />
    <glyph glyph-name="Ohungarumlaut" unicode="&#x150;" horiz-adv-x="1650" 
d="M120 420c-39 93 -59 192 -59 297s20 204 59 296c80 185 217 317 405 392c95 38 195 57 300 57s205 -19 299 -57c189 -75 326 -207 405 -392c40 -92 60 -191 60 -296s-20 -204 -60 -297c-79 -185 -216 -316 -405 -392c-94 -38 -194 -57 -299 -57s-205 19 -300 57
c-188 76 -325 207 -405 392zM485 1076c-89 -91 -133 -210 -133 -359s44 -269 133 -360s203 -136 340 -136s250 45 339 136s134 211 134 360s-45 268 -134 359s-202 136 -339 136s-251 -45 -340 -136zM680 1575h-229l188 280h332zM1102 1575h-230l189 280h332z" />
    <glyph glyph-name="ohungarumlaut" unicode="&#x151;" horiz-adv-x="1224" 
d="M57 506c0 148 64 286 163 381c100 95 243 153 392 153s292 -58 391 -153c100 -95 164 -233 164 -381c0 -99 -25 -189 -75 -272c-50 -82 -118 -146 -203 -193s-177 -70 -277 -70s-193 23 -278 70s-152 111 -202 193c-50 83 -75 173 -75 272zM451 1153h-230l189 281h331z
M411 711c-55 -53 -83 -122 -83 -205s28 -152 83 -205s122 -80 201 -80s146 27 201 80c56 53 84 122 84 205s-28 152 -84 205c-55 53 -122 80 -201 80s-146 -27 -201 -80zM872 1153h-229l188 281h332z" />
    <glyph glyph-name="OE" unicode="&#x152;" horiz-adv-x="2289" 
d="M825 1462c181 0 339 -51 473 -153v125h912v-246h-621v-328h598v-246h-598v-368h629v-246h-920v123c-136 -101 -294 -152 -473 -152c-105 0 -205 19 -300 57c-94 38 -175 90 -243 155s-122 144 -162 237c-39 93 -59 192 -59 297s20 204 59 296c40 93 94 172 162 237
c68 66 149 118 243 155c95 38 195 57 300 57zM825 221c136 0 249 46 338 137c90 91 135 211 135 359s-45 267 -134 358s-202 137 -339 137s-251 -45 -340 -136s-133 -210 -133 -359s44 -269 133 -360s203 -136 340 -136z" />
    <glyph glyph-name="oe" unicode="&#x153;" horiz-adv-x="2009" 
d="M57 506c0 148 64 286 163 381c100 95 243 153 392 153c165 0 318 -70 422 -186c106 124 239 186 400 186c167 0 303 -62 384 -162c83 -99 126 -225 126 -364v-80h-777c31 -151 149 -233 310 -233c139 0 261 44 364 133h29l-10 -256c-123 -71 -257 -107 -402 -107
c-169 0 -321 70 -422 189c-104 -119 -256 -189 -424 -189c-100 0 -193 23 -278 70s-152 111 -202 193c-50 83 -75 173 -75 272zM411 711c-55 -53 -83 -122 -83 -205s28 -152 83 -205s122 -80 201 -80s146 27 201 80c56 53 84 122 84 205s-28 152 -84 205
c-55 53 -122 80 -201 80s-146 -27 -201 -80zM1174 618h499c-7 63 -33 114 -77 153c-44 40 -98 60 -162 60c-61 0 -115 -19 -162 -56s-80 -90 -98 -157z" />
    <glyph glyph-name="Racute" unicode="&#x154;" horiz-adv-x="1202" 
d="M414 0h-291v1434h452c143 0 259 -37 348 -111c89 -73 134 -174 134 -303c0 -185 -103 -321 -271 -381l383 -639h-321l-365 606h-69v-606zM610 1575h-229l188 280h332zM414 1184v-328h137c143 0 215 55 215 164s-72 164 -215 164h-137z" />
    <glyph glyph-name="racute" unicode="&#x155;" horiz-adv-x="872" 
d="M381 0h-270v1012h270v-101c63 81 161 129 260 129c66 0 121 -16 164 -47l18 -284h-39c-41 49 -109 82 -178 82c-64 0 -118 -20 -161 -61c-43 -40 -64 -100 -64 -179v-551zM508 1153h-229l188 281h332z" />
    <glyph glyph-name="uni0156" unicode="&#x156;" horiz-adv-x="1202" 
d="M414 0h-291v1434h452c143 0 259 -37 348 -111c89 -73 134 -174 134 -303c0 -185 -103 -321 -271 -381l383 -639h-321l-365 606h-69v-606zM414 1184v-328h137c143 0 215 55 215 164s-72 164 -215 164h-137zM485 -303c0 44 15 82 46 113s67 47 110 47c44 0 82 -16 113 -47
s47 -69 47 -113c0 -105 -27 -191 -79 -252c-51 -63 -103 -101 -183 -145l-19 51c73 48 112 111 119 190c-43 0 -79 15 -109 46c-30 30 -45 67 -45 110z" />
    <glyph glyph-name="uni0157" unicode="&#x157;" horiz-adv-x="872" 
d="M82 -303c0 44 15 82 46 113s67 47 110 47c44 0 81 -16 112 -47s47 -69 47 -113c0 -105 -27 -191 -79 -252c-51 -63 -103 -101 -183 -145l-18 51c73 48 112 111 119 190c-43 0 -79 15 -109 46c-30 30 -45 67 -45 110zM381 0h-270v1012h270v-101c63 81 161 129 260 129
c66 0 121 -16 164 -47l18 -284h-39c-41 49 -109 82 -178 82c-64 0 -118 -20 -161 -61c-43 -40 -64 -100 -64 -179v-551z" />
    <glyph glyph-name="Rcaron" unicode="&#x158;" horiz-adv-x="1202" 
d="M414 0h-291v1434h452c143 0 259 -37 348 -111c89 -73 134 -174 134 -303c0 -185 -103 -321 -271 -381l383 -639h-321l-365 606h-69v-606zM432 1575l-188 280h209l127 -122l129 122h209l-189 -280h-297zM414 1184v-328h137c143 0 215 55 215 164s-72 164 -215 164h-137z
" />
    <glyph glyph-name="rcaron" unicode="&#x159;" horiz-adv-x="872" 
d="M381 0h-270v1012h270v-101c63 81 161 129 260 129c66 0 121 -16 164 -47l18 -284h-39c-41 49 -109 82 -178 82c-64 0 -118 -20 -161 -61c-43 -40 -64 -100 -64 -179v-551zM309 1153l-188 281h209l127 -123l129 123h209l-189 -281h-297z" />
    <glyph glyph-name="Sacute" unicode="&#x15a;" horiz-adv-x="1054" 
d="M88 111l16 335h21c109 -140 228 -225 381 -225c116 0 192 67 192 180c4 63 -28 112 -67 145c-11 11 -28 23 -51 36s-43 24 -61 33c-17 9 -42 21 -75 36c-229 105 -346 230 -346 418c0 80 20 150 61 211c81 121 217 182 369 182c158 0 277 -36 357 -108l10 -305h-27
c-109 117 -220 176 -333 176c-108 0 -177 -49 -177 -144c0 -43 21 -81 62 -113c42 -31 118 -73 229 -124c113 -51 197 -110 254 -177c57 -66 86 -152 86 -259c0 -129 -43 -235 -130 -316c-86 -81 -199 -121 -339 -121c-183 0 -335 59 -432 140zM557 1575h-229l188 280h332z
" />
    <glyph glyph-name="sacute" unicode="&#x15b;" horiz-adv-x="860" 
d="M61 70l62 254h12c90 -69 181 -103 273 -103c77 0 129 29 129 84c0 28 -14 51 -42 69s-80 40 -157 66c-156 52 -246 154 -246 287c0 93 35 169 106 226c71 58 160 87 267 87c104 0 193 -22 266 -65l10 -258h-14c-49 32 -92 56 -131 71c-38 15 -81 23 -129 23
c-68 0 -117 -31 -117 -74c0 -29 14 -52 41 -71c28 -19 79 -41 154 -66c64 -21 104 -37 152 -70c70 -46 106 -112 110 -225c0 -71 -18 -133 -55 -185c-73 -103 -191 -149 -330 -149c-140 0 -260 33 -361 99zM461 1153h-230l189 281h332z" />
    <glyph glyph-name="Scircumflex" unicode="&#x15c;" horiz-adv-x="1054" 
d="M88 111l16 335h21c109 -140 228 -225 381 -225c116 0 192 67 192 180c4 63 -28 112 -67 145c-11 11 -28 23 -51 36s-43 24 -61 33c-17 9 -42 21 -75 36c-229 105 -346 230 -346 418c0 80 20 150 61 211c81 121 217 182 369 182c158 0 277 -36 357 -108l10 -305h-27
c-109 117 -220 176 -333 176c-108 0 -177 -49 -177 -144c0 -43 21 -81 62 -113c42 -31 118 -73 229 -124c113 -51 197 -110 254 -177c57 -66 86 -152 86 -259c0 -129 -43 -235 -130 -316c-86 -81 -199 -121 -339 -121c-183 0 -335 59 -432 140zM399 1575h-209l189 280h297
l188 -280h-209l-129 123z" />
    <glyph glyph-name="scircumflex" unicode="&#x15d;" horiz-adv-x="860" 
d="M61 70l62 254h12c90 -69 181 -103 273 -103c77 0 129 29 129 84c0 28 -14 51 -42 69s-80 40 -157 66c-156 52 -246 154 -246 287c0 93 35 169 106 226c71 58 160 87 267 87c104 0 193 -22 266 -65l10 -258h-14c-49 32 -92 56 -131 71c-38 15 -81 23 -129 23
c-68 0 -117 -31 -117 -74c0 -29 14 -52 41 -71c28 -19 79 -41 154 -66c64 -21 104 -37 152 -70c70 -46 106 -112 110 -225c0 -71 -18 -133 -55 -185c-73 -103 -191 -149 -330 -149c-140 0 -260 33 -361 99zM303 1153h-209l189 281h297l188 -281h-209l-129 123z" />
    <glyph glyph-name="Scedilla" unicode="&#x15e;" horiz-adv-x="1054" 
d="M88 111l16 335h21c109 -140 228 -225 381 -225c116 0 192 67 192 180c4 63 -28 112 -67 145c-11 11 -28 23 -51 36s-43 24 -61 33c-17 9 -42 21 -75 36c-229 105 -346 230 -346 418c0 80 20 150 61 211c81 121 217 182 369 182c158 0 277 -36 357 -108l10 -305h-27
c-109 117 -220 176 -333 176c-108 0 -177 -49 -177 -144c0 -43 21 -81 62 -113c42 -31 118 -73 229 -124c113 -51 197 -110 254 -177c57 -66 86 -152 86 -259c0 -121 -38 -221 -113 -300s-176 -124 -301 -137l-73 -88c36 9 69 13 100 13c109 0 178 -66 178 -177
c0 -67 -25 -118 -75 -155s-116 -56 -197 -56c-73 0 -138 9 -193 27l-22 146l24 10c51 -29 101 -43 150 -43c59 0 96 26 96 71c0 49 -31 74 -94 74c-37 0 -74 -6 -111 -18l-18 20l76 182c-133 17 -242 61 -328 134z" />
    <glyph glyph-name="scedilla" unicode="&#x15f;" horiz-adv-x="860" 
d="M61 70l62 254h12c90 -69 181 -103 273 -103c77 0 129 29 129 84c0 28 -14 51 -42 69s-80 40 -157 66c-156 52 -246 154 -246 287c0 93 35 169 106 226c71 58 160 87 267 87c104 0 193 -22 266 -65l10 -258h-14c-49 32 -92 56 -131 71c-38 15 -81 23 -129 23
c-68 0 -117 -31 -117 -74c0 -29 14 -52 41 -71c28 -19 79 -41 154 -66c64 -21 104 -37 152 -70c70 -46 106 -112 110 -225c0 -96 -31 -173 -93 -230s-140 -91 -233 -100l-73 -92c36 9 69 13 100 13c109 0 178 -66 178 -177c0 -67 -25 -118 -75 -155s-116 -56 -197 -56
c-73 0 -138 9 -193 27l-22 146l24 10c51 -29 101 -43 150 -43c59 0 96 26 96 71c0 49 -31 74 -94 74c-37 0 -74 -6 -111 -18l-18 20l76 182c-102 14 -189 45 -261 93z" />
    <glyph glyph-name="Scaron" unicode="&#x160;" horiz-adv-x="1054" 
d="M88 111l16 335h21c109 -140 228 -225 381 -225c116 0 192 67 192 180c4 63 -28 112 -67 145c-11 11 -28 23 -51 36s-43 24 -61 33c-17 9 -42 21 -75 36c-229 105 -346 230 -346 418c0 80 20 150 61 211c81 121 217 182 369 182c158 0 277 -36 357 -108l10 -305h-27
c-109 117 -220 176 -333 176c-108 0 -177 -49 -177 -144c0 -43 21 -81 62 -113c42 -31 118 -73 229 -124c113 -51 197 -110 254 -177c57 -66 86 -152 86 -259c0 -129 -43 -235 -130 -316c-86 -81 -199 -121 -339 -121c-183 0 -335 59 -432 140zM389 1575l-188 280h209
l127 -122l129 122h208l-188 -280h-297z" />
    <glyph glyph-name="scaron" unicode="&#x161;" horiz-adv-x="860" 
d="M61 70l62 254h12c90 -69 181 -103 273 -103c77 0 129 29 129 84c0 28 -14 51 -42 69s-80 40 -157 66c-156 52 -246 154 -246 287c0 93 35 169 106 226c71 58 160 87 267 87c104 0 193 -22 266 -65l10 -258h-14c-49 32 -92 56 -131 71c-38 15 -81 23 -129 23
c-68 0 -117 -31 -117 -74c0 -29 14 -52 41 -71c28 -19 79 -41 154 -66c64 -21 104 -37 152 -70c70 -46 106 -112 110 -225c0 -71 -18 -133 -55 -185c-73 -103 -191 -149 -330 -149c-140 0 -260 33 -361 99zM283 1153l-189 281h209l127 -123l129 123h209l-188 -281h-297z" />
    <glyph glyph-name="uni0162" unicode="&#x162;" horiz-adv-x="1101" 
d="M406 1188h-345v246h979v-246h-344v-1188h-290v1188zM377 -303c0 44 15 82 45 113c31 31 67 47 110 47c44 0 82 -16 113 -47s47 -69 47 -113c0 -105 -27 -191 -79 -252c-51 -63 -103 -101 -183 -145l-18 51c72 47 111 111 118 190c-43 0 -79 15 -109 46
c-29 30 -44 67 -44 110z" />
    <glyph glyph-name="uni0163" unicode="&#x163;" horiz-adv-x="806" 
d="M182 782h-168v230h168v168l271 123v-291h274v-230h-274v-458c0 -85 45 -125 110 -125c51 0 103 20 156 59h31l-19 -235c-45 -21 -82 -34 -113 -41s-71 -11 -120 -11c-160 0 -316 100 -316 340v471zM328 -303c0 44 15 82 45 113c31 31 67 47 110 47c44 0 82 -16 113 -47
s47 -69 47 -113c0 -105 -27 -191 -79 -252c-51 -63 -103 -101 -183 -145l-19 51c73 48 112 111 119 190c-43 0 -79 15 -109 46c-29 30 -44 67 -44 110z" />
    <glyph glyph-name="Tcaron" unicode="&#x164;" horiz-adv-x="1101" 
d="M406 1188h-345v246h979v-246h-344v-1188h-290v1188zM403 1575l-188 280h209l127 -122l129 122h209l-189 -280h-297z" />
    <glyph glyph-name="tcaron" unicode="&#x165;" horiz-adv-x="1155" 
d="M182 782h-168v230h168v168l271 123v-291h274v-230h-274v-458c0 -85 45 -125 110 -125c51 0 103 20 156 59h31l-19 -235c-45 -21 -82 -34 -113 -41s-71 -11 -120 -11c-160 0 -316 100 -316 340v471zM803 1294c0 44 15 82 45 113c31 31 67 47 110 47c48 0 87 -17 116 -50
s44 -74 44 -124c0 -153 -79 -278 -237 -375l-43 43c72 52 111 116 118 191c-43 0 -79 15 -109 45c-29 30 -44 67 -44 110z" />
    <glyph glyph-name="Tbar" unicode="&#x166;" horiz-adv-x="1101" 
d="M406 1188h-345v246h979v-246h-344v-266h277v-193h-277v-729h-290v729h-277v193h277v266z" />
    <glyph glyph-name="tbar" unicode="&#x167;" horiz-adv-x="806" 
d="M182 782h-168v230h168v168l271 123v-291h274v-230h-274v-168h254v-176h-254v-114c0 -85 45 -125 110 -125c51 0 103 20 156 59h31l-19 -235c-45 -21 -82 -34 -113 -41s-71 -11 -120 -11c-160 0 -316 100 -316 340v127h-147v176h147v168z" />
    <glyph glyph-name="Utilde" unicode="&#x168;" horiz-adv-x="1355" 
d="M102 569v865h291v-889c0 -121 33 -212 88 -260c56 -48 120 -68 197 -68s141 20 196 68c56 48 89 139 89 260v889h290v-865c0 -185 -51 -331 -152 -438s-242 -160 -423 -160s-323 53 -424 160s-152 253 -152 438zM336 1571h-21l17 188c48 64 117 96 207 96
c68 0 132 -27 168 -54c37 -27 89 -54 137 -54c67 0 126 31 178 94h20l-16 -188c-49 -65 -118 -97 -207 -97c-68 0 -133 27 -172 54c-37 28 -89 55 -133 55c-56 0 -115 -31 -178 -94z" />
    <glyph glyph-name="utilde" unicode="&#x169;" 
d="M98 322v690h271v-594c0 -131 76 -197 192 -197c67 0 122 24 165 72c43 49 65 114 65 196v523h270v-1012h-270v125c-37 -47 -85 -84 -144 -112s-122 -42 -188 -42c-110 0 -198 30 -263 89c-65 60 -98 147 -98 262zM244 1149h-21l17 188c49 65 117 97 206 97
c68 0 133 -27 169 -55c37 -27 89 -54 137 -54c67 0 126 31 178 94h20l-16 -188c-48 -64 -117 -96 -207 -96c-68 0 -133 27 -172 54c-37 27 -89 54 -133 54c-56 0 -115 -31 -178 -94z" />
    <glyph glyph-name="Umacron" unicode="&#x16a;" horiz-adv-x="1355" 
d="M102 569v865h291v-889c0 -121 33 -212 88 -260c56 -48 120 -68 197 -68s141 20 196 68c56 48 89 139 89 260v889h290v-865c0 -185 -51 -331 -152 -438s-242 -160 -423 -160s-323 53 -424 160s-152 253 -152 438zM934 1589h-512v193h512v-193z" />
    <glyph glyph-name="umacron" unicode="&#x16b;" 
d="M98 322v690h271v-594c0 -131 76 -197 192 -197c67 0 122 24 165 72c43 49 65 114 65 196v523h270v-1012h-270v125c-37 -47 -85 -84 -144 -112s-122 -42 -188 -42c-110 0 -198 30 -263 89c-65 60 -98 147 -98 262zM834 1167h-512v193h512v-193z" />
    <glyph glyph-name="Ubreve" unicode="&#x16c;" horiz-adv-x="1355" 
d="M102 569v865h291v-889c0 -121 33 -212 88 -260c56 -48 120 -68 197 -68s141 20 196 68c56 48 89 139 89 260v889h290v-865c0 -185 -51 -331 -152 -438s-242 -160 -423 -160s-323 53 -424 160s-152 253 -152 438zM434 1815h176c0 -47 24 -78 68 -78s67 31 67 78h177
c0 -70 -23 -128 -68 -174c-45 -45 -103 -68 -176 -68s-132 23 -177 68c-45 46 -67 104 -67 174z" />
    <glyph glyph-name="ubreve" unicode="&#x16d;" 
d="M98 322v690h271v-594c0 -131 76 -197 192 -197c67 0 122 24 165 72c43 49 65 114 65 196v523h270v-1012h-270v125c-37 -47 -85 -84 -144 -112s-122 -42 -188 -42c-110 0 -198 30 -263 89c-65 60 -98 147 -98 262zM342 1393h176c0 -47 24 -78 68 -78s67 31 67 78h176
c0 -71 -22 -129 -67 -174s-103 -68 -176 -68s-132 23 -177 68c-45 46 -67 104 -67 174z" />
    <glyph glyph-name="Uring" unicode="&#x16e;" horiz-adv-x="1355" 
d="M102 569v865h291v-889c0 -121 33 -212 88 -260c56 -48 120 -68 197 -68s141 20 196 68c56 48 89 139 89 260v889h290v-865c0 -185 -51 -331 -152 -438s-242 -160 -423 -160s-323 53 -424 160s-152 253 -152 438zM528 1596c-41 40 -61 89 -61 147s20 107 61 147
s91 60 150 60s109 -20 150 -60s61 -89 61 -147s-20 -107 -61 -147s-91 -60 -150 -60s-109 20 -150 60zM569 1743c0 -61 45 -109 109 -109s108 48 108 109s-44 108 -108 108s-109 -48 -109 -108z" />
    <glyph glyph-name="uring" unicode="&#x16f;" 
d="M98 322v690h271v-594c0 -131 76 -197 192 -197c67 0 122 24 165 72c43 49 65 114 65 196v523h270v-1012h-270v125c-37 -47 -85 -84 -144 -112s-122 -42 -188 -42c-110 0 -198 30 -263 89c-65 60 -98 147 -98 262zM436 1174c-41 40 -61 89 -61 147s20 107 61 147
s91 60 150 60s109 -20 150 -60s61 -89 61 -147s-20 -107 -61 -147s-91 -60 -150 -60s-109 20 -150 60zM507 1398c-20 -21 -30 -46 -30 -77s10 -57 30 -78c21 -21 47 -31 79 -31s58 10 78 31s30 47 30 78s-10 56 -30 77s-46 32 -78 32s-58 -11 -79 -32z" />
    <glyph glyph-name="Uhungarumlaut" unicode="&#x170;" horiz-adv-x="1355" 
d="M102 569v865h291v-889c0 -121 33 -212 88 -260c56 -48 120 -68 197 -68s141 20 196 68c56 48 89 139 89 260v889h290v-865c0 -185 -51 -331 -152 -438s-242 -160 -423 -160s-323 53 -424 160s-152 253 -152 438zM514 1575h-229l188 280h332zM936 1575h-229l188 280h332z
" />
    <glyph glyph-name="uhungarumlaut" unicode="&#x171;" 
d="M98 322v690h271v-594c0 -131 76 -197 192 -197c67 0 122 24 165 72c43 49 65 114 65 196v523h270v-1012h-270v125c-37 -47 -85 -84 -144 -112s-122 -42 -188 -42c-110 0 -198 30 -263 89c-65 60 -98 147 -98 262zM385 1153h-229l188 281h332zM807 1153h-229l188 281h332z
" />
    <glyph glyph-name="Uogonek" unicode="&#x172;" horiz-adv-x="1355" 
d="M102 569v865h291v-889c0 -121 33 -212 88 -260c56 -48 120 -68 197 -68s141 20 196 68c56 48 89 139 89 260v889h290v-865c0 -147 -32 -270 -97 -369c-64 -99 -156 -165 -275 -200c-72 -72 -121 -160 -121 -233c0 -71 46 -119 119 -119c55 0 84 11 127 43l24 -10
l-22 -146c-55 -18 -114 -27 -177 -27c-172 0 -272 92 -272 232c0 87 40 164 121 231c-182 0 -324 53 -426 160c-101 107 -152 253 -152 438z" />
    <glyph glyph-name="uogonek" unicode="&#x173;" 
d="M98 322v690h271v-594c0 -131 76 -197 192 -197c67 0 122 24 165 72c43 49 65 114 65 196v523h270v-1012c-72 -72 -123 -161 -123 -233c0 -71 46 -119 119 -119c55 0 84 11 127 43l24 -10l-22 -146c-55 -18 -114 -27 -176 -27c-172 0 -273 92 -273 232
c0 100 61 196 160 260h-106v125c-37 -47 -85 -84 -144 -112s-122 -42 -188 -42c-110 0 -198 30 -263 89c-65 60 -98 147 -98 262z" />
    <glyph glyph-name="Wcircumflex" unicode="&#x174;" horiz-adv-x="2039" 
d="M537 0l-492 1434h315l273 -805l309 805h156l309 -805l272 805h316l-492 -1434h-127l-356 926l-356 -926h-127zM893 1575h-209l188 280h297l189 -280h-209l-129 123z" />
    <glyph glyph-name="wcircumflex" unicode="&#x175;" horiz-adv-x="1585" 
d="M469 0l-449 1012h279l215 -531l221 531h115l221 -531l215 531h279l-449 -1012h-65l-258 614l-258 -614h-66zM666 1153h-209l188 281h297l188 -281h-208l-129 123z" />
    <glyph glyph-name="Ycircumflex" unicode="&#x176;" horiz-adv-x="1257" 
d="M483 606l-454 828h321l279 -551l278 551h322l-455 -828v-606h-291v606zM502 1575h-209l188 280h297l189 -280h-209l-129 123z" />
    <glyph glyph-name="ycircumflex" unicode="&#x177;" horiz-adv-x="1079" 
d="M412 197l-398 815h279l248 -531l245 531h279l-717 -1475h-278zM412 1153h-209l188 281h297l189 -281h-209l-129 123z" />
    <glyph glyph-name="Ydieresis" unicode="&#x178;" horiz-adv-x="1257" 
d="M483 606l-454 828h321l279 -551l278 551h322l-455 -828v-606h-291v606zM287 1706c0 41 14 76 42 105c29 29 63 44 103 44c41 0 77 -15 106 -44s44 -64 44 -105c0 -40 -15 -74 -44 -103c-29 -28 -65 -42 -106 -42c-40 0 -74 14 -103 42c-28 29 -42 63 -42 103zM678 1706
c0 41 14 76 42 105c29 29 63 44 103 44c41 0 77 -15 106 -44s44 -64 44 -105c0 -40 -15 -74 -44 -103c-29 -28 -65 -42 -106 -42c-40 0 -74 14 -103 42c-28 29 -42 63 -42 103z" />
    <glyph glyph-name="Zacute" unicode="&#x179;" horiz-adv-x="1239" 
d="M1171 0h-1130v41l674 1147h-613v246h1045v-41l-674 -1147h698v-246zM629 1575h-230l189 280h332z" />
    <glyph glyph-name="zacute" unicode="&#x17a;" horiz-adv-x="1019" 
d="M932 0h-860v41l436 721h-391v250h807v-41l-430 -721h438v-250zM541 1153h-230l189 281h331z" />
    <glyph glyph-name="Zdotaccent" unicode="&#x17b;" horiz-adv-x="1239" 
d="M1171 0h-1130v41l674 1147h-613v246h1045v-41l-674 -1147h698v-246zM469 1741c0 47 16 88 49 121c33 34 73 51 119 51c47 0 88 -17 121 -51c34 -33 51 -74 51 -121c0 -46 -17 -86 -51 -119c-33 -33 -74 -49 -121 -49c-46 0 -86 16 -119 49s-49 73 -49 119z" />
    <glyph glyph-name="zdotaccent" unicode="&#x17c;" horiz-adv-x="1019" 
d="M932 0h-860v41l436 721h-391v250h807v-41l-430 -721h438v-250zM352 1319c0 47 16 88 49 121c33 34 73 51 119 51c47 0 87 -17 121 -51c34 -33 51 -74 51 -121c0 -46 -17 -86 -51 -119c-33 -33 -74 -49 -121 -49c-46 0 -86 16 -119 49s-49 73 -49 119z" />
    <glyph glyph-name="Zcaron" unicode="&#x17d;" horiz-adv-x="1247" 
d="M1176 0h-1131v41l674 1147h-613v246h1045v-41l-674 -1147h699v-246zM475 1575l-188 280h209l127 -122l129 122h209l-189 -280h-297z" />
    <glyph glyph-name="zcaron" unicode="&#x17e;" horiz-adv-x="1019" 
d="M932 0h-860v41l436 721h-391v250h807v-41l-430 -721h438v-250zM362 1153l-188 281h209l127 -123l129 123h209l-189 -281h-297z" />
    <glyph glyph-name="longs" unicode="&#x17f;" horiz-adv-x="731" 
d="M182 782h-112v230h112v110c0 117 44 211 111 263s144 77 225 77c66 0 125 -14 178 -43l11 -237h-25c-35 35 -78 53 -127 53c-63 0 -102 -40 -102 -109v-1126h-271v782z" />
    <glyph glyph-name="uni018E" unicode="&#x18e;" horiz-adv-x="1114" 
d="M700 1188h-628v246h919v-1434h-911v246h620v327h-598v246h598v369z" />
    <glyph glyph-name="uni018F" unicode="&#x18f;" horiz-adv-x="1157" 
d="M66 498v80h776c-31 151 -149 233 -310 233c-139 0 -261 -44 -364 -133h-29l11 256c122 71 256 106 401 106c300 6 555 -241 549 -542c0 -97 -24 -187 -72 -268s-113 -144 -194 -190s-170 -69 -267 -69c-343 0 -501 255 -501 527zM836 393h-502c7 -63 32 -115 74 -154
s95 -59 159 -59c61 0 117 19 167 56c50 38 84 90 102 157z" />
    <glyph glyph-name="florin" unicode="&#x192;" horiz-adv-x="829" 
d="M-285 -399l37 237h25c27 -35 76 -53 117 -53c69 0 108 39 124 123l175 874h-113l43 230h115l20 110c24 119 79 211 150 263s150 77 237 77c88 0 132 -12 184 -43l-36 -237h-25c-27 35 -76 53 -117 53c-68 0 -110 -41 -125 -123l-18 -100h162l-43 -230h-164l-174 -884
c-23 -117 -70 -202 -140 -257s-153 -83 -249 -83c-88 0 -133 12 -185 43z" />
    <glyph glyph-name="uni01B5" unicode="&#x1b5;" horiz-adv-x="1239" 
d="M1171 0h-1130v41l346 586h-278v192h391l215 369h-613v246h1045v-41l-338 -574h307v-192h-420l-223 -381h698v-246z" />
    <glyph glyph-name="uni01B6" unicode="&#x1b6;" horiz-adv-x="1019" 
d="M932 0h-860v41l233 385h-166v176h273l96 160h-391v250h807v-41l-222 -369h191v-176h-295l-104 -176h438v-250z" />
    <glyph glyph-name="Aringacute" unicode="&#x1fa;" horiz-adv-x="1425" 
d="M317 0h-282l608 1374c-85 29 -141 106 -141 197c0 58 20 107 61 147s91 60 150 60s109 -20 150 -60s61 -89 61 -147c0 -91 -57 -168 -142 -197l609 -1374h-283l-107 246h-577zM743 1853h-229l188 281h332zM713 926l-187 -434h373zM604 1571c0 -61 45 -109 109 -109
s108 48 108 109s-44 108 -108 108s-109 -48 -109 -108z" />
    <glyph glyph-name="aringacute" unicode="&#x1fb;" horiz-adv-x="1249" 
d="M57 506c0 97 22 186 67 268s107 147 185 194c78 48 163 72 256 72c131 0 246 -47 303 -120v92h271v-1012h-271v92c-42 -40 -87 -70 -135 -91c-48 -20 -109 -30 -184 -30c-97 0 -194 31 -278 92c-122 88 -215 244 -214 443zM403 709c-50 -55 -75 -122 -75 -203
s25 -148 75 -203c51 -55 118 -82 201 -82s150 27 201 82s76 122 76 203s-25 148 -76 203s-118 82 -201 82s-150 -27 -201 -82zM440 1174c-41 40 -61 89 -61 147s20 107 61 147s91 60 150 60s109 -20 150 -60s61 -89 61 -147s-20 -107 -61 -147s-91 -60 -150 -60
s-109 20 -150 60zM655 1604h-229l188 280h332zM511 1398c-20 -21 -30 -46 -30 -77s10 -57 30 -78c21 -21 47 -31 79 -31s58 10 78 31s30 47 30 78s-10 56 -30 77s-46 32 -78 32s-58 -11 -79 -32z" />
    <glyph glyph-name="AEacute" unicode="&#x1fc;" horiz-adv-x="2074" 
d="M317 0h-282l635 1434h733l110 -246h-636l145 -328h586l106 -246h-584l162 -368h641l107 -246h-932l-107 246h-579zM713 926l-187 -434h371zM1026 1575h-229l188 280h332z" />
    <glyph glyph-name="aeacute" unicode="&#x1fd;" horiz-adv-x="1771" 
d="M57 274c0 224 190 344 574 344h37c-2 63 -22 113 -59 150s-82 55 -136 55c-112 0 -191 -36 -280 -112h-43l22 233c41 27 93 49 158 68s128 28 190 28c145 0 252 -46 322 -139c103 93 221 139 354 139c167 0 303 -62 384 -162c83 -99 126 -225 126 -364v-80h-776
c31 -151 148 -233 309 -233c140 0 262 44 365 133h28l-10 -256c-123 -71 -256 -107 -401 -107c-171 0 -325 74 -426 197c-57 -74 -118 -125 -183 -154s-140 -43 -223 -43c-92 0 -170 28 -235 84s-97 129 -97 219zM319 289c0 -65 49 -109 121 -109c68 0 123 25 165 75
s63 110 63 179c-89 0 -151 -3 -212 -16c-87 -17 -137 -56 -137 -129zM936 1153h-229l188 281h332zM938 618h498c-7 63 -33 114 -78 153c-44 40 -98 60 -162 60c-121 0 -222 -78 -258 -213z" />
    <glyph glyph-name="circumflex" unicode="&#x2c6;" horiz-adv-x="829" 
d="M287 1153h-209l188 281h297l189 -281h-209l-129 123z" />
    <glyph glyph-name="caron" unicode="&#x2c7;" horiz-adv-x="829" 
d="M266 1153l-188 281h209l127 -123l129 123h209l-189 -281h-297z" />
    <glyph glyph-name="breve" unicode="&#x2d8;" horiz-adv-x="585" 
d="M49 1393h176c0 -47 24 -78 68 -78s67 31 67 78h177c0 -70 -23 -128 -68 -174c-45 -45 -103 -68 -176 -68s-132 23 -177 68c-45 46 -67 104 -67 174z" />
    <glyph glyph-name="dotaccent" unicode="&#x2d9;" horiz-adv-x="520" 
d="M90 1319c0 47 16 88 49 121c33 34 73 51 119 51c47 0 87 -17 121 -51c34 -33 51 -74 51 -121c0 -46 -17 -86 -51 -119c-33 -33 -74 -49 -121 -49c-46 0 -86 16 -119 49s-49 73 -49 119z" />
    <glyph glyph-name="ring" unicode="&#x2da;" horiz-adv-x="995" 
d="M348 1174c-41 40 -61 89 -61 147s20 107 61 147s91 60 150 60s109 -20 150 -60s61 -89 61 -147s-20 -107 -61 -147s-91 -60 -150 -60s-109 20 -150 60zM419 1398c-20 -21 -30 -46 -30 -77s10 -57 30 -78c21 -21 47 -31 79 -31s58 10 78 31s30 47 30 78s-10 56 -30 77
s-46 32 -78 32s-58 -11 -79 -32z" />
    <glyph glyph-name="ogonek" unicode="&#x2db;" horiz-adv-x="675" 
d="M131 -260c0 62 22 120 65 175c44 54 101 96 171 126l88 -41c-72 -72 -123 -161 -123 -233c0 -71 46 -119 119 -119c55 0 84 11 127 43l24 -10l-22 -146c-55 -18 -114 -27 -177 -27c-172 0 -272 92 -272 232z" />
    <glyph glyph-name="tilde" unicode="&#x2dc;" horiz-adv-x="1075" 
d="M195 1149h-21l16 188c49 65 118 97 207 97c68 0 132 -27 168 -55c37 -27 89 -54 137 -54c67 0 127 31 179 94h20l-16 -188c-48 -64 -117 -96 -207 -96c-68 0 -133 27 -172 54c-37 27 -89 54 -133 54c-56 0 -115 -31 -178 -94z" />
    <glyph glyph-name="hungarumlaut" unicode="&#x2dd;" horiz-adv-x="1089" 
d="M303 1153h-229l188 281h332zM725 1153h-229l188 281h332z" />
    <glyph glyph-name="pi" unicode="&#x3c0;" horiz-adv-x="1234" 
d="M164 819h-141v193h1189v-193h-141v-819h-270v819h-367v-819h-270v819z" />
    <glyph glyph-name="uni2000" unicode="&#x2000;" horiz-adv-x="1067" 
 />
    <glyph glyph-name="uni2001" unicode="&#x2001;" horiz-adv-x="2134" 
 />
    <glyph glyph-name="uni2002" unicode="&#x2002;" horiz-adv-x="1067" 
 />
    <glyph glyph-name="uni2003" unicode="&#x2003;" horiz-adv-x="2134" 
 />
    <glyph glyph-name="uni2004" unicode="&#x2004;" horiz-adv-x="711" 
 />
    <glyph glyph-name="uni2005" unicode="&#x2005;" horiz-adv-x="533" 
 />
    <glyph glyph-name="uni2006" unicode="&#x2006;" horiz-adv-x="355" 
 />
    <glyph glyph-name="uni2007" unicode="&#x2007;" horiz-adv-x="355" 
 />
    <glyph glyph-name="uni2008" unicode="&#x2008;" horiz-adv-x="266" 
 />
    <glyph glyph-name="uni2009" unicode="&#x2009;" horiz-adv-x="426" 
 />
    <glyph glyph-name="uni200A" unicode="&#x200a;" horiz-adv-x="118" 
 />
    <glyph glyph-name="uni2010" unicode="&#x2010;" horiz-adv-x="827" 
d="M750 541h-672v217h672v-217z" />
    <glyph glyph-name="uni2011" unicode="&#x2011;" horiz-adv-x="827" 
d="M750 541h-672v217h672v-217z" />
    <glyph glyph-name="figuredash" unicode="&#x2012;" horiz-adv-x="827" 
d="M750 541h-672v217h672v-217z" />
    <glyph glyph-name="endash" unicode="&#x2013;" horiz-adv-x="1134" 
d="M1057 541h-979v217h979v-217z" />
    <glyph glyph-name="emdash" unicode="&#x2014;" horiz-adv-x="1810" 
d="M1733 541h-1655v217h1655v-217z" />
    <glyph glyph-name="quoteleft" unicode="&#x2018;" horiz-adv-x="479" 
d="M82 1079c0 153 79 278 237 375l43 -43c-72 -52 -111 -115 -118 -190c43 0 79 -15 108 -46c30 -30 45 -67 45 -110c0 -44 -15 -82 -46 -113c-30 -31 -66 -47 -109 -47c-48 0 -87 16 -116 49s-44 75 -44 125z" />
    <glyph glyph-name="quoteright" unicode="&#x2019;" horiz-adv-x="479" 
d="M82 1294c0 44 15 82 46 113s67 47 110 47c48 0 86 -17 115 -50s44 -74 44 -124c0 -153 -79 -278 -237 -375l-43 43c73 53 112 116 119 191c-43 0 -79 15 -109 45s-45 67 -45 110z" />
    <glyph glyph-name="quotesinglbase" unicode="&#x201a;" horiz-adv-x="495" 
d="M90 156c0 44 15 81 45 112c31 31 68 47 111 47c48 0 87 -17 116 -50s44 -74 44 -124c0 -151 -79 -276 -238 -374l-43 43c73 53 113 116 119 190c-43 0 -79 15 -109 45c-30 31 -45 68 -45 111z" />
    <glyph glyph-name="quotedblleft" unicode="&#x201c;" horiz-adv-x="870" 
d="M82 1079c0 153 79 278 237 375l43 -43c-72 -52 -111 -115 -118 -190c43 0 79 -15 108 -46c30 -30 45 -67 45 -110c0 -44 -15 -82 -46 -113c-30 -31 -66 -47 -109 -47c-48 0 -87 16 -116 49s-44 75 -44 125zM473 1079c0 152 79 277 238 375l43 -43
c-73 -53 -113 -116 -119 -190c43 0 79 -15 108 -46c30 -30 45 -67 45 -110c0 -44 -15 -82 -46 -113c-30 -31 -66 -47 -109 -47c-48 0 -87 16 -116 49s-44 75 -44 125z" />
    <glyph glyph-name="quotedblright" unicode="&#x201d;" horiz-adv-x="870" 
d="M82 1294c0 44 15 82 46 113s67 47 110 47c48 0 86 -17 115 -50s44 -74 44 -124c0 -153 -79 -278 -237 -375l-43 43c73 53 112 116 119 191c-43 0 -79 15 -109 45s-45 67 -45 110zM473 1294c0 44 15 82 46 113s67 47 110 47c48 0 86 -17 115 -50s44 -74 44 -124
c0 -153 -79 -278 -237 -375l-43 43c73 53 112 116 119 191c-43 0 -79 15 -109 45s-45 67 -45 110z" />
    <glyph glyph-name="quotedblbase" unicode="&#x201e;" horiz-adv-x="886" 
d="M90 156c0 44 15 81 45 112c31 31 68 47 111 47c48 0 87 -17 116 -50s44 -74 44 -124c0 -151 -79 -276 -238 -374l-43 43c73 53 113 116 119 190c-43 0 -79 15 -109 45c-30 31 -45 68 -45 111zM481 156c0 44 15 81 45 112c31 31 68 47 111 47c48 0 87 -17 116 -50
s44 -74 44 -124c0 -151 -79 -276 -238 -374l-43 43c73 53 113 116 119 190c-43 0 -79 15 -109 45c-30 31 -45 68 -45 111z" />
    <glyph glyph-name="dagger" unicode="&#x2020;" horiz-adv-x="778" 
d="M252 795h-219v217h219v422h270v-422h223v-217h-223v-1258h-270v1258z" />
    <glyph glyph-name="daggerdbl" unicode="&#x2021;" horiz-adv-x="778" 
d="M252 0h-219v217h219v578h-219v217h219v422h270v-422h223v-217h-223v-578h223v-217h-223v-463h-270v463z" />
    <glyph glyph-name="bullet" unicode="&#x2022;" horiz-adv-x="733" 
d="M200 570c-46 46 -69 102 -69 167s23 121 69 167s102 69 167 69s121 -23 166 -69c46 -46 69 -102 69 -167s-23 -121 -69 -167c-45 -45 -101 -68 -166 -68s-121 23 -167 68z" />
    <glyph glyph-name="ellipsis" unicode="&#x2026;" horiz-adv-x="1441" 
d="M90 127c0 44 15 82 46 113s67 47 110 47c44 0 82 -16 113 -47s47 -69 47 -113c0 -43 -16 -79 -47 -110s-69 -46 -113 -46c-43 0 -79 15 -110 45c-31 31 -46 68 -46 111zM563 127c0 44 15 82 46 113s67 47 110 47c44 0 82 -16 113 -47s47 -69 47 -113
c0 -43 -16 -79 -47 -110s-69 -46 -113 -46c-43 0 -80 15 -111 45c-30 31 -45 68 -45 111zM1036 127c0 44 15 82 46 113s67 47 110 47c44 0 82 -16 113 -47s47 -69 47 -113c0 -43 -16 -79 -47 -110s-69 -46 -113 -46c-43 0 -79 15 -110 45c-31 31 -46 68 -46 111z" />
    <glyph glyph-name="uni202F" unicode="&#x202f;" horiz-adv-x="426" 
 />
    <glyph glyph-name="perthousand" unicode="&#x2030;" horiz-adv-x="2043" 
d="M174 908c-65 63 -98 140 -98 231s33 168 98 230c66 62 145 93 238 93s172 -31 237 -93c66 -62 99 -139 99 -230s-33 -168 -99 -231c-65 -62 -144 -93 -237 -93s-172 31 -238 93zM211 403l-68 129l961 498l67 -129zM307 1245c-29 -27 -43 -62 -43 -106s14 -80 43 -107
s64 -41 105 -41s76 14 104 41c29 27 43 63 43 107s-14 79 -43 106c-28 27 -63 41 -104 41s-76 -14 -105 -41zM665 64c-65 63 -98 140 -98 231s33 168 98 230c66 62 145 93 238 93s172 -31 237 -93c66 -62 99 -139 99 -230s-33 -168 -99 -231c-65 -62 -144 -93 -237 -93
s-172 31 -238 93zM798 401c-28 -27 -42 -62 -42 -106s14 -80 42 -107c29 -27 64 -41 105 -41s76 14 105 41s43 63 43 107s-14 79 -43 106s-64 41 -105 41s-76 -14 -105 -41zM1403 64c-65 63 -98 140 -98 231s33 168 98 230s144 93 237 93s172 -31 237 -93
c66 -62 99 -139 99 -230s-33 -168 -99 -231c-65 -62 -144 -93 -237 -93s-172 31 -237 93zM1535 401c-28 -27 -42 -62 -42 -106s14 -80 42 -107c29 -27 64 -41 105 -41s76 14 105 41s43 63 43 107s-14 79 -43 106s-64 41 -105 41s-76 -14 -105 -41z" />
    <glyph glyph-name="guilsinglleft" unicode="&#x2039;" horiz-adv-x="673" 
d="M549 225l-483 414v143l483 414h43v-250l-273 -235l273 -236v-250h-43z" />
    <glyph glyph-name="guilsinglright" unicode="&#x203a;" horiz-adv-x="673" 
d="M125 225h-43v250l272 236l-272 235v250h43l483 -414v-143z" />
    <glyph glyph-name="fraction" unicode="&#x2044;" horiz-adv-x="1314" 
d="M211 403l-68 129l961 498l67 -129z" />
    <glyph glyph-name="uni205F" unicode="&#x205f;" horiz-adv-x="533" 
 />
    <glyph glyph-name="zerosuperior" unicode="&#x2070;" horiz-adv-x="733" 
d="M133 806c-57 70 -86 160 -86 269s29 199 86 268c58 70 136 105 234 105s176 -35 233 -105c57 -69 86 -159 86 -268s-29 -199 -86 -269c-57 -69 -135 -104 -233 -104s-176 35 -234 104zM367 850c101 0 151 75 151 225s-50 225 -151 225s-152 -80 -152 -225
s51 -225 152 -225z" />
    <glyph glyph-name="foursuperior" unicode="&#x2074;" horiz-adv-x="630" 
d="M346 856h-326v121l390 457h104v-430h90v-148h-90v-139h-168v139zM346 1169l-137 -165h137v165z" />
    <glyph glyph-name="fivesuperior" unicode="&#x2075;" horiz-adv-x="585" 
d="M82 731l-35 178h25c53 -38 114 -57 182 -57c81 0 129 37 129 106c0 73 -49 111 -129 111c-47 0 -103 -14 -166 -43l-41 6l47 402h426v-144h-299l-18 -106c27 11 61 16 102 16c159 0 246 -89 246 -242c0 -79 -27 -141 -80 -187s-120 -69 -201 -69c-57 0 -120 10 -188 29z
" />
    <glyph glyph-name="sixsuperior" unicode="&#x2076;" horiz-adv-x="614" 
d="M41 1040c0 73 11 139 34 199c23 61 59 111 108 150s108 59 177 59c57 0 105 -13 142 -39l16 -158h-22c-45 36 -91 54 -136 54c-79 0 -136 -55 -153 -168c41 29 87 43 139 43c69 0 125 -22 168 -66c44 -43 66 -99 66 -166c0 -69 -26 -127 -77 -175
c-51 -47 -113 -71 -186 -71c-87 0 -164 34 -208 97c-45 62 -68 142 -68 241zM315 838c65 0 107 43 107 106s-42 107 -107 107c-63 0 -104 -46 -104 -107s41 -106 104 -106z" />
    <glyph glyph-name="sevensuperior" unicode="&#x2077;" horiz-adv-x="585" 
d="M336 1286h-301v148h530v-31l-342 -686h-176z" />
    <glyph glyph-name="eightsuperior" unicode="&#x2078;" horiz-adv-x="589" 
d="M41 922c0 81 35 141 106 182c-54 44 -81 96 -81 156c0 52 22 96 65 133s98 55 164 55s121 -18 164 -55s65 -81 65 -133c0 -59 -27 -111 -82 -156c71 -41 107 -101 107 -182c0 -59 -23 -110 -70 -154s-108 -66 -184 -66c-77 0 -138 22 -185 66c-46 44 -69 95 -69 154z
M225 1011c-19 -19 -28 -44 -28 -75s9 -55 28 -74s43 -28 70 -28s50 9 69 28s29 43 29 74s-10 56 -29 75s-42 29 -69 29s-51 -10 -70 -29zM240 1302c-28 -29 -28 -81 -1 -110c14 -14 33 -21 56 -21s42 7 55 21c28 29 28 81 0 110c-28 31 -82 31 -110 0z" />
    <glyph glyph-name="ninesuperior" unicode="&#x2079;" horiz-adv-x="614" 
d="M35 1202c0 69 25 127 76 174c51 48 113 72 186 72c93 0 163 -32 209 -96c45 -61 67 -142 67 -242c0 -73 -11 -139 -34 -200c-23 -60 -59 -110 -108 -149s-108 -59 -177 -59c-57 0 -104 13 -141 39l-17 158h23c45 -35 90 -53 135 -53c80 0 137 55 154 168
c-41 -29 -87 -43 -140 -43c-69 0 -125 22 -168 65s-65 99 -65 166zM299 1100c63 0 104 45 104 106s-41 107 -104 107c-65 0 -106 -44 -106 -107s41 -106 106 -106z" />
    <glyph glyph-name="zeroinferior" unicode="&#x2080;" horiz-adv-x="733" 
d="M133 -372c-57 69 -86 159 -86 268s29 199 86 268c58 69 136 104 234 104s176 -35 233 -104s86 -159 86 -268s-29 -199 -86 -268c-57 -70 -135 -105 -233 -105s-176 35 -234 105zM518 -104c0 150 -50 225 -151 225c-51 0 -89 -19 -114 -58s-38 -94 -38 -167
s13 -128 38 -167c26 -39 64 -59 114 -59c100 0 151 81 151 226z" />
    <glyph glyph-name="oneinferior" unicode="&#x2081;" horiz-adv-x="290" 
d="M61 -463v649l97 68h71v-717h-168z" />
    <glyph glyph-name="twoinferior" unicode="&#x2082;" horiz-adv-x="600" 
d="M29 -463v33l268 334c38 47 57 92 57 137c0 51 -38 86 -98 86c-59 0 -110 -36 -154 -109h-45l9 170c51 51 136 80 221 80c159 0 245 -82 245 -205c0 -83 -31 -150 -108 -243l-113 -135h246v-148h-528z" />
    <glyph glyph-name="threeinferior" unicode="&#x2083;" horiz-adv-x="614" 
d="M285 106h-230v148h492v-21l-162 -208c112 -27 184 -104 184 -236c0 -85 -26 -151 -78 -197s-120 -69 -204 -69c-81 0 -164 19 -207 43l-17 172h27c68 -47 129 -70 182 -70c83 0 125 40 125 121c0 72 -47 117 -127 117c-10 0 -36 -3 -77 -10l-27 53z" />
    <glyph glyph-name="fourinferior" unicode="&#x2084;" horiz-adv-x="630" 
d="M20 -324v121l390 457h104v-430h90v-148h-90v-139h-168v139h-326zM346 -10l-137 -166h137v166z" />
    <glyph glyph-name="fiveinferior" unicode="&#x2085;" horiz-adv-x="585" 
d="M88 -154l-41 7l47 401h426v-143h-299l-18 -107c27 11 61 16 102 16c159 0 246 -88 246 -241c0 -79 -27 -141 -80 -187s-120 -69 -201 -69c-60 0 -123 9 -188 28l-35 179h25c55 -39 115 -58 182 -58c81 0 129 38 129 107c0 73 -48 110 -129 110c-47 0 -103 -14 -166 -43z
" />
    <glyph glyph-name="sixinferior" unicode="&#x2086;" horiz-adv-x="614" 
d="M41 -139c0 73 11 139 34 199c23 61 59 110 108 149s108 59 177 59c57 0 105 -13 142 -39l16 -157h-22c-45 35 -90 53 -136 53c-79 0 -136 -55 -153 -168c41 29 87 43 139 43c69 0 125 -22 168 -65c44 -43 66 -99 66 -166c0 -69 -26 -127 -77 -174
c-51 -48 -113 -72 -186 -72c-93 0 -162 32 -208 96c-45 62 -68 143 -68 242zM315 -342c65 0 107 43 107 106s-42 107 -107 107c-63 0 -104 -46 -104 -107s41 -106 104 -106z" />
    <glyph glyph-name="seveninferior" unicode="&#x2087;" horiz-adv-x="585" 
d="M336 106h-301v148h530v-31l-342 -686h-176z" />
    <glyph glyph-name="eightinferior" unicode="&#x2088;" horiz-adv-x="589" 
d="M41 -258c0 81 35 141 106 182c-54 44 -81 96 -81 156c0 52 22 96 65 133s98 55 164 55s121 -18 164 -55s65 -81 65 -133c0 -59 -27 -111 -82 -156c71 -41 107 -101 107 -182c0 -59 -23 -110 -70 -153c-47 -44 -108 -66 -184 -66c-77 0 -138 22 -185 66
c-46 43 -69 94 -69 153zM225 -168c-19 -20 -28 -45 -28 -76s9 -55 28 -74s43 -28 70 -28s50 9 69 28s29 43 29 74s-10 56 -29 76c-19 19 -42 29 -69 29s-51 -10 -70 -29zM240 123c-28 -29 -28 -81 -1 -110c14 -14 33 -21 56 -21s42 7 55 21c28 29 28 81 0 110s-82 29 -110 0
z" />
    <glyph glyph-name="nineinferior" unicode="&#x2089;" horiz-adv-x="614" 
d="M35 23c0 69 25 127 76 174s113 71 186 71c93 0 163 -32 209 -96c45 -61 67 -142 67 -242c0 -73 -11 -139 -34 -199c-23 -61 -59 -110 -108 -149s-108 -59 -177 -59c-57 0 -104 13 -141 39l-17 157h23c45 -35 90 -53 135 -53c80 0 137 55 154 168
c-41 -29 -87 -43 -140 -43c-68 0 -124 22 -168 66c-43 43 -65 99 -65 166zM299 -80c63 0 104 46 104 107s-41 106 -104 106c-65 0 -106 -43 -106 -106s41 -107 106 -107z" />
    <glyph glyph-name="Euro" unicode="&#x20ac;" horiz-adv-x="1306" 
d="M178 479h-153l61 176h61c-1 13 -2 34 -2 62c0 27 1 48 2 61h-122l61 176h92c44 154 127 277 248 369c122 93 268 139 438 139c136 0 247 -32 332 -96l25 -279h-33c-105 88 -210 125 -346 125c-79 0 -151 -22 -217 -66s-116 -108 -150 -192h531l-62 -176h-506
c-1 -13 -2 -34 -2 -61c0 -28 1 -49 2 -62h568l-62 -176h-469c34 -84 84 -148 150 -192s138 -66 217 -66c136 0 241 37 346 125h33l-25 -278c-86 -65 -197 -97 -332 -97c-170 0 -316 46 -438 138c-121 93 -204 216 -248 370z" />
    <glyph glyph-name="trademark" unicode="&#x2122;" horiz-adv-x="1454" 
d="M217 1303h-176v131h508v-131h-176v-586h-156v586zM680 717h-156l195 717h57l193 -430l192 430h58l194 -717h-156l-96 360l-172 -360h-41l-172 360z" />
    <glyph glyph-name="Omega" unicode="&#x2126;" horiz-adv-x="1691" 
d="M111 780c0 193 74 366 201 487s317 195 534 195s407 -74 534 -195s201 -294 201 -487c0 -109 -24 -211 -72 -306c-48 -94 -110 -170 -186 -228h238v-246h-607v205c102 54 183 128 244 223s92 203 92 324c0 146 -41 259 -123 339c-82 81 -189 121 -321 121
c-133 0 -240 -40 -322 -121c-82 -80 -123 -193 -123 -339c0 -121 30 -229 91 -324s143 -169 245 -223v-205h-606v246h238c-76 58 -138 134 -186 228c-48 95 -72 197 -72 306z" />
    <glyph glyph-name="onethird" unicode="&#x2153;" horiz-adv-x="1081" 
d="M94 199l-67 129l960 497l68 -129zM434 717h-168v649l96 68h72v-717zM694 106h-229v148h491v-21l-161 -208c112 -27 184 -104 184 -236c0 -85 -26 -151 -79 -197c-52 -46 -120 -69 -204 -69c-81 0 -164 19 -207 43l-16 172h27c68 -47 129 -70 182 -70c83 0 125 40 125 121
c0 72 -47 117 -127 117c-11 0 -37 -3 -78 -10l-27 53z" />
    <glyph glyph-name="twothirds" unicode="&#x2154;" horiz-adv-x="1116" 
d="M555 717h-528v33l268 333c38 47 57 93 57 138c0 51 -38 86 -98 86c-59 0 -110 -36 -154 -109h-45l8 170c51 51 137 80 222 80c159 0 245 -82 245 -205c0 -83 -31 -151 -108 -244l-113 -135h246v-147zM129 199l-68 129l961 497l68 -129zM729 106h-229v148h491v-21
l-162 -208c112 -27 185 -104 185 -236c0 -85 -26 -151 -79 -197c-52 -46 -120 -69 -204 -69c-81 0 -164 19 -207 43l-16 172h27c68 -47 129 -70 182 -70c83 0 125 40 125 121c0 72 -47 117 -127 117c-10 0 -36 -3 -78 -10l-27 53z" />
    <glyph glyph-name="oneeighth" unicode="&#x215b;" horiz-adv-x="1081" 
d="M94 199l-67 129l960 497l68 -129zM434 717h-168v649l96 68h72v-717zM430 -258c0 81 36 141 107 182c-55 45 -82 97 -82 156c0 52 22 96 65 133s98 55 164 55s121 -18 164 -55s65 -81 65 -133c0 -59 -27 -111 -82 -156c71 -41 107 -101 107 -182c0 -59 -23 -110 -70 -153
c-47 -44 -108 -66 -184 -66c-77 0 -138 22 -185 66c-46 43 -69 94 -69 153zM614 -168c-19 -20 -28 -45 -28 -76s9 -55 28 -74s43 -28 70 -28s50 9 69 28s29 43 29 74s-10 56 -29 76c-19 19 -42 29 -69 29s-51 -10 -70 -29zM629 123c-28 -29 -28 -81 -1 -110
c14 -14 33 -21 56 -21s42 7 55 21c28 29 28 81 0 110s-82 29 -110 0z" />
    <glyph glyph-name="threeeighths" unicode="&#x215c;" horiz-adv-x="1081" 
d="M94 199l-67 129l960 497l68 -129zM285 1286h-230v148h492v-21l-162 -209c112 -27 184 -103 184 -235c0 -85 -26 -151 -78 -198c-52 -46 -120 -69 -204 -69c-81 0 -164 19 -207 43l-17 173h27c68 -47 129 -70 182 -70c83 0 125 40 125 121c0 71 -46 116 -127 116
c-10 0 -36 -3 -77 -10l-27 53zM430 -258c0 81 36 141 107 182c-55 45 -82 97 -82 156c0 52 22 96 65 133s98 55 164 55s121 -18 164 -55s65 -81 65 -133c0 -59 -27 -111 -82 -156c71 -41 107 -101 107 -182c0 -59 -23 -110 -70 -153c-47 -44 -108 -66 -184 -66
c-77 0 -138 22 -185 66c-46 43 -69 94 -69 153zM614 -168c-19 -20 -28 -45 -28 -76s9 -55 28 -74s43 -28 70 -28s50 9 69 28s29 43 29 74s-10 56 -29 76c-19 19 -42 29 -69 29s-51 -10 -70 -29zM629 123c-28 -29 -28 -81 -1 -110c14 -14 33 -21 56 -21s42 7 55 21
c28 29 28 81 0 110s-82 29 -110 0z" />
    <glyph glyph-name="fiveeighths" unicode="&#x215d;" horiz-adv-x="1081" 
d="M94 199l-67 129l960 497l68 -129zM82 731l-35 178h25c53 -38 114 -57 182 -57c81 0 129 37 129 106c0 73 -49 111 -129 111c-47 0 -103 -14 -166 -43l-41 6l47 402h426v-144h-299l-18 -106c27 11 61 16 102 16c159 0 246 -89 246 -242c0 -79 -27 -141 -80 -187
s-120 -69 -201 -69c-57 0 -120 10 -188 29zM430 -258c0 81 36 141 107 182c-55 45 -82 97 -82 156c0 52 22 96 65 133s98 55 164 55s121 -18 164 -55s65 -81 65 -133c0 -59 -27 -111 -82 -156c71 -41 107 -101 107 -182c0 -59 -23 -110 -70 -153c-47 -44 -108 -66 -184 -66
c-77 0 -138 22 -185 66c-46 43 -69 94 -69 153zM614 -168c-19 -20 -28 -45 -28 -76s9 -55 28 -74s43 -28 70 -28s50 9 69 28s29 43 29 74s-10 56 -29 76c-19 19 -42 29 -69 29s-51 -10 -70 -29zM629 123c-28 -29 -28 -81 -1 -110c14 -14 33 -21 56 -21s42 7 55 21
c28 29 28 81 0 110s-82 29 -110 0z" />
    <glyph glyph-name="seveneighths" unicode="&#x215e;" horiz-adv-x="1081" 
d="M94 199l-67 129l960 497l68 -129zM438 1286h-301v148h531v-31l-342 -686h-176zM430 -258c0 81 36 141 107 182c-55 45 -82 97 -82 156c0 52 22 96 65 133s98 55 164 55s121 -18 164 -55s65 -81 65 -133c0 -59 -27 -111 -82 -156c71 -41 107 -101 107 -182
c0 -59 -23 -110 -70 -153c-47 -44 -108 -66 -184 -66c-77 0 -138 22 -185 66c-46 43 -69 94 -69 153zM614 -168c-19 -20 -28 -45 -28 -76s9 -55 28 -74s43 -28 70 -28s50 9 69 28s29 43 29 74s-10 56 -29 76c-19 19 -42 29 -69 29s-51 -10 -70 -29zM629 123
c-28 -29 -28 -81 -1 -110c14 -14 33 -21 56 -21s42 7 55 21c28 29 28 81 0 110s-82 29 -110 0z" />
    <glyph glyph-name="partialdiff" unicode="&#x2202;" horiz-adv-x="1193" 
d="M78 455c0 138 44 251 133 340s199 133 328 133c100 0 184 -27 252 -82c-12 121 -51 218 -116 290c-65 73 -139 109 -222 109c-46 0 -86 -4 -119 -13s-70 -23 -111 -42l-20 12l57 232c79 19 153 28 221 28c171 0 316 -66 413 -174c151 -165 222 -419 222 -698
c0 -400 -223 -619 -534 -619c-302 -1 -504 221 -504 484zM356 455c0 -68 22 -125 66 -170s99 -68 166 -68c66 0 121 23 165 68s66 102 66 170s-22 124 -66 169c-43 45 -98 68 -165 68s-122 -23 -166 -68s-66 -102 -66 -169z" />
    <glyph glyph-name="increment" unicode="&#x2206;" horiz-adv-x="1359" 
d="M1303 0h-1246v150l484 1284h280l482 -1284v-150zM680 1090l-318 -861h635z" />
    <glyph glyph-name="product" unicode="&#x220f;" horiz-adv-x="1294" 
d="M414 -463h-291v1897h1048v-1897h-290v1651h-467v-1651z" />
    <glyph glyph-name="summation" unicode="&#x2211;" horiz-adv-x="1232" 
d="M1161 0h-1089v102l436 656l-404 573v103h1016v-246h-561l297 -430l-350 -512h655v-246z" />
    <glyph glyph-name="minus" unicode="&#x2212;" horiz-adv-x="1011" 
d="M934 643h-856v217h856v-217z" />
    <glyph glyph-name="radical" unicode="&#x221a;" horiz-adv-x="1114" 
d="M231 569h-196v230h397l105 -412l274 1047h256l-381 -1434h-270z" />
    <glyph glyph-name="infinity" unicode="&#x221e;" horiz-adv-x="1175" 
d="M92 410c0 180 79 287 215 364c-109 89 -164 184 -164 311c0 85 29 161 87 227c58 67 135 111 231 134v143h98v-127h57v127h99v-143c95 -23 171 -67 229 -134c59 -66 88 -142 88 -227c0 -127 -55 -222 -164 -311c136 -77 215 -184 215 -364c0 -87 -34 -178 -94 -257
s-159 -143 -274 -167v-142h-99v127h-57v-127h-98v142c-76 16 -143 47 -200 93c-115 93 -169 214 -169 331zM371 440c0 -77 30 -138 90 -182v365c-60 -44 -90 -105 -90 -183zM422 1063c0 -47 13 -85 39 -113v226c-26 -30 -39 -68 -39 -113zM559 662v-443c5 -1 15 -2 29 -2
c12 0 21 1 28 2v443c-7 0 -23 2 -28 2c-7 0 -24 -2 -29 -2zM559 1227v-328c5 -1 15 -2 29 -2c12 0 21 1 28 2v328c-18 2 -39 2 -57 0zM715 623v-365c60 44 90 105 90 182c0 78 -30 139 -90 183zM715 1176v-226c26 30 39 68 39 113c0 43 -13 81 -39 113z" />
    <glyph glyph-name="integral" unicode="&#x222b;" horiz-adv-x="829" 
d="M-285 -399l37 237h25c27 -35 76 -53 117 -53c69 0 108 39 124 123l238 1214c24 119 79 211 151 263s151 77 238 77c88 0 132 -12 184 -43l-36 -237h-25c-27 35 -76 53 -117 53c-68 0 -110 -41 -125 -123l-237 -1214c-23 -117 -70 -202 -140 -257s-153 -83 -249 -83
c-88 0 -133 12 -185 43z" />
    <glyph glyph-name="approxequal" unicode="&#x2248;" horiz-adv-x="989" 
d="M111 350h-21l16 219c49 65 121 97 216 97c68 0 150 -27 205 -55c55 -27 125 -54 173 -54c67 0 127 31 179 94h20l-16 -219c-48 -64 -120 -96 -215 -96c-129 -5 -301 112 -379 108c-56 0 -115 -31 -178 -94zM111 739h-21l16 219c49 65 121 97 216 97
c129 4 293 -114 378 -109c67 0 127 31 179 94h20l-16 -219c-48 -64 -120 -96 -215 -96c-43 0 -89 9 -138 27c-49 19 -94 37 -137 55c-42 18 -77 27 -104 27c-64 0 -115 -32 -178 -95z" />
    <glyph glyph-name="notequal" unicode="&#x2260;" horiz-adv-x="1036" 
d="M225 356h-135v217h250l125 234h-375v217h490l82 152h231l-82 -152h135v-217h-250l-125 -234h375v-217h-489l-82 -151h-232z" />
    <glyph glyph-name="lessequal" unicode="&#x2264;" horiz-adv-x="1036" 
d="M946 0h-856v217h856v-217zM803 348l-653 434v185l653 434h43v-246l-451 -281l451 -280v-246h-43z" />
    <glyph glyph-name="greaterequal" unicode="&#x2265;" horiz-adv-x="1036" 
d="M946 0h-856v217h856v-217zM193 348h-43v246l450 280l-450 281v246h43l653 -434v-185z" />
    <glyph glyph-name="lozenge" unicode="&#x25ca;" horiz-adv-x="1191" 
d="M451 0l-426 717l426 717h290l426 -717l-426 -717h-290zM596 1198l-281 -481l281 -484l281 484z" />
    <glyph glyph-name="uniE000" unicode="&#xe000;" horiz-adv-x="1013" 
d="M1014 0h-1014v1014h1014v-1014z" />
    <glyph glyph-name="apple" unicode="&#xf8ff;" horiz-adv-x="1597" 
d="M193 45v1219c0 20 13 38 32 45l553 159c10 3 17 5 21 5c3 0 10 -2 20 -5l553 -159c19 -7 33 -25 33 -45v-1219c0 -24 -18 -45 -45 -45c-4 0 -9 1 -14 2l-547 158l-547 -158c-5 -1 -10 -2 -14 -2c-27 0 -45 21 -45 45zM281 948v-844l473 138v417c-99 8 -191 38 -274 89
s-150 118 -199 200zM754 1370l-471 -137c8 -128 57 -238 146 -329s198 -143 325 -154v620zM844 659v-417l473 -138v844c-51 -82 -117 -149 -200 -200s-174 -81 -273 -89zM844 1370v-620c127 11 236 63 325 154s138 201 146 329z" />
    <glyph glyph-name="zero.tn" horiz-adv-x="1331" 
d="M33 717c0 213 62 401 170 533s272 212 463 212c127 0 239 -32 335 -97c97 -65 170 -153 221 -266c51 -112 76 -239 76 -382s-25 -270 -76 -383c-51 -112 -124 -201 -221 -266c-96 -65 -208 -97 -335 -97s-239 32 -336 97s-170 154 -221 266c-51 113 -76 240 -76 383z
M410 1082c-57 -86 -86 -208 -86 -365s29 -279 86 -366c58 -87 143 -130 256 -130s198 43 255 130c58 87 87 209 87 366s-29 279 -87 365c-57 87 -142 130 -255 130s-198 -43 -256 -130z" />
    <glyph glyph-name="one.tn" horiz-adv-x="1331" 
d="M811 0h-291v1300l195 134h96v-1434z" />
    <glyph glyph-name="two.tn" horiz-adv-x="1331" 
d="M1161 0h-993v41l557 698c77 99 113 179 113 271c0 124 -83 207 -215 207c-65 0 -130 -22 -195 -65s-117 -96 -158 -159h-30l16 312c49 49 109 88 180 115c71 28 144 42 217 42c147 0 261 -38 342 -113s121 -176 121 -305c0 -79 -15 -155 -46 -228
c-30 -72 -79 -149 -148 -232l-281 -338h520v-246z" />
    <glyph glyph-name="three.tn" horiz-adv-x="1331" 
d="M670 1188h-488v246h920v-41l-328 -424c235 -44 375 -205 375 -465c0 -166 -49 -296 -147 -391s-229 -142 -394 -142c-149 0 -276 29 -383 88l-32 295h30c69 -45 132 -80 187 -103c56 -23 119 -34 188 -34c49 0 94 9 133 27c80 36 139 125 139 250c0 83 -26 151 -77 202
c-51 52 -122 78 -215 78c-49 0 -100 -5 -152 -16l-29 63z" />
    <glyph glyph-name="four.tn" horiz-adv-x="1331" 
d="M762 328h-633v143l827 963h97v-861h149v-245h-149v-328h-291v328zM762 905l-275 -332h275v332z" />
    <glyph glyph-name="five.tn" horiz-adv-x="1331" 
d="M233 31l-61 321h27c121 -90 249 -135 385 -135c183 0 295 85 295 256c0 81 -25 145 -76 191c-50 46 -118 69 -205 69c-104 0 -221 -32 -352 -96l-66 10l92 787h824v-246h-604l-43 -260c67 27 138 41 213 41c323 0 495 -177 495 -486c0 -105 -25 -196 -74 -275
c-99 -156 -269 -237 -473 -237c-57 0 -108 3 -151 8s-77 10 -102 17c-25 6 -66 18 -124 35z" />
    <glyph glyph-name="six.tn" horiz-adv-x="1331" 
d="M139 647c0 172 30 332 97 472c96 207 275 351 530 351c107 0 195 -23 266 -69l29 -273h-35c-83 65 -170 97 -260 97c-91 0 -166 -36 -227 -109c-60 -72 -96 -170 -109 -295c31 29 74 54 129 75s114 32 176 32c132 0 241 -44 326 -131c86 -87 129 -197 129 -332
c0 -90 -23 -173 -69 -249c-45 -75 -107 -135 -186 -179c-78 -44 -163 -66 -255 -66c-169 0 -323 70 -412 193c-86 119 -129 280 -129 483zM504 625c-43 -45 -64 -101 -64 -170s21 -126 64 -171s101 -67 172 -67s128 22 171 67s64 102 64 171s-21 125 -64 170
s-100 67 -171 67s-129 -22 -172 -67z" />
    <glyph glyph-name="seven.tn" horiz-adv-x="1331" 
d="M791 1188h-623v246h1034v-41l-698 -1393h-316z" />
    <glyph glyph-name="eight.tn" horiz-adv-x="1331" 
d="M170 410c0 180 79 287 215 364c-109 89 -164 184 -164 311c0 105 42 194 126 267c85 73 191 110 319 110s234 -37 318 -110s126 -162 126 -267c0 -127 -55 -222 -164 -311c136 -77 215 -184 215 -364c0 -81 -27 -166 -83 -242c-79 -110 -224 -197 -412 -197
c-152 0 -287 59 -368 144c-81 87 -128 192 -128 295zM513 601c-43 -42 -64 -96 -64 -161s21 -119 64 -161c43 -41 94 -62 153 -62s109 21 152 62c43 42 65 96 65 161s-22 119 -65 161s-93 63 -152 63s-110 -21 -153 -63zM545 1182c-30 -31 -45 -71 -45 -119s15 -88 45 -119
c31 -31 71 -47 121 -47s90 16 120 47s45 71 45 119s-15 88 -45 119s-70 47 -120 47s-90 -16 -121 -47z" />
    <glyph glyph-name="nine.tn" horiz-adv-x="1331" 
d="M139 977c0 90 23 173 68 248c46 76 108 136 186 179c79 44 164 66 256 66c85 0 163 -17 236 -50s132 -81 176 -142c86 -119 129 -280 129 -483c0 -172 -30 -332 -98 -473c-95 -206 -274 -350 -529 -351c-106 0 -195 23 -266 70l-29 272h35c93 -72 169 -96 260 -96
s166 36 226 108c61 73 97 171 110 296c-31 -29 -74 -55 -129 -76s-114 -31 -176 -31c-132 0 -241 43 -327 130c-85 87 -128 198 -128 333zM482 1157c-43 -45 -64 -101 -64 -170s21 -125 64 -170s100 -67 171 -67s128 22 171 67s65 101 65 170s-22 125 -65 170
s-100 68 -171 68s-128 -23 -171 -68z" />
    </font>
</defs>
</svg>
