<?xml version="1.0" standalone="no"?>
<!DOCTYPE svg PUBLIC "-//W3C//DTD SVG 1.1//EN" "http://www.w3.org/Graphics/SVG/1.1/DTD/svg11.dtd" >
<svg xmlns="http://www.w3.org/2000/svg" xmlns:xlink="http://www.w3.org/1999/xlink" version="1.1">
<metadata>
Created by FontForge 20200511 at Mon Feb  3 19:33:36 2014
 By convertio
Copyright (c) 2013 by The Entente (AS&#38;EH). All rights reserved.
</metadata>
<defs>
<font id="Value-Medium" horiz-adv-x="1146" >
  <font-face 
    font-family="Value"
    font-weight="500"
    font-stretch="normal"
    units-per-em="2048"
    panose-1="2 11 6 3 3 2 4 2 2 3"
    ascent="1638"
    descent="-410"
    x-height="1012"
    cap-height="1434"
    bbox="-285 -645 2220 2134"
    underline-thickness="102"
    underline-position="-204"
    unicode-range="U+000D-FB02"
  />
<missing-glyph horiz-adv-x="645" 
 />
    <glyph glyph-name="fi" unicode="fi" horiz-adv-x="1200" 
d="M203 823h-123v189h123v133c0 98 30 175 91 232s133 85 216 85c61 0 119 -14 174 -43l8 -200h-16c-40 38 -84 57 -131 57c-76 0 -125 -49 -125 -137v-127h174v-189h-174v-823h-217v823zM860 1219c-27 28 -41 61 -41 100s14 72 41 99c28 28 62 42 101 42s73 -14 100 -41
s41 -61 41 -100s-14 -73 -41 -100s-61 -41 -100 -41s-73 14 -101 41zM1069 0h-217v1012h217v-1012z" />
    <glyph glyph-name="fl" unicode="fl" horiz-adv-x="1181" 
d="M203 823h-123v189h123v133c0 98 30 175 91 232s133 85 216 85c61 0 119 -14 174 -43l8 -200h-16c-40 38 -84 57 -131 57c-76 0 -125 -49 -125 -137v-127h174v-189h-174v-823h-217v823zM1061 0h-217v1475h217v-1475z" />
    <glyph glyph-name=".notdef" horiz-adv-x="645" 
 />
    <glyph glyph-name="NULL" horiz-adv-x="0" 
 />
    <glyph glyph-name="NULL" horiz-adv-x="0" 
 />
    <glyph glyph-name="CR.001" horiz-adv-x="682" 
 />
    <glyph glyph-name="CR" unicode="&#xd;" horiz-adv-x="0" 
 />
    <glyph glyph-name="space" unicode=" " horiz-adv-x="645" 
 />
    <glyph glyph-name="exclam" unicode="!" horiz-adv-x="561" 
d="M186 22c-29 29 -43 63 -43 103s14 74 43 102c29 29 63 43 103 43s74 -14 102 -43c29 -28 43 -62 43 -102s-14 -74 -43 -103c-28 -28 -62 -42 -102 -42s-74 14 -103 42zM397 430h-217v1004h217v-1004z" />
    <glyph glyph-name="quotedbl" unicode="&#x22;" horiz-adv-x="753" 
d="M127 969l-45 465h242l-45 -465h-152zM475 969l-45 465h242l-45 -465h-152z" />
    <glyph glyph-name="numbersign" unicode="#" horiz-adv-x="1445" 
d="M307 387h-246l37 180h244l55 299h-252l39 181h246l72 387h198l-71 -387h311l72 387h198l-71 -387h245l-36 -181h-244l-55 -299h251l-38 -180h-246l-72 -387h-199l72 387h-311l-72 -387h-198zM596 866l-55 -299h309l55 299h-309z" />
    <glyph glyph-name="dollar" unicode="$" horiz-adv-x="1056" 
d="M98 121l13 280h20c106 -137 221 -212 346 -223v490l-12 6c-228 100 -354 231 -354 420c0 102 35 185 105 250s157 103 261 114v131h139v-133c108 -13 194 -47 258 -104l11 -256h-27c-79 85 -160 139 -242 161v-417c239 -104 363 -234 363 -434c0 -111 -33 -205 -100 -282
c-66 -77 -154 -125 -263 -144v-136h-139v129c-163 8 -295 68 -379 148zM328 1102c0 -79 49 -139 149 -195v359c-89 -16 -149 -79 -149 -164zM616 594v-401c79 31 125 101 125 190c0 92 -42 155 -125 211z" />
    <glyph glyph-name="percent" unicode="%" horiz-adv-x="1323" 
d="M173 908c-65 63 -97 140 -97 231s32 168 97 230s144 93 237 93s171 -31 236 -93s97 -139 97 -230s-32 -168 -97 -231c-65 -62 -143 -93 -236 -93s-172 31 -237 93zM201 412l-60 114l961 498l59 -115zM287 1266c-34 -33 -51 -75 -51 -127s17 -94 51 -127s75 -49 123 -49
s89 16 123 49s51 75 51 127s-17 94 -51 127s-75 49 -123 49s-89 -16 -123 -49zM664 64c-65 63 -97 140 -97 231s32 168 97 230s144 93 237 93s171 -31 236 -93s98 -139 98 -230s-33 -168 -98 -231c-65 -62 -143 -93 -236 -93s-172 31 -237 93zM778 422
c-34 -33 -51 -75 -51 -127s17 -94 51 -127s75 -49 123 -49s89 16 123 49s51 75 51 127s-17 94 -51 127s-75 49 -123 49s-89 -16 -123 -49z" />
    <glyph glyph-name="ampersand" unicode="&#x26;" horiz-adv-x="1298" 
d="M66 387c0 79 22 155 67 229s115 138 209 191c-85 111 -119 197 -119 301c0 113 48 209 120 266c73 57 165 88 261 88c110 0 199 -30 267 -89s102 -135 102 -228c0 -85 -25 -158 -74 -219c-49 -60 -129 -119 -242 -178l254 -314c58 80 111 178 160 293h27l57 -262
c-35 -75 -72 -139 -111 -193l224 -272h-273l-96 117c-122 -97 -255 -146 -399 -146c-123 0 -226 39 -309 117s-125 178 -125 299zM303 391c0 -63 23 -116 69 -157c47 -41 102 -62 167 -62c79 0 156 35 231 104l-299 373c-115 -65 -168 -158 -168 -258zM434 1114
c0 -68 31 -133 103 -221c89 40 149 79 182 118s49 83 49 130c0 39 -16 73 -47 102s-70 43 -117 43c-49 0 -89 -16 -122 -48c-32 -31 -48 -73 -48 -124z" />
    <glyph glyph-name="quotesingle" unicode="'" horiz-adv-x="405" 
d="M127 969l-45 465h242l-45 -465h-152z" />
    <glyph glyph-name="parenleft" unicode="(" horiz-adv-x="624" 
d="M414 1434h170c-177 -295 -265 -611 -265 -949c0 -337 88 -653 265 -948h-170c-91 122 -165 264 -224 425s-88 335 -88 523s29 363 88 524s133 303 224 425z" />
    <glyph glyph-name="parenright" unicode=")" horiz-adv-x="624" 
d="M211 -463h-170c176 293 264 609 264 948s-88 656 -264 949h170c91 -121 165 -263 223 -425c59 -161 88 -336 88 -524s-29 -362 -88 -523c-58 -161 -132 -303 -223 -425z" />
    <glyph glyph-name="asterisk" unicode="*" horiz-adv-x="811" 
d="M166 885l-76 133l4 20l250 74l-250 74l-4 20l76 133l20 4l191 -178l-64 252l17 17h151l17 -17l-64 -252l191 178l20 -4l76 -133l-4 -20l-250 -74l250 -74l4 -20l-76 -133l-20 -4l-191 178l64 -252l-17 -16h-151l-17 16l64 252l-191 -178z" />
    <glyph glyph-name="plus" unicode="+" horiz-adv-x="1024" 
d="M424 664h-330v176h330v329h176v-329h330v-176h-330v-330h-176v330z" />
    <glyph glyph-name="comma" unicode="," horiz-adv-x="454" 
d="M90 113c0 39 13 73 38 100c26 27 58 41 97 41c41 0 74 -14 100 -42c27 -27 40 -61 40 -101c0 -158 -77 -278 -232 -359l-18 47c68 49 102 100 110 181c-35 0 -67 13 -94 39s-41 57 -41 94z" />
    <glyph glyph-name="hyphen" unicode="-" horiz-adv-x="815" 
d="M733 561h-651v176h651v-176z" />
    <glyph glyph-name="period" unicode="." horiz-adv-x="454" 
d="M130 20c-27 27 -40 59 -40 97s13 70 40 97s59 40 97 40s70 -13 97 -40s41 -59 41 -97s-14 -70 -41 -97s-59 -40 -97 -40s-70 13 -97 40z" />
    <glyph glyph-name="slash" unicode="/" horiz-adv-x="1124" 
d="M276 0h-245l817 1434h246z" />
    <glyph glyph-name="zero" unicode="0" horiz-adv-x="1441" 
d="M172 334c-49 113 -74 240 -74 383c0 285 102 519 291 648c95 65 206 97 332 97s236 -32 331 -97s167 -153 216 -266c50 -112 75 -239 75 -382s-25 -270 -75 -383c-49 -112 -121 -201 -216 -266s-205 -97 -331 -97s-237 32 -332 97s-167 154 -217 266zM438 1114
c-68 -95 -102 -228 -102 -397s34 -302 102 -398c69 -95 163 -143 283 -143s214 48 282 143c69 96 103 229 103 398s-34 302 -103 397c-68 95 -162 143 -282 143s-214 -48 -283 -143z" />
    <glyph glyph-name="one" unicode="1" horiz-adv-x="503" 
d="M371 0h-238v1319l168 115h70v-1434z" />
    <glyph glyph-name="two" unicode="2" horiz-adv-x="1132" 
d="M1038 0h-970v31l559 692c47 59 81 113 102 160c21 48 31 100 31 155c0 67 -24 122 -71 164c-47 43 -103 64 -169 64c-68 0 -135 -21 -200 -63s-119 -96 -160 -161h-25l15 261c97 100 244 159 385 159c139 0 249 -37 330 -112s122 -173 122 -295
c0 -157 -67 -296 -194 -451l-326 -399h571v-205z" />
    <glyph glyph-name="three" unicode="3" horiz-adv-x="1161" 
d="M631 1229h-516v205h889v-31l-345 -447c116 -21 211 -67 286 -142s118 -188 118 -325c0 -158 -49 -284 -147 -378c-98 -93 -227 -140 -388 -140c-138 0 -262 31 -372 92l-27 254h23c116 -94 244 -141 385 -141c85 0 156 26 213 78c57 53 86 126 86 219
c0 97 -31 174 -92 231c-61 58 -140 87 -236 87c-45 0 -97 -7 -156 -21l-24 49z" />
    <glyph glyph-name="four" unicode="4" horiz-adv-x="1144" 
d="M682 340h-647v115l815 979h70v-889h153v-205h-153v-340h-238v340zM682 956l-338 -411h338v411z" />
    <glyph glyph-name="five" unicode="5" horiz-adv-x="1140" 
d="M154 41l-52 264h21c119 -86 248 -129 387 -129c93 0 170 27 231 80c62 54 93 129 93 225c0 95 -30 170 -89 223s-136 80 -229 80c-115 0 -233 -39 -354 -116l-51 8l92 758h792v-205h-614l-49 -311c80 34 160 51 241 51c150 0 269 -43 356 -130c88 -87 132 -206 132 -358
c4 -305 -240 -516 -539 -510c-73 0 -134 5 -182 16c-47 10 -109 28 -186 54z" />
    <glyph glyph-name="six" unicode="6" horiz-adv-x="1208" 
d="M90 647c-1 422 199 815 619 815c103 0 190 -22 262 -67l24 -228h-24c-95 68 -171 90 -262 90c-104 0 -190 -41 -259 -122s-109 -193 -122 -334c39 37 89 67 152 91s127 36 190 36c135 0 245 -44 330 -131s128 -201 128 -340c0 -85 -22 -165 -67 -240
c-45 -74 -106 -134 -184 -179s-163 -67 -254 -67c-161 0 -303 66 -402 191c-84 107 -131 280 -131 485zM621 176c81 0 146 26 195 79c50 53 75 119 75 200c0 80 -25 146 -75 199c-49 53 -114 79 -195 79s-148 -26 -199 -79s-76 -119 -76 -199s25 -147 76 -200
s118 -79 199 -79z" />
    <glyph glyph-name="seven" unicode="7" horiz-adv-x="1122" 
d="M766 1233h-666v201h996v-31l-705 -1403h-250z" />
    <glyph glyph-name="eight" unicode="8" 
d="M92 410c0 173 88 299 223 372c-112 79 -168 180 -168 303c0 107 40 196 121 268c81 73 182 109 305 109s224 -36 305 -109c81 -72 121 -161 121 -268c0 -123 -56 -224 -168 -303c136 -73 224 -199 224 -372c0 -201 -169 -439 -482 -439c-151 0 -280 59 -359 144
c-77 87 -122 192 -122 295zM322 432c0 -72 25 -133 75 -182s109 -74 176 -74s126 25 176 74c51 49 76 110 76 182c0 73 -25 133 -75 182c-49 49 -108 74 -177 74s-128 -25 -177 -74s-74 -109 -74 -182zM373 1075c0 -57 19 -105 57 -142c39 -37 86 -56 143 -56s104 19 143 56
s58 85 58 142c0 58 -19 106 -58 143c-38 37 -86 56 -143 56s-105 -19 -143 -56s-57 -85 -57 -143z" />
    <glyph glyph-name="nine" unicode="9" horiz-adv-x="1208" 
d="M80 977c0 87 22 167 66 241c45 75 106 134 183 178c78 44 164 66 257 66c159 0 304 -67 391 -176c94 -121 141 -287 141 -500c0 -172 -30 -330 -97 -469c-95 -205 -270 -345 -521 -346c-101 0 -189 23 -262 68l-25 227h25c95 -68 171 -90 262 -90c105 0 192 40 260 119
c69 79 109 192 121 338c-39 -37 -90 -67 -153 -91s-126 -36 -189 -36c-135 0 -245 44 -331 131c-85 87 -128 201 -128 340zM588 1257c-81 0 -146 -26 -196 -79s-75 -119 -75 -199s25 -147 75 -200s115 -79 196 -79s146 26 197 79s77 120 77 200s-25 146 -76 199
s-117 79 -198 79z" />
    <glyph glyph-name="colon" unicode=":" horiz-adv-x="454" 
d="M130 20c-27 27 -40 59 -40 97s13 70 40 97s59 40 97 40s70 -13 97 -40s41 -59 41 -97s-14 -70 -41 -97s-59 -40 -97 -40s-70 13 -97 40zM130 745c-27 27 -40 59 -40 97s13 70 40 97s59 40 97 40s70 -13 97 -40s41 -59 41 -97s-14 -70 -41 -97s-59 -40 -97 -40
s-70 13 -97 40z" />
    <glyph glyph-name="semicolon" unicode=";" horiz-adv-x="454" 
d="M90 113c0 39 13 73 38 100c26 27 58 41 97 41c41 0 74 -14 100 -42c27 -27 40 -61 40 -101c0 -158 -77 -278 -232 -359l-18 47c68 49 102 100 110 181c-35 0 -67 13 -94 39s-41 57 -41 94zM130 745c-27 27 -40 59 -40 97s13 70 40 97s59 40 97 40s70 -13 97 -40
s41 -59 41 -97s-14 -70 -41 -97s-59 -40 -97 -40s-70 13 -97 40z" />
    <glyph glyph-name="less" unicode="&#x3c;" horiz-adv-x="856" 
d="M729 193l-635 436v164l635 436h33v-205l-467 -313l467 -314v-204h-33z" />
    <glyph glyph-name="equal" unicode="=" horiz-adv-x="1024" 
d="M930 377h-836v176h836v-176zM930 827h-836v177h836v-177z" />
    <glyph glyph-name="greater" unicode="&#x3e;" horiz-adv-x="856" 
d="M127 193h-33v204l467 314l-467 313v205h33l635 -436v-164z" />
    <glyph glyph-name="question" unicode="?" horiz-adv-x="1019" 
d="M133 1108h-20l14 240c45 33 98 61 159 82s120 32 177 32c119 0 216 -30 291 -91c75 -60 112 -144 112 -251c0 -50 -8 -97 -23 -140c-29 -85 -75 -134 -128 -194l-72 -81c-44 -48 -78 -118 -78 -191v-76h-217v51c0 51 7 98 22 141c31 88 76 139 128 199l73 82
c44 49 78 119 78 191c0 51 -19 93 -56 125c-37 33 -87 49 -149 49c-60 0 -118 -17 -175 -52s-102 -73 -136 -116zM362 22c-29 29 -43 63 -43 103s14 74 43 102c29 29 63 43 103 43s74 -14 102 -43c29 -28 43 -62 43 -102s-14 -74 -43 -103c-28 -28 -62 -42 -102 -42
s-74 14 -103 42z" />
    <glyph glyph-name="at" unicode="@" horiz-adv-x="1820" 
d="M102 645c0 115 22 224 66 326c44 103 103 189 177 260c75 71 162 128 263 169s206 62 316 62c148 0 283 -33 404 -100c121 -66 217 -157 286 -274s104 -247 104 -390c0 -134 -33 -240 -98 -317s-144 -115 -238 -115c-109 0 -198 63 -237 156
c-76 -103 -166 -156 -295 -156c-95 0 -178 35 -250 106s-108 165 -108 281c0 112 36 204 109 277s160 110 261 110c93 0 187 -39 236 -98v78h164v-422c0 -124 52 -182 131 -182c39 0 74 23 103 68s44 106 44 182c0 199 -68 364 -180 468c-112 105 -264 164 -436 164
c-169 0 -327 -65 -442 -176s-187 -282 -187 -477c0 -127 28 -241 83 -342c56 -100 132 -177 227 -232c95 -54 202 -81 319 -81c134 0 259 40 376 121h27l-10 -181c-121 -69 -252 -104 -393 -104c-157 0 -299 35 -424 106c-125 70 -223 167 -293 292s-105 265 -105 421z
M662 653c0 -67 22 -124 65 -169c44 -45 97 -68 158 -68s114 23 157 68c44 45 66 102 66 169c0 70 -20 127 -61 171c-40 45 -94 67 -162 67s-122 -22 -163 -67c-40 -44 -60 -101 -60 -171z" />
    <glyph glyph-name="A" unicode="A" horiz-adv-x="1396" 
d="M266 0h-231l629 1434h69l629 -1434h-232l-114 266h-635zM698 995l-227 -524h455z" />
    <glyph glyph-name="B" unicode="B" horiz-adv-x="1228" 
d="M684 0h-551v1434h485c147 0 263 -33 347 -99c85 -66 127 -151 127 -256c0 -152 -71 -260 -213 -325c86 -25 155 -67 206 -127c52 -60 78 -134 78 -221c0 -274 -231 -406 -479 -406zM371 635v-430h297c172 0 258 80 258 215s-86 215 -258 215h-297zM371 1229v-389h256
c157 0 235 65 235 194c0 130 -78 195 -235 195h-256z" />
    <glyph glyph-name="C" unicode="C" horiz-adv-x="1349" 
d="M823 1462c171 0 289 -37 412 -114l18 -256h-28c-126 110 -260 165 -402 165c-150 0 -273 -50 -370 -151c-96 -101 -144 -230 -144 -389s48 -289 144 -390c97 -101 220 -151 370 -151c141 0 275 55 402 166h28l-18 -256c-62 -39 -125 -68 -189 -87
c-63 -19 -138 -28 -223 -28c-103 0 -200 19 -292 56s-172 88 -239 153s-121 145 -161 238c-39 93 -59 193 -59 299s20 205 59 298c40 93 94 172 161 237s147 117 239 154s189 56 292 56z" />
    <glyph glyph-name="D" unicode="D" horiz-adv-x="1292" 
d="M471 0h-338v1434h338c141 0 267 -28 380 -84s202 -139 269 -249c67 -109 101 -237 101 -384s-34 -275 -101 -385c-133 -219 -368 -332 -649 -332zM371 1229v-1024h102c298 -5 511 183 510 512c1 329 -212 517 -510 512h-102z" />
    <glyph glyph-name="E" unicode="E" horiz-adv-x="1089" 
d="M1008 0h-875v1434h866v-205h-628v-389h606v-205h-606v-430h637v-205z" />
    <glyph glyph-name="F" unicode="F" horiz-adv-x="1124" 
d="M371 0h-238v1434h891v-205h-653v-441h630v-204h-630v-584z" />
    <glyph glyph-name="G" unicode="G" horiz-adv-x="1507" 
d="M72 717c0 143 35 272 105 386c70 115 164 203 281 265c118 63 247 94 388 94c181 0 334 -44 461 -131l20 -252h-31c-137 112 -302 178 -446 178c-147 0 -280 -50 -380 -141c-99 -89 -161 -232 -161 -399c0 -164 57 -305 150 -397s223 -144 370 -144c133 0 246 42 340 127
v303h-428v205h666v-598c-188 -161 -369 -242 -588 -242c-207 0 -396 78 -531 207c-67 65 -119 144 -158 237s-58 194 -58 302z" />
    <glyph glyph-name="H" unicode="H" horiz-adv-x="1363" 
d="M371 0h-238v1434h238v-576h622v576h238v-1434h-238v653h-622v-653z" />
    <glyph glyph-name="I" unicode="I" horiz-adv-x="503" 
d="M371 0h-238v1434h238v-1434z" />
    <glyph glyph-name="J" unicode="J" horiz-adv-x="796" 
d="M111 0l-25 223h33c54 -31 108 -47 162 -47c91 0 155 66 155 203v1055h238v-1043c0 -132 -33 -235 -98 -309s-150 -111 -257 -111c-41 0 -76 2 -103 6s-62 12 -105 23z" />
    <glyph glyph-name="K" unicode="K" horiz-adv-x="1236" 
d="M371 0h-238v1434h238v-674l520 674h266l-549 -699l602 -735h-280l-559 678v-678z" />
    <glyph glyph-name="L" unicode="L" horiz-adv-x="1161" 
d="M1081 0h-948v1434h238v-1229h710v-205z" />
    <glyph glyph-name="M" unicode="M" horiz-adv-x="1814" 
d="M276 0h-231l377 1434h78l407 -959l408 959h78l376 -1434h-231l-227 852l-377 -852h-53l-377 852z" />
    <glyph glyph-name="N" unicode="N" horiz-adv-x="1415" 
d="M371 0h-238v1434h96l815 -924v924h238v-1434h-96l-815 928v-928z" />
    <glyph glyph-name="O" unicode="O" horiz-adv-x="1654" 
d="M827 1462c104 0 202 -19 295 -57c93 -37 174 -89 241 -155c136 -131 220 -322 220 -533c0 -140 -34 -267 -101 -382c-67 -114 -158 -203 -273 -268c-115 -64 -243 -96 -382 -96s-267 32 -382 96c-115 65 -206 154 -273 268c-67 115 -100 242 -100 382s33 267 100 381
c67 115 158 204 273 268s243 96 382 96zM827 176c144 0 274 51 367 142c95 92 152 234 152 399c0 110 -24 206 -71 289s-109 146 -187 188c-77 42 -164 63 -261 63s-184 -21 -262 -63c-77 -42 -139 -105 -186 -188s-70 -179 -70 -289s23 -207 70 -290
c93 -165 255 -251 448 -251z" />
    <glyph glyph-name="P" unicode="P" horiz-adv-x="1077" 
d="M371 0h-238v1434h391c159 0 285 -41 376 -123c92 -82 138 -188 138 -318s-46 -236 -138 -318c-91 -81 -217 -122 -376 -122h-153v-553zM371 1229v-471h155c173 0 275 87 275 235s-102 236 -275 236h-155z" />
    <glyph glyph-name="Q" unicode="Q" horiz-adv-x="1648" 
d="M823 1462c104 0 202 -19 295 -57c93 -37 174 -89 241 -155c136 -131 220 -322 220 -533c0 -178 -54 -334 -162 -469l201 -201l-145 -151l-209 208c-127 -89 -274 -133 -441 -133c-139 0 -267 32 -382 96c-115 65 -206 154 -273 268c-67 115 -100 242 -100 382
s33 267 100 381c67 115 158 204 273 268s243 96 382 96zM823 176c105 0 201 27 287 80l-162 164l148 149l164 -163c54 89 81 192 81 311c0 110 -23 206 -70 289s-109 146 -187 188c-77 42 -164 63 -261 63s-184 -21 -262 -63c-77 -42 -139 -105 -186 -188s-70 -179 -70 -289
s23 -207 70 -290c93 -165 255 -251 448 -251z" />
    <glyph glyph-name="R" unicode="R" horiz-adv-x="1165" 
d="M371 0h-238v1434h416c143 0 258 -36 347 -109s134 -172 134 -299c0 -94 -27 -174 -81 -240c-53 -65 -121 -113 -204 -143l388 -643h-265l-372 618h-125v-618zM371 1229v-406h168c164 0 254 68 254 203s-90 203 -254 203h-168z" />
    <glyph glyph-name="S" unicode="S" horiz-adv-x="1056" 
d="M98 121l13 280h20c108 -139 224 -225 383 -225c69 0 124 19 165 56c41 38 62 88 62 151c0 68 -22 123 -66 164c-44 42 -114 84 -210 127c-228 100 -354 231 -354 420c0 74 20 139 59 196c79 113 211 172 360 172c147 0 262 -37 344 -110l11 -256h-27
c-107 116 -217 174 -330 174c-57 0 -105 -16 -143 -47s-57 -71 -57 -121c0 -54 23 -101 70 -140s123 -81 227 -126c231 -100 354 -230 354 -430c0 -127 -43 -231 -129 -313c-85 -81 -196 -122 -332 -122c-181 0 -327 65 -420 150z" />
    <glyph glyph-name="T" unicode="T" horiz-adv-x="1101" 
d="M432 1229h-360v205h958v-205h-360v-1229h-238v1229z" />
    <glyph glyph-name="U" unicode="U" horiz-adv-x="1335" 
d="M113 553v881h237v-906c0 -127 39 -223 100 -276c63 -52 134 -76 218 -76s156 24 217 76c61 53 100 149 100 276v906h238v-881c0 -183 -50 -326 -150 -429c-100 -102 -235 -153 -405 -153s-305 51 -405 153c-100 103 -150 246 -150 429z" />
    <glyph glyph-name="V" unicode="V" horiz-adv-x="1425" 
d="M662 0l-631 1434h248l434 -1016l434 1016h248l-631 -1434h-102z" />
    <glyph glyph-name="W" unicode="W" horiz-adv-x="1986" 
d="M528 0l-483 1434h252l297 -908l346 908h107l346 -908l297 908h252l-484 -1434h-88l-377 987l-377 -987h-88z" />
    <glyph glyph-name="X" unicode="X" horiz-adv-x="1257" 
d="M295 0h-254l467 774l-393 660h250l268 -459l268 459h254l-401 -658l463 -776h-250l-336 569z" />
    <glyph glyph-name="Y" unicode="Y" horiz-adv-x="1224" 
d="M494 623l-465 811h258l325 -598l326 598h258l-465 -811v-623h-237v623z" />
    <glyph glyph-name="Z" unicode="Z" horiz-adv-x="1234" 
d="M1163 0h-1112v31l725 1198h-663v205h1020v-31l-725 -1198h755v-205z" />
    <glyph glyph-name="bracketleft" unicode="[" horiz-adv-x="595" 
d="M524 -463h-401v1897h401v-205h-184v-1487h184v-205z" />
    <glyph glyph-name="backslash" unicode="\" horiz-adv-x="1124" 
d="M848 0l-817 1434h245l818 -1434h-246z" />
    <glyph glyph-name="bracketright" unicode="]" horiz-adv-x="595" 
d="M72 -463v205h184v1487h-184v205h401v-1897h-401z" />
    <glyph glyph-name="asciicircum" unicode="^" horiz-adv-x="1069" 
d="M270 805h-198v31l389 598h147l389 -598v-31h-198l-264 399z" />
    <glyph glyph-name="underscore" unicode="_" horiz-adv-x="1048" 
d="M45 -176v176h959v-176h-959z" />
    <glyph glyph-name="grave" unicode="`" horiz-adv-x="620" 
d="M362 1153l-288 281h288l185 -281h-185z" />
    <glyph glyph-name="a" unicode="a" horiz-adv-x="1251" 
d="M68 506c0 103 24 196 71 278c95 165 260 256 447 256c143 0 263 -59 327 -139v111h217v-1012h-217v111c-88 -89 -184 -140 -335 -140c-135 0 -264 55 -357 147s-153 232 -153 388zM373 745c-59 -65 -88 -145 -88 -239s29 -174 88 -240c59 -65 136 -98 231 -98
s171 33 229 98c58 66 87 146 87 240s-29 174 -87 239c-58 66 -134 99 -229 99s-172 -33 -231 -99z" />
    <glyph glyph-name="b" unicode="b" horiz-adv-x="1263" 
d="M338 0h-217v1475h217v-586c37 43 87 79 150 108s130 43 202 43c140 0 267 -53 358 -144c92 -91 148 -230 148 -390c0 -157 -48 -285 -145 -385s-218 -150 -363 -150s-267 61 -350 146v-117zM418 746c-60 -65 -90 -145 -90 -240s30 -175 90 -240c61 -65 139 -98 235 -98
s174 33 235 98s91 145 91 240s-30 175 -91 240s-139 98 -235 98s-174 -33 -235 -98z" />
    <glyph glyph-name="c" unicode="c" horiz-adv-x="1005" 
d="M68 506c0 163 62 304 161 393c100 89 233 141 377 141c113 0 211 -29 293 -86l10 -221h-24c-46 41 -90 70 -133 86c-43 17 -92 25 -148 25c-96 0 -173 -32 -232 -97c-58 -64 -87 -144 -87 -241s29 -177 87 -242c59 -64 136 -96 232 -96c54 0 102 9 144 27
c42 19 87 49 135 92h24l-10 -226c-81 -60 -178 -90 -291 -90c-97 0 -186 21 -267 63s-146 104 -196 186c-50 83 -75 178 -75 286z" />
    <glyph glyph-name="d" unicode="d" horiz-adv-x="1263" 
d="M68 506c0 161 49 290 147 387c99 98 222 147 371 147c146 0 259 -48 340 -145v580h217v-1475h-217v117c-79 -84 -200 -146 -344 -146c-95 0 -182 22 -260 67s-140 108 -186 190c-45 82 -68 175 -68 278zM375 746c-60 -65 -90 -145 -90 -240s30 -175 90 -240
c61 -65 139 -98 235 -98s174 33 235 98s91 145 91 240s-30 175 -91 240s-139 98 -235 98s-174 -33 -235 -98z" />
    <glyph glyph-name="e" unicode="e" horiz-adv-x="1157" 
d="M68 506c0 149 58 288 149 381c92 95 223 153 363 153c103 0 192 -23 269 -69c155 -91 232 -249 232 -441v-79h-798c12 -95 50 -167 113 -215s137 -72 220 -72c137 0 249 38 369 143h23l-9 -217c-120 -79 -251 -119 -393 -119c-99 0 -190 24 -273 71
c-82 47 -147 112 -194 194s-71 172 -71 270zM289 606h581c-10 78 -42 141 -96 189c-53 49 -118 73 -194 73c-65 0 -125 -22 -181 -67c-56 -44 -93 -109 -110 -195z" />
    <glyph glyph-name="f" unicode="f" horiz-adv-x="720" 
d="M203 823h-123v189h123v133c0 98 30 175 91 232s133 85 216 85c61 0 119 -14 174 -43l8 -200h-16c-40 38 -84 57 -131 57c-76 0 -125 -49 -125 -137v-127h174v-189h-174v-823h-217v823z" />
    <glyph glyph-name="g" unicode="g" horiz-adv-x="1239" 
d="M70 520c0 157 66 296 163 383c99 87 222 137 345 137c144 0 255 -53 323 -129v101h217v-920c0 -205 -54 -359 -153 -450c-99 -92 -230 -134 -398 -134c-119 0 -226 28 -321 84l-8 218h41c43 -36 88 -62 135 -79s105 -26 174 -26c92 0 167 28 225 83c59 55 88 132 88 232
v109c-86 -86 -195 -129 -328 -129c-93 0 -178 21 -255 64c-76 43 -136 105 -181 184c-45 80 -67 171 -67 272zM372 749c-57 -63 -85 -140 -85 -229s28 -166 85 -229s135 -94 234 -94s176 31 232 94s84 140 84 229s-28 166 -84 229s-133 95 -232 95s-177 -32 -234 -95z" />
    <glyph glyph-name="h" unicode="h" horiz-adv-x="1163" 
d="M338 0h-217v1475h217v-601c37 49 88 88 152 119c65 31 131 47 198 47c111 0 199 -31 266 -93s101 -148 101 -259v-688h-217v623c0 69 -21 123 -63 162c-41 39 -95 59 -161 59c-74 0 -139 -28 -194 -85s-82 -129 -82 -218v-541z" />
    <glyph glyph-name="i" unicode="i" horiz-adv-x="479" 
d="M240 1460c39 0 72 -14 99 -41c28 -27 42 -61 42 -100s-14 -73 -42 -100c-27 -27 -60 -41 -99 -41s-73 14 -101 41c-27 28 -41 61 -41 100s14 72 41 99c28 28 62 42 101 42zM348 0h-217v1012h217v-1012z" />
    <glyph glyph-name="j" unicode="j" horiz-adv-x="483" 
d="M-76 -457l-18 189h28c33 -26 68 -39 107 -39c64 0 96 41 96 123v1196h217v-1178c0 -215 -112 -326 -291 -326c-50 0 -96 12 -139 35zM246 1460c39 0 72 -14 99 -41c28 -27 42 -61 42 -100s-14 -73 -42 -100c-27 -27 -60 -41 -99 -41s-73 14 -101 41
c-27 28 -41 61 -41 100s14 72 41 99c28 28 62 42 101 42z" />
    <glyph glyph-name="k" unicode="k" horiz-adv-x="1003" 
d="M338 0h-217v1475h217v-904l373 441h252l-406 -469l422 -543h-262l-379 492v-492z" />
    <glyph glyph-name="l" unicode="l" horiz-adv-x="458" 
d="M338 0h-217v1475h217v-1475z" />
    <glyph glyph-name="m" unicode="m" horiz-adv-x="1671" 
d="M338 0h-217v1012h217v-125c29 47 72 84 128 111c56 28 115 42 177 42c127 0 228 -55 281 -151c32 45 77 81 135 109s119 42 184 42c98 0 176 -29 233 -87c58 -58 87 -136 87 -234v-719h-217v647c0 123 -66 197 -175 197c-66 0 -119 -22 -159 -67
c-40 -44 -60 -104 -60 -179v-598h-217v653c0 120 -73 191 -178 191c-63 0 -116 -26 -157 -78c-41 -51 -62 -119 -62 -203v-563z" />
    <glyph glyph-name="n" unicode="n" 
d="M338 0h-217v1012h217v-138c35 49 83 88 145 119c63 31 128 47 197 47c107 0 194 -31 259 -92c66 -61 99 -148 99 -260v-688h-217v623c0 143 -87 221 -219 221c-74 0 -137 -28 -188 -85s-76 -129 -76 -218v-541z" />
    <glyph glyph-name="o" unicode="o" horiz-adv-x="1220" 
d="M141 231c-49 83 -73 174 -73 275s24 192 73 274s114 146 197 191c83 46 173 69 272 69s189 -23 272 -69c83 -45 149 -109 198 -191s73 -173 73 -274s-24 -192 -73 -275c-49 -82 -115 -146 -198 -192c-83 -45 -173 -68 -272 -68s-189 23 -272 68c-83 46 -148 110 -197 192
zM610 168c91 0 168 31 231 94s95 145 95 244s-32 180 -95 243s-140 95 -231 95c-90 0 -167 -32 -230 -95s-95 -144 -95 -243s32 -181 95 -244s140 -94 230 -94z" />
    <glyph glyph-name="p" unicode="p" horiz-adv-x="1263" 
d="M338 -463h-217v1475h217v-123c83 85 207 151 352 151s266 -50 362 -150c96 -99 144 -227 144 -384c0 -160 -56 -300 -148 -391c-91 -91 -218 -144 -358 -144c-148 0 -277 61 -352 146v-580zM418 746c-60 -65 -90 -145 -90 -240s30 -175 90 -240c61 -65 139 -98 235 -98
s174 33 235 98s91 145 91 240s-30 175 -91 240s-139 98 -235 98s-174 -33 -235 -98z" />
    <glyph glyph-name="q" unicode="q" horiz-adv-x="1263" 
d="M68 506c0 156 49 284 148 384s221 150 366 150c143 0 264 -58 344 -145v117h217v-1475h-217v580c-91 -97 -208 -146 -353 -146c-136 0 -262 53 -355 144c-92 91 -150 231 -150 391zM375 746c-60 -65 -90 -145 -90 -240s30 -175 90 -240c61 -65 139 -98 235 -98
s174 33 235 98s91 145 91 240s-30 175 -91 240s-139 98 -235 98s-174 -33 -235 -98z" />
    <glyph glyph-name="r" unicode="r" horiz-adv-x="839" 
d="M338 0h-217v1012h217v-123c65 96 169 151 276 151c62 0 115 -16 158 -47l14 -231h-18c-59 55 -121 82 -186 82c-63 0 -118 -22 -166 -69s-78 -134 -78 -247v-528z" />
    <glyph glyph-name="s" unicode="s" horiz-adv-x="860" 
d="M72 72l49 204h12c89 -72 183 -108 281 -108c97 0 166 42 166 113c0 42 -16 74 -48 97c-31 23 -87 48 -167 75c-177 59 -265 158 -265 297c0 83 33 152 100 207s151 83 251 83c103 0 194 -24 274 -71l8 -207h-14c-92 65 -181 98 -268 98c-83 0 -146 -37 -146 -106
c0 -36 16 -66 49 -89s88 -48 166 -75c91 -32 145 -59 198 -104s79 -109 79 -193c0 -98 -37 -176 -110 -235c-73 -58 -162 -87 -267 -87c-129 0 -245 34 -348 101z" />
    <glyph glyph-name="t" unicode="t" horiz-adv-x="788" 
d="M205 823h-180v189h180v192l217 99v-291h283v-189h-283v-538c0 -40 12 -71 36 -93c24 -21 52 -32 83 -32c59 0 114 21 166 63h18l-20 -200c-65 -35 -136 -52 -211 -52c-85 0 -154 27 -208 80c-54 54 -81 132 -81 234v538z" />
    <glyph glyph-name="u" unicode="u" 
d="M109 334v678h217v-623c0 -143 87 -221 219 -221c75 0 137 28 188 83s76 129 76 220v541h217v-1012h-217v137c-35 -49 -83 -89 -146 -120c-62 -31 -127 -46 -196 -46c-107 0 -193 32 -259 97s-99 153 -99 266z" />
    <glyph glyph-name="v" unicode="v" horiz-adv-x="1073" 
d="M514 0l-494 1012h232l285 -602l284 602h232l-494 -1012h-45z" />
    <glyph glyph-name="w" unicode="w" horiz-adv-x="1576" 
d="M471 0l-444 1012h225l252 -592l241 592h86l242 -592l252 592h225l-444 -1012h-55l-263 649l-262 -649h-55z" />
    <glyph glyph-name="x" unicode="x" horiz-adv-x="995" 
d="M285 0h-244l332 522l-307 490h241l191 -316l190 316h242l-303 -486l327 -526h-243l-215 352z" />
    <glyph glyph-name="y" unicode="y" horiz-adv-x="1050" 
d="M418 190l-398 822h232l274 -586l279 586h225l-717 -1475h-225z" />
    <glyph glyph-name="z" unicode="z" horiz-adv-x="999" 
d="M911 0h-839v31l487 784h-446v197h786v-31l-487 -784h499v-197z" />
    <glyph glyph-name="braceleft" unicode="{" horiz-adv-x="681" 
d="M109 383h-48v205h48c72 0 106 29 106 112v490c0 148 89 244 248 244h147v-205h-90c-59 0 -88 -34 -88 -103v-436c0 -109 -47 -178 -141 -205c94 -27 141 -95 141 -204v-437c0 -68 29 -102 88 -102h90v-205h-147c-159 0 -248 96 -248 244v489c0 83 -34 113 -106 113z" />
    <glyph glyph-name="bar" unicode="|" horiz-adv-x="462" 
d="M340 -463h-217v1897h217v-1897z" />
    <glyph glyph-name="braceright" unicode="}" horiz-adv-x="681" 
d="M72 -463v205h90c59 0 88 34 88 102v437c0 109 47 177 141 204c-94 27 -141 96 -141 205v436c0 69 -29 103 -88 103h-90v205h147c159 0 248 -96 248 -244v-490c0 -83 34 -112 106 -112h48v-205h-48c-72 0 -106 -30 -106 -113v-489c0 -148 -89 -244 -248 -244h-147z" />
    <glyph glyph-name="asciitilde" unicode="~" horiz-adv-x="987" 
d="M111 559h-17l15 184c55 61 123 91 204 91c35 0 72 -6 109 -18c38 -12 70 -25 97 -40c53 -28 125 -57 177 -57c61 0 122 31 181 92h16l-14 -184c-54 -60 -122 -90 -205 -90c-134 -5 -288 119 -383 114c-61 0 -121 -31 -180 -92z" />
    <glyph glyph-name="uni00A0" unicode="&#xa0;" horiz-adv-x="645" 
 />
    <glyph glyph-name="exclamdown" unicode="&#xa1;" horiz-adv-x="561" 
d="M186 784c-29 29 -43 63 -43 103s14 74 43 102c29 29 63 43 103 43s74 -14 102 -43c29 -28 43 -62 43 -102s-14 -74 -43 -103c-28 -29 -62 -43 -102 -43s-74 14 -103 43zM397 -422h-217v1004h217v-1004z" />
    <glyph glyph-name="cent" unicode="&#xa2;" horiz-adv-x="995" 
d="M530 1034v256h140v-254c83 -7 159 -35 229 -82l10 -221h-24c-69 61 -141 97 -215 107v-668c68 11 139 49 213 115h24l-10 -226c-65 -48 -140 -77 -227 -86v-254h-140v256c-128 16 -242 73 -326 161c-84 89 -136 220 -136 368s52 278 136 366c84 89 198 146 326 162z
M530 174v662c-76 -16 -136 -54 -180 -115c-43 -60 -65 -132 -65 -215s22 -156 65 -217c44 -61 104 -99 180 -115z" />
    <glyph glyph-name="sterling" unicode="&#xa3;" horiz-adv-x="1089" 
d="M125 676h-135v176h149l4 39c15 180 71 320 167 420c97 101 217 151 362 151c109 0 205 -25 289 -76l28 -245l-31 -6c-103 81 -197 122 -284 122c-167 0 -278 -114 -301 -362l-4 -43h350v-176h-367l-41 -471h707v-205h-950z" />
    <glyph glyph-name="currency" unicode="&#xa4;" horiz-adv-x="1208" 
d="M231 227l-116 117l129 127c-55 75 -82 157 -82 246s27 171 82 246l-129 127l116 116l131 -133c76 47 157 70 242 70s166 -23 242 -70l131 133l117 -116l-129 -127c55 -75 82 -157 82 -246s-27 -171 -82 -246l129 -127l-117 -117l-131 133c-75 -46 -155 -69 -242 -69
c-90 0 -171 23 -242 69zM428 897c-48 -46 -72 -106 -72 -180s24 -134 72 -181c48 -46 107 -69 176 -69s128 23 176 69c48 47 72 107 72 181s-24 134 -72 180c-48 47 -107 70 -176 70s-128 -23 -176 -70z" />
    <glyph glyph-name="yen" unicode="&#xa5;" horiz-adv-x="1228" 
d="M395 805l-366 629h260l325 -578l326 578h260l-369 -629h201v-176h-299v-125h299v-176h-299v-328h-237v328h-299v176h299v125h-299v176h198z" />
    <glyph glyph-name="brokenbar" unicode="&#xa6;" horiz-adv-x="462" 
d="M123 -463v819h217v-819h-217zM340 614h-217v820h217v-820z" />
    <glyph glyph-name="section" unicode="&#xa7;" horiz-adv-x="1028" 
d="M72 547c0 105 57 200 170 284c-85 75 -127 163 -127 265c0 107 40 195 121 263c81 69 179 103 296 103c151 0 274 -51 342 -112l11 -250h-23c-107 119 -220 178 -338 178c-59 0 -107 -16 -144 -47s-56 -73 -56 -125c0 -49 21 -93 64 -132c43 -38 120 -85 233 -140
c231 -113 342 -239 342 -410c0 -106 -57 -201 -170 -285c85 -75 127 -163 127 -264c0 -107 -41 -195 -122 -264s-179 -103 -296 -103c-151 0 -273 52 -342 113l-10 250h22c107 -119 220 -178 338 -178c59 0 107 16 144 47c38 31 57 73 57 125c0 49 -21 93 -64 132
c-43 38 -120 85 -233 140c-231 113 -342 239 -342 410zM289 557c0 -53 21 -99 64 -138s113 -84 210 -134l86 -45c64 49 96 107 96 174c0 53 -21 99 -64 138s-113 84 -210 134c-12 5 -29 14 -51 26c-21 12 -33 18 -35 19c-64 -49 -96 -107 -96 -174z" />
    <glyph glyph-name="dieresis" unicode="&#xa8;" horiz-adv-x="759" 
d="M98 1194c-25 25 -37 56 -37 92s12 66 37 91s56 38 92 38s66 -13 91 -38s38 -55 38 -91s-13 -67 -38 -92s-55 -37 -91 -37s-67 12 -92 37zM477 1194c-25 25 -37 56 -37 92s12 66 37 91s56 38 92 38s66 -13 91 -38s38 -55 38 -91s-13 -67 -38 -92s-55 -37 -91 -37
s-67 12 -92 37z" />
    <glyph glyph-name="copyright" unicode="&#xa9;" horiz-adv-x="1646" 
d="M70 717c0 102 19 199 56 290c75 183 205 319 393 396c95 39 196 59 304 59s209 -20 303 -59c95 -39 175 -92 240 -159c66 -67 118 -146 155 -237s56 -188 56 -290s-19 -199 -56 -290s-89 -171 -155 -238c-65 -67 -145 -120 -240 -159c-94 -39 -195 -59 -303 -59
c-144 0 -274 33 -390 100c-115 67 -205 158 -268 271s-95 238 -95 375zM229 717c0 -167 60 -321 163 -432c103 -109 256 -179 431 -179s328 70 431 179c103 111 163 265 163 432c0 112 -25 214 -74 306c-49 93 -119 166 -210 221s-194 83 -310 83s-220 -28 -311 -83
s-161 -128 -210 -221c-49 -92 -73 -194 -73 -306zM848 1102c79 0 150 -21 211 -62l6 -159h-16c-67 59 -124 80 -203 80c-69 0 -124 -23 -167 -70c-42 -47 -63 -105 -63 -174s21 -127 63 -174c43 -47 98 -70 167 -70c77 0 132 25 201 86h18l-8 -162
c-56 -43 -126 -65 -209 -65c-107 0 -199 35 -274 105c-75 71 -113 164 -113 280s38 209 113 279c75 71 167 106 274 106z" />
    <glyph glyph-name="ordfeminine" unicode="&#xaa;" horiz-adv-x="878" 
d="M418 1448c99 0 185 -42 229 -98v77h154v-710h-154v78c-63 -66 -142 -99 -235 -99c-98 0 -182 35 -253 106s-106 162 -106 271s36 199 107 269c71 71 157 106 258 106zM207 1073c0 -66 21 -122 62 -168s95 -69 161 -69c67 0 120 23 160 68c41 46 61 102 61 169
c0 66 -20 122 -61 168c-41 47 -94 70 -160 70s-120 -23 -161 -70s-62 -103 -62 -168z" />
    <glyph glyph-name="guillemotleft" unicode="&#xab;" horiz-adv-x="1091" 
d="M541 244l-475 407v119l475 408h32v-209l-301 -258l301 -258v-209h-32zM977 244l-475 407v119l475 408h33v-209l-301 -258l301 -258v-209h-33z" />
    <glyph glyph-name="logicalnot" unicode="&#xac;" horiz-adv-x="970" 
d="M647 618h-541v189h758v-461h-217v272z" />
    <glyph glyph-name="uni00AD" unicode="&#xad;" horiz-adv-x="815" 
d="M733 561h-651v176h651v-176z" />
    <glyph glyph-name="registered" unicode="&#xae;" horiz-adv-x="1646" 
d="M70 717c0 102 19 199 56 290c75 183 205 319 393 396c95 39 196 59 304 59s209 -20 303 -59c95 -39 175 -92 240 -159c66 -67 118 -146 155 -237s56 -188 56 -290s-19 -199 -56 -290s-89 -171 -155 -238c-65 -67 -145 -120 -240 -159c-94 -39 -195 -59 -303 -59
c-144 0 -274 33 -390 100c-115 67 -205 158 -268 271s-95 238 -95 375zM229 717c0 -167 60 -321 163 -432c103 -109 256 -179 431 -179s328 70 431 179c103 111 163 265 163 432c0 112 -25 214 -74 306c-49 93 -119 166 -210 221s-194 83 -310 83s-220 -28 -311 -83
s-161 -128 -210 -221c-49 -92 -73 -194 -73 -306zM723 352h-148v762h259c78 0 140 -20 186 -60c47 -40 70 -94 70 -163c0 -95 -52 -166 -156 -211l209 -328h-160l-201 316h-59v-316zM723 993v-205h94c76 0 123 35 123 103s-47 102 -123 102h-94z" />
    <glyph glyph-name="overscore" unicode="&#xaf;" horiz-adv-x="614" 
d="M553 1188h-492v162h492v-162z" />
    <glyph glyph-name="degree" unicode="&#xb0;" horiz-adv-x="620" 
d="M132 1035c-49 48 -73 107 -73 177s24 129 73 177c49 49 109 73 181 73s132 -24 181 -73c49 -48 73 -107 73 -177s-24 -129 -73 -177s-109 -72 -181 -72s-132 24 -181 72zM205 1321c-26 -28 -39 -64 -39 -109s13 -81 39 -109c27 -28 63 -42 108 -42s81 14 108 42
s40 64 40 109s-13 81 -40 109c-27 29 -63 43 -108 43s-81 -14 -108 -43z" />
    <glyph glyph-name="plusminus" unicode="&#xb1;" horiz-adv-x="1024" 
d="M930 0h-836v176h836v-176zM424 664h-330v176h330v329h176v-329h330v-176h-330v-330h-176v330z" />
    <glyph glyph-name="twosuperior" unicode="&#xb2;" horiz-adv-x="587" 
d="M545 717h-516v24l276 336c44 54 66 105 66 152c0 57 -45 98 -113 98c-65 0 -125 -48 -166 -113h-33l9 152c57 55 127 82 211 82c149 0 239 -84 239 -209c0 -73 -37 -154 -112 -242l-132 -155h271v-125z" />
    <glyph glyph-name="threesuperior" unicode="&#xb3;" horiz-adv-x="598" 
d="M299 1309h-244v125h469v-19l-170 -217c117 -21 199 -101 199 -229c0 -85 -27 -150 -80 -197s-119 -70 -199 -70c-81 0 -148 17 -202 50l-15 149h21c63 -49 125 -74 186 -74c85 0 139 47 139 136c0 83 -58 133 -139 133c-29 0 -55 -4 -78 -11l-22 43z" />
    <glyph glyph-name="acute" unicode="&#xb4;" horiz-adv-x="620" 
d="M258 1153h-184l184 281h289z" />
    <glyph glyph-name="mu" unicode="&#xb5;" 
d="M326 -463h-217v1475h217v-623c0 -143 87 -221 219 -221c75 0 137 28 188 83s76 129 76 220v541h217v-1012h-217v137c-35 -49 -83 -89 -146 -120c-62 -31 -127 -46 -196 -46c-49 0 -96 8 -141 25v-459z" />
    <glyph glyph-name="paragraph" unicode="&#xb6;" horiz-adv-x="1275" 
d="M49 1073c0 106 38 193 114 260s179 101 308 101h682v-1897h-217v1708h-215v-1708h-217v1176h-33c-129 0 -232 34 -308 101c-76 68 -114 154 -114 259z" />
    <glyph glyph-name="middot" unicode="&#xb7;" horiz-adv-x="432" 
d="M130 634c-27 27 -40 59 -40 97s13 70 40 97s59 40 97 40s70 -13 97 -40s41 -59 41 -97s-14 -70 -41 -97s-59 -40 -97 -40s-70 13 -97 40z" />
    <glyph glyph-name="cedilla" unicode="&#xb8;" horiz-adv-x="692" 
d="M137 -463l-22 129l20 6c52 -31 103 -47 154 -47c59 0 106 32 106 88s-45 90 -100 90c-36 0 -95 -12 -123 -24l-14 16l129 303l131 -45l-123 -174c38 11 74 17 108 17c108 0 175 -72 175 -179c0 -64 -24 -115 -71 -152c-47 -38 -111 -57 -190 -57c-69 0 -129 10 -180 29z
" />
    <glyph glyph-name="onesuperior" unicode="&#xb9;" horiz-adv-x="266" 
d="M205 717h-144v649l97 68h47v-717z" />
    <glyph glyph-name="ordmasculine" unicode="&#xba;" horiz-adv-x="870" 
d="M53 1073c0 107 37 197 111 268s164 107 270 107c107 0 197 -36 271 -107c75 -71 112 -161 112 -268c0 -108 -37 -198 -112 -270c-74 -71 -164 -107 -271 -107c-106 0 -196 36 -270 107c-74 72 -111 162 -111 270zM207 1073c0 -70 22 -127 66 -171s98 -66 161 -66
c64 0 118 22 163 66s67 101 67 171c0 69 -22 126 -67 171s-99 67 -163 67c-63 0 -116 -22 -161 -67c-44 -45 -66 -102 -66 -171z" />
    <glyph glyph-name="guillemotright" unicode="&#xbb;" horiz-adv-x="1091" 
d="M115 244h-33v209l301 258l-301 258v209h33l475 -408v-119zM551 244h-33v209l301 258l-301 258v209h33l475 -408v-119z" />
    <glyph glyph-name="onequarter" unicode="&#xbc;" horiz-adv-x="1073" 
d="M86 207l-59 115l960 497l60 -114zM410 717h-144v649l96 68h48v-717zM307 -311v94l391 471h78v-440h96v-125h-96v-152h-143v152h-326zM633 2l-156 -188h156v188z" />
    <glyph glyph-name="onehalf" unicode="&#xbd;" horiz-adv-x="1073" 
d="M86 207l-59 115l960 497l60 -114zM410 717h-144v649l96 68h48v-717zM408 -463v25l276 336c44 54 66 104 66 151c0 57 -45 98 -113 98c-65 0 -125 -47 -166 -112h-33l8 151c57 55 127 82 211 82c149 0 240 -84 240 -209c0 -76 -33 -148 -113 -241l-131 -156h271v-125h-516
z" />
    <glyph glyph-name="threequarters" unicode="&#xbe;" horiz-adv-x="1073" 
d="M86 207l-59 115l960 497l60 -114zM299 1309h-244v125h469v-19l-170 -217c117 -21 199 -101 199 -229c0 -85 -27 -150 -80 -197s-119 -70 -199 -70c-81 0 -148 17 -202 50l-15 149h21c63 -49 125 -74 186 -74c85 0 139 47 139 136c0 83 -58 133 -139 133
c-29 0 -55 -4 -78 -11l-22 43zM307 -311v94l391 471h78v-440h96v-125h-96v-152h-143v152h-326zM633 2l-156 -188h156v188z" />
    <glyph glyph-name="questiondown" unicode="&#xbf;" horiz-adv-x="905" 
d="M90 -109c0 50 7 96 22 139c31 87 76 136 128 195l73 81c44 49 78 119 78 192v75h217v-51c0 -51 -8 -98 -23 -142c-29 -87 -75 -138 -128 -198l-72 -82c-44 -48 -78 -118 -78 -190c0 -51 19 -93 56 -125c37 -33 87 -49 149 -49c60 0 118 17 175 52s102 73 136 116h21
l-15 -240c-45 -33 -98 -61 -159 -82c-60 -22 -119 -33 -176 -33c-119 0 -217 30 -292 91c-75 60 -112 144 -112 251zM389 784c-29 29 -43 63 -43 103s14 74 43 102c29 29 63 43 103 43s74 -14 102 -43c29 -28 43 -62 43 -102s-14 -74 -43 -103c-28 -29 -62 -43 -102 -43
s-74 14 -103 43z" />
    <glyph glyph-name="Agrave" unicode="&#xc0;" horiz-adv-x="1396" 
d="M266 0h-231l629 1434h69l629 -1434h-232l-114 266h-635zM592 1575l-289 280h289l184 -280h-184zM698 995l-227 -524h455z" />
    <glyph glyph-name="Aacute" unicode="&#xc1;" horiz-adv-x="1396" 
d="M266 0h-231l629 1434h69l629 -1434h-232l-114 266h-635zM698 995l-227 -524h455zM807 1575h-184l184 280h289z" />
    <glyph glyph-name="Acircumflex" unicode="&#xc2;" horiz-adv-x="1396" 
d="M266 0h-231l629 1434h69l629 -1434h-232l-114 266h-635zM539 1575h-164l192 280h262l193 -280h-164l-160 151zM698 995l-227 -524h455z" />
    <glyph glyph-name="Atilde" unicode="&#xc3;" horiz-adv-x="1396" 
d="M266 0h-231l629 1434h69l629 -1434h-232l-114 266h-635zM354 1585h-16l14 170c56 60 124 90 205 90c68 0 134 -28 171 -56c39 -28 92 -56 140 -56c56 0 115 33 176 98h17l-14 -170c-56 -60 -124 -90 -205 -90c-68 0 -134 28 -173 56c-37 28 -91 56 -139 56
c-56 0 -115 -33 -176 -98zM698 995l-227 -524h455z" />
    <glyph glyph-name="Adieresis" unicode="&#xc4;" horiz-adv-x="1396" 
d="M266 0h-231l629 1434h69l629 -1434h-232l-114 266h-635zM418 1616c-25 25 -37 56 -37 92s12 66 37 91s56 38 92 38s66 -13 91 -38s38 -55 38 -91s-13 -67 -38 -92s-55 -37 -91 -37s-67 12 -92 37zM698 995l-227 -524h455zM797 1616c-25 25 -37 56 -37 92s12 66 37 91
s56 38 92 38s66 -13 91 -38s38 -55 38 -91s-13 -67 -38 -92s-55 -37 -91 -37s-67 12 -92 37z" />
    <glyph glyph-name="Aring" unicode="&#xc5;" horiz-adv-x="1396" 
d="M266 0h-231l602 1372c-89 27 -150 106 -150 199c0 58 20 107 61 147s91 60 150 60s109 -20 150 -60s61 -89 61 -147c0 -93 -60 -172 -149 -199l602 -1372h-232l-114 266h-635zM698 995l-227 -524h455zM613 1655c-22 -23 -33 -51 -33 -84s11 -61 33 -84s50 -35 85 -35
s63 12 85 35c23 23 34 51 34 84s-11 61 -34 84c-22 23 -50 35 -85 35s-63 -12 -85 -35z" />
    <glyph glyph-name="AE" unicode="&#xc6;" horiz-adv-x="2033" 
d="M266 0h-231l629 1434h698l92 -205h-629l170 -389h582l86 -205h-578l189 -430h637l88 -205h-869l-114 266h-635zM698 995l-227 -524h453z" />
    <glyph glyph-name="Ccedilla" unicode="&#xc7;" horiz-adv-x="1349" 
d="M72 717c0 106 20 205 59 298c40 93 94 172 161 237s147 117 239 154s189 56 292 56c171 0 289 -37 412 -114l18 -256h-28c-126 110 -260 165 -402 165c-150 0 -273 -50 -370 -151c-96 -101 -144 -230 -144 -389s48 -289 144 -390c97 -101 220 -151 370 -151
c141 0 275 55 402 166h28l-18 -256c-61 -39 -124 -67 -188 -86c-63 -19 -137 -29 -222 -29l-65 -92c38 11 74 17 108 17c108 0 174 -71 174 -179c0 -64 -24 -115 -71 -152c-47 -38 -110 -57 -189 -57c-69 0 -129 10 -180 29l-22 129l20 6c52 -31 103 -47 154 -47
c59 0 106 32 106 88s-45 90 -100 90c-36 0 -95 -12 -123 -24l-14 16l77 187c-119 17 -225 59 -320 125c-95 67 -170 153 -225 259c-55 107 -83 224 -83 351z" />
    <glyph glyph-name="Egrave" unicode="&#xc8;" horiz-adv-x="1089" 
d="M1008 0h-875v1434h866v-205h-628v-389h606v-205h-606v-430h637v-205zM582 1575l-289 280h289l184 -280h-184z" />
    <glyph glyph-name="Eacute" unicode="&#xc9;" horiz-adv-x="1089" 
d="M1008 0h-875v1434h866v-205h-628v-389h606v-205h-606v-430h637v-205zM575 1575h-184l184 280h289z" />
    <glyph glyph-name="Ecircumflex" unicode="&#xca;" horiz-adv-x="1089" 
d="M1008 0h-875v1434h866v-205h-628v-389h606v-205h-606v-430h637v-205zM424 1575h-164l193 280h262l192 -280h-164l-159 151z" />
    <glyph glyph-name="Edieresis" unicode="&#xcb;" horiz-adv-x="1089" 
d="M1008 0h-875v1434h866v-205h-628v-389h606v-205h-606v-430h637v-205zM311 1616c-25 25 -37 56 -37 92s12 66 37 91s56 38 92 38s66 -13 91 -38s38 -55 38 -91s-13 -67 -38 -92s-55 -37 -91 -37s-67 12 -92 37zM690 1616c-25 25 -37 56 -37 92s12 66 37 91s56 38 92 38
s66 -13 91 -38s38 -55 38 -91s-13 -67 -38 -92s-55 -37 -91 -37s-67 12 -92 37z" />
    <glyph glyph-name="Igrave" unicode="&#xcc;" horiz-adv-x="503" 
d="M213 1575l-289 280h289l184 -280h-184zM371 0h-238v1434h238v-1434z" />
    <glyph glyph-name="Iacute" unicode="&#xcd;" horiz-adv-x="503" 
d="M283 1575h-185l185 280h288zM371 0h-238v1434h238v-1434z" />
    <glyph glyph-name="Icircumflex" unicode="&#xce;" horiz-adv-x="503" 
d="M92 1575h-164l193 280h262l192 -280h-163l-160 151zM371 0h-238v1434h238v-1434z" />
    <glyph glyph-name="Idieresis" unicode="&#xcf;" horiz-adv-x="503" 
d="M-28 1616c-25 25 -38 56 -38 92s13 66 38 91s55 38 91 38s67 -13 92 -38s38 -55 38 -91s-13 -67 -38 -92s-56 -37 -92 -37s-66 12 -91 37zM371 0h-238v1434h238v-1434zM350 1616c-25 25 -37 56 -37 92s12 66 37 91s56 38 92 38s66 -13 91 -38s38 -55 38 -91
s-13 -67 -38 -92s-55 -37 -91 -37s-67 12 -92 37z" />
    <glyph glyph-name="Eth" unicode="&#xd0;" horiz-adv-x="1320" 
d="M162 627h-154v176h154v631h338c211 0 397 -68 532 -189c135 -120 217 -308 217 -528s-82 -408 -217 -529c-135 -120 -321 -188 -532 -188h-338v627zM399 627v-422h103c298 -5 511 183 510 512c1 329 -212 517 -510 512h-103v-426h277v-176h-277z" />
    <glyph glyph-name="Ntilde" unicode="&#xd1;" horiz-adv-x="1415" 
d="M371 0h-238v1434h96l815 -924v924h238v-1434h-96l-815 928v-928zM362 1585h-16l14 170c56 60 124 90 205 90c68 0 135 -28 172 -56c39 -28 92 -56 140 -56c56 0 115 33 176 98h16l-14 -170c-56 -60 -124 -90 -205 -90c-68 0 -133 28 -172 56c-37 28 -91 56 -139 56
c-57 0 -116 -33 -177 -98z" />
    <glyph glyph-name="Ograve" unicode="&#xd2;" horiz-adv-x="1654" 
d="M827 1462c104 0 202 -19 295 -57c93 -37 174 -89 241 -155c136 -131 220 -322 220 -533c0 -140 -34 -267 -101 -382c-67 -114 -158 -203 -273 -268c-115 -64 -243 -96 -382 -96s-267 32 -382 96c-115 65 -206 154 -273 268c-67 115 -100 242 -100 382s33 267 100 381
c67 115 158 204 273 268s243 96 382 96zM827 176c144 0 274 51 367 142c95 92 152 234 152 399c0 110 -24 206 -71 289s-109 146 -187 188c-77 42 -164 63 -261 63s-184 -21 -262 -63c-77 -42 -139 -105 -186 -188s-70 -179 -70 -289s23 -207 70 -290
c93 -165 255 -251 448 -251zM788 1575l-288 280h288l185 -280h-185z" />
    <glyph glyph-name="Oacute" unicode="&#xd3;" horiz-adv-x="1654" 
d="M827 1462c104 0 202 -19 295 -57c93 -37 174 -89 241 -155c136 -131 220 -322 220 -533c0 -140 -34 -267 -101 -382c-67 -114 -158 -203 -273 -268c-115 -64 -243 -96 -382 -96s-267 32 -382 96c-115 65 -206 154 -273 268c-67 115 -100 242 -100 382s33 267 100 381
c67 115 158 204 273 268s243 96 382 96zM827 176c144 0 274 51 367 142c95 92 152 234 152 399c0 110 -24 206 -71 289s-109 146 -187 188c-77 42 -164 63 -261 63s-184 -21 -262 -63c-77 -42 -139 -105 -186 -188s-70 -179 -70 -289s23 -207 70 -290
c93 -165 255 -251 448 -251zM868 1575h-184l184 280h289z" />
    <glyph glyph-name="Ocircumflex" unicode="&#xd4;" horiz-adv-x="1654" 
d="M827 1462c104 0 202 -19 295 -57c93 -37 174 -89 241 -155c136 -131 220 -322 220 -533c0 -140 -34 -267 -101 -382c-67 -114 -158 -203 -273 -268c-115 -64 -243 -96 -382 -96s-267 32 -382 96c-115 65 -206 154 -273 268c-67 115 -100 242 -100 382s33 267 100 381
c67 115 158 204 273 268s243 96 382 96zM827 176c144 0 274 51 367 142c95 92 152 234 152 399c0 110 -24 206 -71 289s-109 146 -187 188c-77 42 -164 63 -261 63s-184 -21 -262 -63c-77 -42 -139 -105 -186 -188s-70 -179 -70 -289s23 -207 70 -290
c93 -165 255 -251 448 -251zM668 1575h-164l192 280h262l193 -280h-164l-160 151z" />
    <glyph glyph-name="Otilde" unicode="&#xd5;" horiz-adv-x="1654" 
d="M827 1462c104 0 202 -19 295 -57c93 -37 174 -89 241 -155c136 -131 220 -322 220 -533c0 -140 -34 -267 -101 -382c-67 -114 -158 -203 -273 -268c-115 -64 -243 -96 -382 -96s-267 32 -382 96c-115 65 -206 154 -273 268c-67 115 -100 242 -100 382s33 267 100 381
c67 115 158 204 273 268s243 96 382 96zM827 176c144 0 274 51 367 142c95 92 152 234 152 399c0 110 -24 206 -71 289s-109 146 -187 188c-77 42 -164 63 -261 63s-184 -21 -262 -63c-77 -42 -139 -105 -186 -188s-70 -179 -70 -289s23 -207 70 -290
c93 -165 255 -251 448 -251zM483 1585h-16l14 170c56 60 124 90 205 90c68 0 134 -28 171 -56c39 -28 92 -56 140 -56c57 0 116 33 177 98h16l-14 -170c-56 -60 -124 -90 -205 -90c-68 0 -134 28 -173 56c-37 28 -91 56 -139 56c-56 0 -115 -33 -176 -98z" />
    <glyph glyph-name="Odieresis" unicode="&#xd6;" horiz-adv-x="1654" 
d="M827 1462c104 0 202 -19 295 -57c93 -37 174 -89 241 -155c136 -131 220 -322 220 -533c0 -140 -34 -267 -101 -382c-67 -114 -158 -203 -273 -268c-115 -64 -243 -96 -382 -96s-267 32 -382 96c-115 65 -206 154 -273 268c-67 115 -100 242 -100 382s33 267 100 381
c67 115 158 204 273 268s243 96 382 96zM827 176c144 0 274 51 367 142c95 92 152 234 152 399c0 110 -24 206 -71 289s-109 146 -187 188c-77 42 -164 63 -261 63s-184 -21 -262 -63c-77 -42 -139 -105 -186 -188s-70 -179 -70 -289s23 -207 70 -290
c93 -165 255 -251 448 -251zM547 1616c-25 25 -37 56 -37 92s12 66 37 91s56 38 92 38s66 -13 91 -38s38 -55 38 -91s-13 -67 -38 -92s-55 -37 -91 -37s-67 12 -92 37zM926 1616c-25 25 -37 56 -37 92s12 66 37 91s56 38 92 38s66 -13 91 -38s38 -55 38 -91s-13 -67 -38 -92
s-55 -37 -91 -37s-67 12 -92 37z" />
    <glyph glyph-name="multiply" unicode="&#xd7;" horiz-adv-x="905" 
d="M219 393l-125 125l234 234l-234 233l125 125l234 -233l233 233l125 -125l-233 -233l233 -234l-125 -125l-233 234z" />
    <glyph glyph-name="Oslash" unicode="&#xd8;" horiz-adv-x="1654" 
d="M72 717c0 140 33 267 100 381c67 115 158 204 273 268s243 96 382 96c98 0 190 -16 277 -47l61 109l187 -103l-62 -108c91 -68 163 -154 215 -257s78 -216 78 -339c0 -140 -34 -267 -101 -382c-67 -114 -158 -203 -273 -268c-115 -64 -243 -96 -382 -96
c-97 0 -189 16 -276 47l-62 -108l-186 102l62 109c-91 68 -163 154 -215 257s-78 216 -78 339zM309 717c0 -172 54 -309 162 -410l528 926c-53 16 -110 24 -172 24c-97 0 -184 -21 -262 -63c-77 -42 -139 -105 -186 -188s-70 -179 -70 -289zM1184 1126l-529 -925
c55 -17 113 -25 172 -25c144 0 274 51 367 142c95 92 152 234 152 399c0 171 -54 308 -162 409z" />
    <glyph glyph-name="Ugrave" unicode="&#xd9;" horiz-adv-x="1335" 
d="M113 553v881h237v-906c0 -127 39 -223 100 -276c63 -52 134 -76 218 -76s156 24 217 76c61 53 100 149 100 276v906h238v-881c0 -183 -50 -326 -150 -429c-100 -102 -235 -153 -405 -153s-305 51 -405 153c-100 103 -150 246 -150 429zM680 1575l-289 280h289l184 -280
h-184z" />
    <glyph glyph-name="Uacute" unicode="&#xda;" horiz-adv-x="1335" 
d="M113 553v881h237v-906c0 -127 39 -223 100 -276c63 -52 134 -76 218 -76s156 24 217 76c61 53 100 149 100 276v906h238v-881c0 -183 -50 -326 -150 -429c-100 -102 -235 -153 -405 -153s-305 51 -405 153c-100 103 -150 246 -150 429zM657 1575h-184l184 280h289z" />
    <glyph glyph-name="Ucircumflex" unicode="&#xdb;" horiz-adv-x="1335" 
d="M113 553v881h237v-906c0 -127 39 -223 100 -276c63 -52 134 -76 218 -76s156 24 217 76c61 53 100 149 100 276v906h238v-881c0 -183 -50 -326 -150 -429c-100 -102 -235 -153 -405 -153s-305 51 -405 153c-100 103 -150 246 -150 429zM508 1575h-164l193 280h262
l192 -280h-164l-159 151z" />
    <glyph glyph-name="Udieresis" unicode="&#xdc;" horiz-adv-x="1335" 
d="M113 553v881h237v-906c0 -127 39 -223 100 -276c63 -52 134 -76 218 -76s156 24 217 76c61 53 100 149 100 276v906h238v-881c0 -183 -50 -326 -150 -429c-100 -102 -235 -153 -405 -153s-305 51 -405 153c-100 103 -150 246 -150 429zM387 1616c-25 25 -37 56 -37 92
s12 66 37 91s56 38 92 38s66 -13 91 -38s38 -55 38 -91s-13 -67 -38 -92s-55 -37 -91 -37s-67 12 -92 37zM766 1616c-25 25 -37 56 -37 92s12 66 37 91s56 38 92 38s66 -13 91 -38s38 -55 38 -91s-13 -67 -38 -92s-55 -37 -91 -37s-67 12 -92 37z" />
    <glyph glyph-name="Yacute" unicode="&#xdd;" horiz-adv-x="1224" 
d="M494 623l-465 811h258l325 -598l326 598h258l-465 -811v-623h-237v623zM602 1575h-184l184 280h289z" />
    <glyph glyph-name="Thorn" unicode="&#xde;" horiz-adv-x="1067" 
d="M360 0h-237v1434h237v-277h154c159 0 285 -41 376 -123c92 -81 138 -187 138 -317s-46 -236 -138 -318c-91 -82 -217 -123 -376 -123h-154v-276zM360 952v-471h156c173 0 275 88 275 236s-102 235 -275 235h-156z" />
    <glyph glyph-name="germandbls" unicode="&#xdf;" horiz-adv-x="1220" 
d="M195 823h-125v189h125v55c0 123 50 229 126 293c76 65 173 102 273 102c117 0 210 -33 281 -99c71 -65 106 -148 106 -247c0 -149 -84 -261 -215 -321c108 -28 196 -72 269 -140c73 -67 116 -165 116 -282c0 -121 -36 -219 -108 -292c-71 -73 -162 -110 -271 -110
c-112 0 -209 33 -291 99l49 206h13c64 -68 135 -102 213 -102c52 0 95 18 128 53s50 83 50 142c0 78 -38 145 -113 200c-75 56 -174 90 -297 103v192c149 19 240 103 240 240c0 47 -17 88 -50 121c-33 34 -75 51 -128 51c-103 0 -174 -74 -174 -209v-1067h-217v823z" />
    <glyph glyph-name="agrave" unicode="&#xe0;" horiz-adv-x="1251" 
d="M68 506c0 103 24 196 71 278c95 165 260 256 447 256c143 0 263 -59 327 -139v111h217v-1012h-217v111c-88 -89 -184 -140 -335 -140c-135 0 -264 55 -357 147s-153 232 -153 388zM373 745c-59 -65 -88 -145 -88 -239s29 -174 88 -240c59 -65 136 -98 231 -98
s171 33 229 98c58 66 87 146 87 240s-29 174 -87 239c-58 66 -134 99 -229 99s-172 -33 -231 -99zM616 1153l-288 281h288l185 -281h-185z" />
    <glyph glyph-name="aacute" unicode="&#xe1;" horiz-adv-x="1251" 
d="M68 506c0 103 24 196 71 278c95 165 260 256 447 256c143 0 263 -59 327 -139v111h217v-1012h-217v111c-88 -89 -184 -140 -335 -140c-135 0 -264 55 -357 147s-153 232 -153 388zM373 745c-59 -65 -88 -145 -88 -239s29 -174 88 -240c59 -65 136 -98 231 -98
s171 33 229 98c58 66 87 146 87 240s-29 174 -87 239c-58 66 -134 99 -229 99s-172 -33 -231 -99zM594 1153h-184l184 281h289z" />
    <glyph glyph-name="acircumflex" unicode="&#xe2;" horiz-adv-x="1251" 
d="M68 506c0 103 24 196 71 278c95 165 260 256 447 256c143 0 263 -59 327 -139v111h217v-1012h-217v111c-88 -89 -184 -140 -335 -140c-135 0 -264 55 -357 147s-153 232 -153 388zM444 1153h-163l192 281h262l193 -281h-164l-160 152zM373 745c-59 -65 -88 -145 -88 -239
s29 -174 88 -240c59 -65 136 -98 231 -98s171 33 229 98c58 66 87 146 87 240s-29 174 -87 239c-58 66 -134 99 -229 99s-172 -33 -231 -99z" />
    <glyph glyph-name="atilde" unicode="&#xe3;" horiz-adv-x="1251" 
d="M68 506c0 103 24 196 71 278c95 165 260 256 447 256c143 0 263 -59 327 -139v111h217v-1012h-217v111c-88 -89 -184 -140 -335 -140c-135 0 -264 55 -357 147s-153 232 -153 388zM276 1163h-16l14 170c56 60 124 90 205 90c68 0 135 -28 172 -56c39 -28 92 -56 140 -56
c56 0 115 33 176 98h16l-14 -170c-56 -60 -124 -90 -205 -90c-68 0 -133 28 -172 56c-37 29 -91 57 -139 57c-56 0 -115 -33 -177 -99zM373 745c-59 -65 -88 -145 -88 -239s29 -174 88 -240c59 -65 136 -98 231 -98s171 33 229 98c58 66 87 146 87 240s-29 174 -87 239
c-58 66 -134 99 -229 99s-172 -33 -231 -99z" />
    <glyph glyph-name="adieresis" unicode="&#xe4;" horiz-adv-x="1251" 
d="M68 506c0 103 24 196 71 278c95 165 260 256 447 256c143 0 263 -59 327 -139v111h217v-1012h-217v111c-88 -89 -184 -140 -335 -140c-135 0 -264 55 -357 147s-153 232 -153 388zM373 745c-59 -65 -88 -145 -88 -239s29 -174 88 -240c59 -65 136 -98 231 -98
s171 33 229 98c58 66 87 146 87 240s-29 174 -87 239c-58 66 -134 99 -229 99s-172 -33 -231 -99zM324 1194c-25 25 -37 56 -37 92s12 66 37 91s56 38 92 38s66 -13 91 -38s38 -55 38 -91s-13 -67 -38 -92s-55 -37 -91 -37s-67 12 -92 37zM703 1194c-25 25 -37 56 -37 92
s12 66 37 91s56 38 92 38s66 -13 91 -38s38 -55 38 -91s-13 -67 -38 -92s-55 -37 -91 -37s-67 12 -92 37z" />
    <glyph glyph-name="aring" unicode="&#xe5;" horiz-adv-x="1251" 
d="M68 506c0 103 24 196 71 278c95 165 260 256 447 256c143 0 263 -59 327 -139v111h217v-1012h-217v111c-88 -89 -184 -140 -335 -140c-135 0 -264 55 -357 147s-153 232 -153 388zM373 745c-59 -65 -88 -145 -88 -239s29 -174 88 -240c59 -65 136 -98 231 -98
s171 33 229 98c58 66 87 146 87 240s-29 174 -87 239c-58 66 -134 99 -229 99s-172 -33 -231 -99zM454 1174c-41 40 -61 89 -61 147s20 107 61 147s91 60 150 60s109 -20 150 -60s61 -89 61 -147s-20 -107 -61 -147s-91 -60 -150 -60s-109 20 -150 60zM518 1405
c-22 -23 -33 -51 -33 -84s11 -61 33 -84c23 -23 51 -35 86 -35s63 12 85 35c23 23 34 51 34 84s-11 61 -34 84c-22 23 -50 35 -85 35s-63 -12 -86 -35z" />
    <glyph glyph-name="ae" unicode="&#xe6;" horiz-adv-x="1773" 
d="M68 262c0 243 221 344 528 344h86c-2 84 -24 148 -65 192s-92 66 -152 66c-107 0 -200 -42 -279 -125h-32l18 203c40 27 90 50 149 69c60 19 120 29 179 29c135 0 250 -57 329 -157c93 99 226 157 367 157c103 0 192 -23 269 -69c155 -91 233 -249 233 -441v-79h-799
c12 -95 50 -167 113 -215c64 -48 138 -72 221 -72c137 0 249 38 369 143h22l-8 -217c-120 -79 -251 -119 -393 -119c-177 0 -335 80 -435 213c-93 -147 -236 -213 -393 -213c-93 0 -171 28 -234 83c-62 56 -93 125 -93 208zM285 279c0 -76 61 -127 145 -127
c69 0 128 26 177 79c50 53 75 126 75 220c-267 0 -397 -52 -397 -172zM905 606h582c-10 78 -42 141 -96 189c-54 49 -119 73 -195 73c-65 0 -125 -22 -181 -67c-56 -44 -93 -109 -110 -195z" />
    <glyph glyph-name="ccedilla" unicode="&#xe7;" horiz-adv-x="995" 
d="M68 506c0 163 62 304 161 393c100 89 233 141 377 141c113 0 211 -29 293 -86l10 -221h-24c-46 41 -90 70 -133 86c-43 17 -92 25 -148 25c-96 0 -173 -32 -232 -97c-58 -64 -87 -144 -87 -241s29 -177 87 -242c59 -64 136 -96 232 -96c54 0 102 9 144 27
c42 19 87 49 135 92h24l-10 -226c-78 -58 -173 -88 -285 -90l-65 -92c38 11 74 17 108 17c108 0 174 -71 174 -179c0 -64 -24 -115 -71 -152c-47 -38 -110 -57 -189 -57c-69 0 -129 10 -180 29l-22 129l20 6c52 -31 103 -47 154 -47c59 0 106 32 106 88s-45 90 -100 90
c-36 0 -95 -12 -123 -24l-14 16l79 189c-123 23 -224 81 -303 173c-79 93 -118 209 -118 349z" />
    <glyph glyph-name="egrave" unicode="&#xe8;" 
d="M68 506c0 149 58 288 149 381c92 95 223 153 363 153c103 0 192 -23 269 -69c155 -91 232 -249 232 -441v-79h-798c12 -95 50 -167 113 -215s137 -72 220 -72c137 0 249 38 369 143h23l-9 -217c-120 -79 -251 -119 -393 -119c-99 0 -190 24 -273 71
c-82 47 -147 112 -194 194s-71 172 -71 270zM565 1153l-289 281h289l185 -281h-185zM289 606h581c-10 78 -42 141 -96 189c-53 49 -118 73 -194 73c-65 0 -125 -22 -181 -67c-56 -44 -93 -109 -110 -195z" />
    <glyph glyph-name="eacute" unicode="&#xe9;" 
d="M68 506c0 149 58 288 149 381c92 95 223 153 363 153c103 0 192 -23 269 -69c155 -91 232 -249 232 -441v-79h-798c12 -95 50 -167 113 -215s137 -72 220 -72c137 0 249 38 369 143h23l-9 -217c-120 -79 -251 -119 -393 -119c-99 0 -190 24 -273 71
c-82 47 -147 112 -194 194s-71 172 -71 270zM289 606h581c-10 78 -42 141 -96 189c-53 49 -118 73 -194 73c-65 0 -125 -22 -181 -67c-56 -44 -93 -109 -110 -195zM584 1153h-185l185 281h288z" />
    <glyph glyph-name="ecircumflex" unicode="&#xea;" 
d="M68 506c0 149 58 288 149 381c92 95 223 153 363 153c103 0 192 -23 269 -69c155 -91 232 -249 232 -441v-79h-798c12 -95 50 -167 113 -215s137 -72 220 -72c137 0 249 38 369 143h23l-9 -217c-120 -79 -251 -119 -393 -119c-99 0 -190 24 -273 71
c-82 47 -147 112 -194 194s-71 172 -71 270zM414 1153h-164l192 281h263l192 -281h-164l-160 152zM289 606h581c-10 78 -42 141 -96 189c-53 49 -118 73 -194 73c-65 0 -125 -22 -181 -67c-56 -44 -93 -109 -110 -195z" />
    <glyph glyph-name="edieresis" unicode="&#xeb;" 
d="M68 506c0 149 58 288 149 381c92 95 223 153 363 153c103 0 192 -23 269 -69c155 -91 232 -249 232 -441v-79h-798c12 -95 50 -167 113 -215s137 -72 220 -72c137 0 249 38 369 143h23l-9 -217c-120 -79 -251 -119 -393 -119c-99 0 -190 24 -273 71
c-82 47 -147 112 -194 194s-71 172 -71 270zM293 1194c-25 25 -37 56 -37 92s12 66 37 91s56 38 92 38s66 -13 91 -38s38 -55 38 -91s-13 -67 -38 -92s-55 -37 -91 -37s-67 12 -92 37zM289 606h581c-10 78 -42 141 -96 189c-53 49 -118 73 -194 73c-65 0 -125 -22 -181 -67
c-56 -44 -93 -109 -110 -195zM672 1194c-25 25 -37 56 -37 92s12 66 37 91s56 38 92 38s66 -13 91 -38s38 -55 38 -91s-13 -67 -38 -92s-55 -37 -91 -37s-67 12 -92 37z" />
    <glyph glyph-name="igrave" unicode="&#xec;" horiz-adv-x="479" 
d="M215 1153l-289 281h289l184 -281h-184zM348 0h-217v1012h217v-1012z" />
    <glyph glyph-name="iacute" unicode="&#xed;" horiz-adv-x="479" 
d="M250 1153h-184l184 281h289zM348 0h-217v1012h217v-1012z" />
    <glyph glyph-name="icircumflex" unicode="&#xee;" horiz-adv-x="479" 
d="M80 1153h-164l193 281h262l192 -281h-164l-159 152zM348 0h-217v1012h217v-1012z" />
    <glyph glyph-name="idieresis" unicode="&#xef;" horiz-adv-x="479" 
d="M-40 1194c-25 25 -38 56 -38 92s13 66 38 91s55 38 91 38s66 -13 91 -38s38 -55 38 -91s-13 -67 -38 -92s-55 -37 -91 -37s-66 12 -91 37zM348 0h-217v1012h217v-1012zM338 1194c-25 25 -37 56 -37 92s12 66 37 91s56 38 92 38s66 -13 91 -38s38 -55 38 -91
s-13 -67 -38 -92s-55 -37 -91 -37s-67 12 -92 37z" />
    <glyph glyph-name="eth" unicode="&#xf0;" horiz-adv-x="1169" 
d="M72 455c0 91 21 173 64 246s99 129 170 168s148 59 231 59c117 0 213 -38 288 -113c-29 121 -87 226 -174 315l-305 -124l-37 94l258 106c-68 51 -147 96 -237 135v33l196 88c97 -45 183 -101 258 -166l185 76l37 -94l-142 -59c153 -170 230 -380 230 -629
c0 -190 -49 -341 -146 -452s-225 -167 -383 -167c-142 0 -260 47 -353 141c-93 95 -140 209 -140 343zM309 455c0 -79 24 -146 73 -199s112 -80 189 -80s141 27 192 80c51 54 77 120 77 199s-25 144 -76 196s-115 78 -193 78c-77 0 -140 -26 -189 -78s-73 -117 -73 -196z
" />
    <glyph glyph-name="ntilde" unicode="&#xf1;" 
d="M338 0h-217v1012h217v-138c35 49 83 88 145 119c63 31 128 47 197 47c107 0 194 -31 259 -92c66 -61 99 -148 99 -260v-688h-217v623c0 143 -87 221 -219 221c-74 0 -137 -28 -188 -85s-76 -129 -76 -218v-541zM258 1163h-16l14 170c56 60 124 90 205 90
c68 0 134 -28 171 -56c39 -28 92 -56 140 -56c56 0 115 33 176 98h17l-15 -170c-56 -60 -124 -90 -205 -90c-68 0 -133 28 -172 56c-37 29 -91 57 -139 57c-55 0 -114 -33 -176 -99z" />
    <glyph glyph-name="ograve" unicode="&#xf2;" horiz-adv-x="1220" 
d="M141 231c-49 83 -73 174 -73 275s24 192 73 274s114 146 197 191c83 46 173 69 272 69s189 -23 272 -69c83 -45 149 -109 198 -191s73 -173 73 -274s-24 -192 -73 -275c-49 -82 -115 -146 -198 -192c-83 -45 -173 -68 -272 -68s-189 23 -272 68c-83 46 -148 110 -197 192
zM610 168c91 0 168 31 231 94s95 145 95 244s-32 180 -95 243s-140 95 -231 95c-90 0 -167 -32 -230 -95s-95 -144 -95 -243s32 -181 95 -244s140 -94 230 -94zM602 1153l-289 281h289l184 -281h-184z" />
    <glyph glyph-name="oacute" unicode="&#xf3;" horiz-adv-x="1220" 
d="M141 231c-49 83 -73 174 -73 275s24 192 73 274s114 146 197 191c83 46 173 69 272 69s189 -23 272 -69c83 -45 149 -109 198 -191s73 -173 73 -274s-24 -192 -73 -275c-49 -82 -115 -146 -198 -192c-83 -45 -173 -68 -272 -68s-189 23 -272 68c-83 46 -148 110 -197 192
zM610 168c91 0 168 31 231 94s95 145 95 244s-32 180 -95 243s-140 95 -231 95c-90 0 -167 -32 -230 -95s-95 -144 -95 -243s32 -181 95 -244s140 -94 230 -94zM621 1153h-185l185 281h288z" />
    <glyph glyph-name="ocircumflex" unicode="&#xf4;" horiz-adv-x="1220" 
d="M141 231c-49 83 -73 174 -73 275s24 192 73 274s114 146 197 191c83 46 173 69 272 69s189 -23 272 -69c83 -45 149 -109 198 -191s73 -173 73 -274s-24 -192 -73 -275c-49 -82 -115 -146 -198 -192c-83 -45 -173 -68 -272 -68s-189 23 -272 68c-83 46 -148 110 -197 192
zM610 168c91 0 168 31 231 94s95 145 95 244s-32 180 -95 243s-140 95 -231 95c-90 0 -167 -32 -230 -95s-95 -144 -95 -243s32 -181 95 -244s140 -94 230 -94zM451 1153h-164l192 281h262l193 -281h-164l-160 152z" />
    <glyph glyph-name="otilde" unicode="&#xf5;" horiz-adv-x="1220" 
d="M141 231c-49 83 -73 174 -73 275s24 192 73 274s114 146 197 191c83 46 173 69 272 69s189 -23 272 -69c83 -45 149 -109 198 -191s73 -173 73 -274s-24 -192 -73 -275c-49 -82 -115 -146 -198 -192c-83 -45 -173 -68 -272 -68s-189 23 -272 68c-83 46 -148 110 -197 192
zM266 1163h-16l14 170c56 60 124 90 205 90c68 0 134 -28 171 -56c39 -28 92 -56 140 -56c56 0 115 33 176 98h17l-15 -170c-56 -60 -124 -90 -204 -90c-68 0 -134 28 -173 56c-37 29 -91 57 -139 57c-55 0 -114 -33 -176 -99zM610 168c91 0 168 31 231 94s95 145 95 244
s-32 180 -95 243s-140 95 -231 95c-90 0 -167 -32 -230 -95s-95 -144 -95 -243s32 -181 95 -244s140 -94 230 -94z" />
    <glyph glyph-name="odieresis" unicode="&#xf6;" horiz-adv-x="1220" 
d="M141 231c-49 83 -73 174 -73 275s24 192 73 274s114 146 197 191c83 46 173 69 272 69s189 -23 272 -69c83 -45 149 -109 198 -191s73 -173 73 -274s-24 -192 -73 -275c-49 -82 -115 -146 -198 -192c-83 -45 -173 -68 -272 -68s-189 23 -272 68c-83 46 -148 110 -197 192
zM610 168c91 0 168 31 231 94s95 145 95 244s-32 180 -95 243s-140 95 -231 95c-90 0 -167 -32 -230 -95s-95 -144 -95 -243s32 -181 95 -244s140 -94 230 -94zM330 1194c-25 25 -37 56 -37 92s12 66 37 91s56 38 92 38s66 -13 91 -38s38 -55 38 -91s-13 -67 -38 -92
s-55 -37 -91 -37s-67 12 -92 37zM709 1194c-25 25 -37 56 -37 92s12 66 37 91s56 38 92 38s66 -13 91 -38s38 -55 38 -91s-13 -67 -38 -92s-55 -37 -91 -37s-67 12 -92 37z" />
    <glyph glyph-name="divide" unicode="&#xf7;" horiz-adv-x="1024" 
d="M930 594h-836v176h836v-176zM415 224c-27 27 -40 60 -40 98s13 70 40 97s59 40 97 40s70 -13 97 -40s40 -59 40 -97s-13 -71 -40 -98s-59 -40 -97 -40s-70 13 -97 40zM415 949c-27 27 -40 60 -40 98s13 70 40 97s59 40 97 40s70 -13 97 -40s40 -59 40 -97
s-13 -71 -40 -98s-59 -40 -97 -40s-70 13 -97 40z" />
    <glyph glyph-name="oslash" unicode="&#xf8;" horiz-adv-x="1220" 
d="M68 506c0 101 24 192 73 274s114 146 197 191c83 46 173 69 272 69c57 0 115 -9 174 -26l47 86l177 -96l-47 -84c121 -96 192 -245 192 -414c0 -101 -24 -192 -73 -275c-49 -82 -115 -146 -198 -192c-83 -45 -173 -68 -272 -68c-54 0 -112 9 -174 27l-47 -86l-176 96
l47 84c-121 96 -192 245 -192 414zM285 506c0 -90 27 -167 82 -230l315 560c-21 5 -45 8 -72 8c-90 0 -167 -32 -230 -95s-95 -144 -95 -243zM854 735l-315 -559c21 -5 44 -8 71 -8c91 0 168 31 231 94s95 145 95 244c0 89 -27 166 -82 229z" />
    <glyph glyph-name="ugrave" unicode="&#xf9;" 
d="M109 334v678h217v-623c0 -143 87 -221 219 -221c75 0 137 28 188 83s76 129 76 220v541h217v-1012h-217v137c-35 -49 -83 -89 -146 -120c-62 -31 -127 -46 -196 -46c-107 0 -193 32 -259 97s-99 153 -99 266zM545 1153l-289 281h289l184 -281h-184z" />
    <glyph glyph-name="uacute" unicode="&#xfa;" 
d="M109 334v678h217v-623c0 -143 87 -221 219 -221c75 0 137 28 188 83s76 129 76 220v541h217v-1012h-217v137c-35 -49 -83 -89 -146 -120c-62 -31 -127 -46 -196 -46c-107 0 -193 32 -259 97s-99 153 -99 266zM584 1153h-185l185 281h288z" />
    <glyph glyph-name="ucircumflex" unicode="&#xfb;" 
d="M109 334v678h217v-623c0 -143 87 -221 219 -221c75 0 137 28 188 83s76 129 76 220v541h217v-1012h-217v137c-35 -49 -83 -89 -146 -120c-62 -31 -127 -46 -196 -46c-107 0 -193 32 -259 97s-99 153 -99 266zM412 1153h-164l192 281h262l193 -281h-164l-160 152z" />
    <glyph glyph-name="udieresis" unicode="&#xfc;" 
d="M109 334v678h217v-623c0 -143 87 -221 219 -221c75 0 137 28 188 83s76 129 76 220v541h217v-1012h-217v137c-35 -49 -83 -89 -146 -120c-62 -31 -127 -46 -196 -46c-107 0 -193 32 -259 97s-99 153 -99 266zM291 1194c-25 25 -37 56 -37 92s12 66 37 91s56 38 92 38
s66 -13 91 -38s38 -55 38 -91s-13 -67 -38 -92s-55 -37 -91 -37s-67 12 -92 37zM670 1194c-25 25 -37 56 -37 92s12 66 37 91s56 38 92 38s66 -13 91 -38s38 -55 38 -91s-13 -67 -38 -92s-55 -37 -91 -37s-67 12 -92 37z" />
    <glyph glyph-name="yacute" unicode="&#xfd;" horiz-adv-x="1050" 
d="M418 190l-398 822h232l274 -586l279 586h225l-717 -1475h-225zM535 1153h-185l185 281h288z" />
    <glyph glyph-name="thorn" unicode="&#xfe;" horiz-adv-x="1243" 
d="M328 -463h-217v1897h217v-545c83 85 207 151 352 151s266 -50 362 -150c96 -99 144 -227 144 -384c0 -160 -56 -300 -148 -391c-91 -91 -218 -144 -358 -144c-148 0 -277 61 -352 146v-580zM408 746c-61 -65 -91 -145 -91 -240s30 -175 91 -240s139 -98 235 -98
s174 33 235 98s91 145 91 240s-30 175 -91 240s-139 98 -235 98s-174 -33 -235 -98z" />
    <glyph glyph-name="ydieresis" unicode="&#xff;" horiz-adv-x="1050" 
d="M418 190l-398 822h232l274 -586l279 586h225l-717 -1475h-225zM246 1194c-25 25 -37 56 -37 92s12 66 37 91s56 38 92 38s66 -13 91 -38s38 -55 38 -91s-13 -67 -38 -92s-55 -37 -91 -37s-67 12 -92 37zM625 1194c-25 25 -37 56 -37 92s12 66 37 91s56 38 92 38
s66 -13 91 -38s38 -55 38 -91s-13 -67 -38 -92s-55 -37 -91 -37s-67 12 -92 37z" />
    <glyph glyph-name="Amacron" unicode="&#x100;" horiz-adv-x="1396" 
d="M266 0h-231l629 1434h69l629 -1434h-232l-114 266h-635zM944 1610h-491v162h491v-162zM698 995l-227 -524h455z" />
    <glyph glyph-name="amacron" unicode="&#x101;" horiz-adv-x="1251" 
d="M68 506c0 103 24 196 71 278c95 165 260 256 447 256c143 0 263 -59 327 -139v111h217v-1012h-217v111c-88 -89 -184 -140 -335 -140c-135 0 -264 55 -357 147s-153 232 -153 388zM373 745c-59 -65 -88 -145 -88 -239s29 -174 88 -240c59 -65 136 -98 231 -98
s171 33 229 98c58 66 87 146 87 240s-29 174 -87 239c-58 66 -134 99 -229 99s-172 -33 -231 -99zM870 1188h-491v162h491v-162z" />
    <glyph glyph-name="Abreve" unicode="&#x102;" horiz-adv-x="1396" 
d="M266 0h-231l629 1434h69l629 -1434h-232l-114 266h-635zM457 1774h151c0 -63 34 -103 90 -103s90 40 90 103h152c0 -70 -22 -128 -67 -173s-103 -67 -175 -67s-130 22 -175 67c-44 45 -66 103 -66 173zM698 995l-227 -524h455z" />
    <glyph glyph-name="abreve" unicode="&#x103;" horiz-adv-x="1251" 
d="M68 506c0 103 24 196 71 278c95 165 260 256 447 256c143 0 263 -59 327 -139v111h217v-1012h-217v111c-88 -89 -184 -140 -335 -140c-135 0 -264 55 -357 147s-153 232 -153 388zM373 745c-59 -65 -88 -145 -88 -239s29 -174 88 -240c59 -65 136 -98 231 -98
s171 33 229 98c58 66 87 146 87 240s-29 174 -87 239c-58 66 -134 99 -229 99s-172 -33 -231 -99zM383 1393h152c0 -63 34 -103 90 -103s90 40 90 103h151c0 -70 -22 -128 -67 -173c-44 -45 -102 -67 -174 -67s-130 22 -175 67s-67 103 -67 173z" />
    <glyph glyph-name="Aogonek" unicode="&#x104;" horiz-adv-x="1396" 
d="M266 0h-231l629 1434h69l629 -1434c-91 -84 -137 -163 -137 -238c0 -79 56 -131 137 -131c53 0 99 15 139 45l19 -6l-19 -129c-49 -22 -107 -33 -176 -33c-81 0 -146 21 -194 64s-72 98 -72 166c0 105 61 201 162 262h-91l-114 266h-635zM698 995l-227 -524h455z" />
    <glyph glyph-name="aogonek" unicode="&#x105;" horiz-adv-x="1251" 
d="M68 506c0 103 24 196 71 278c95 165 260 256 447 256c143 0 263 -59 327 -139v111h217v-1012c-91 -84 -137 -163 -137 -238c0 -79 56 -131 137 -131c53 0 100 15 140 45l18 -6l-18 -129c-49 -22 -107 -33 -176 -33c-81 0 -146 21 -195 64c-48 43 -72 98 -72 166
c0 105 61 201 162 262h-76v111c-88 -89 -184 -140 -335 -140c-135 0 -264 55 -357 147s-153 232 -153 388zM373 745c-59 -65 -88 -145 -88 -239s29 -174 88 -240c59 -65 136 -98 231 -98s171 33 229 98c58 66 87 146 87 240s-29 174 -87 239c-58 66 -134 99 -229 99
s-172 -33 -231 -99z" />
    <glyph glyph-name="Cacute" unicode="&#x106;" horiz-adv-x="1349" 
d="M823 1462c171 0 289 -37 412 -114l18 -256h-28c-126 110 -260 165 -402 165c-150 0 -273 -50 -370 -151c-96 -101 -144 -230 -144 -389s48 -289 144 -390c97 -101 220 -151 370 -151c141 0 275 55 402 166h28l-18 -256c-62 -39 -125 -68 -189 -87
c-63 -19 -138 -28 -223 -28c-103 0 -200 19 -292 56s-172 88 -239 153s-121 145 -161 238c-39 93 -59 193 -59 299s20 205 59 298c40 93 94 172 161 237s147 117 239 154s189 56 292 56zM827 1575h-184l184 280h289z" />
    <glyph glyph-name="cacute" unicode="&#x107;" horiz-adv-x="1005" 
d="M68 506c0 163 62 304 161 393c100 89 233 141 377 141c113 0 211 -29 293 -86l10 -221h-24c-46 41 -90 70 -133 86c-43 17 -92 25 -148 25c-96 0 -173 -32 -232 -97c-58 -64 -87 -144 -87 -241s29 -177 87 -242c59 -64 136 -96 232 -96c54 0 102 9 144 27
c42 19 87 49 135 92h24l-10 -226c-81 -60 -178 -90 -291 -90c-97 0 -186 21 -267 63s-146 104 -196 186c-50 83 -75 178 -75 286zM594 1153h-184l184 281h289z" />
    <glyph glyph-name="Ccircumflex" unicode="&#x108;" horiz-adv-x="1349" 
d="M823 1462c171 0 289 -37 412 -114l18 -256h-28c-126 110 -260 165 -402 165c-150 0 -273 -50 -370 -151c-96 -101 -144 -230 -144 -389s48 -289 144 -390c97 -101 220 -151 370 -151c141 0 275 55 402 166h28l-18 -256c-62 -39 -125 -68 -189 -87
c-63 -19 -138 -28 -223 -28c-103 0 -200 19 -292 56s-172 88 -239 153s-121 145 -161 238c-39 93 -59 193 -59 299s20 205 59 298c40 93 94 172 161 237s147 117 239 154s189 56 292 56zM637 1575h-164l193 280h262l192 -280h-164l-159 151z" />
    <glyph glyph-name="ccircumflex" unicode="&#x109;" horiz-adv-x="1009" 
d="M68 506c0 163 62 304 161 393c100 89 233 141 377 141c113 0 211 -29 293 -86l10 -221h-24c-46 41 -90 70 -133 86c-43 17 -92 25 -148 25c-96 0 -173 -32 -232 -97c-58 -64 -87 -144 -87 -241s29 -177 87 -242c59 -64 136 -96 232 -96c54 0 102 9 144 27
c42 19 87 49 135 92h24l-10 -226c-81 -60 -178 -90 -291 -90c-97 0 -186 21 -267 63s-146 104 -196 186c-50 83 -75 178 -75 286zM430 1153h-164l193 281h262l192 -281h-163l-160 152z" />
    <glyph glyph-name="Cdotaccent" unicode="&#x10a;" horiz-adv-x="1349" 
d="M823 1462c171 0 289 -37 412 -114l18 -256h-28c-126 110 -260 165 -402 165c-150 0 -273 -50 -370 -151c-96 -101 -144 -230 -144 -389s48 -289 144 -390c97 -101 220 -151 370 -151c141 0 275 55 402 166h28l-18 -256c-62 -39 -125 -68 -189 -87
c-63 -19 -138 -28 -223 -28c-103 0 -200 19 -292 56s-172 88 -239 153s-121 145 -161 238c-39 93 -59 193 -59 299s20 205 59 298c40 93 94 172 161 237s147 117 239 154s189 56 292 56zM655 1741c0 39 14 72 41 99c28 28 62 42 101 42s73 -14 100 -41s41 -61 41 -100
s-14 -73 -42 -101c-27 -27 -60 -41 -99 -41s-73 14 -101 41c-27 28 -41 62 -41 101z" />
    <glyph glyph-name="cdotaccent" unicode="&#x10b;" horiz-adv-x="1005" 
d="M68 506c0 163 62 304 161 393c100 89 233 141 377 141c113 0 211 -29 293 -86l10 -221h-24c-46 41 -90 70 -133 86c-43 17 -92 25 -148 25c-96 0 -173 -32 -232 -97c-58 -64 -87 -144 -87 -241s29 -177 87 -242c59 -64 136 -96 232 -96c54 0 102 9 144 27
c42 19 87 49 135 92h24l-10 -226c-81 -60 -178 -90 -291 -90c-97 0 -186 21 -267 63s-146 104 -196 186c-50 83 -75 178 -75 286zM584 1460c39 0 72 -14 99 -41c28 -27 42 -61 42 -100s-14 -73 -42 -100c-27 -27 -60 -41 -99 -41s-73 14 -101 41c-27 28 -41 61 -41 100
s14 72 41 99c28 28 62 42 101 42z" />
    <glyph glyph-name="Ccaron" unicode="&#x10c;" horiz-adv-x="1349" 
d="M823 1462c171 0 289 -37 412 -114l18 -256h-28c-126 110 -260 165 -402 165c-150 0 -273 -50 -370 -151c-96 -101 -144 -230 -144 -389s48 -289 144 -390c97 -101 220 -151 370 -151c141 0 275 55 402 166h28l-18 -256c-62 -39 -125 -68 -189 -87
c-63 -19 -138 -28 -223 -28c-103 0 -200 19 -292 56s-172 88 -239 153s-121 145 -161 238c-39 93 -59 193 -59 299s20 205 59 298c40 93 94 172 161 237s147 117 239 154s189 56 292 56zM666 1575l-193 280h164l160 -151l159 151h164l-192 -280h-262z" />
    <glyph glyph-name="ccaron" unicode="&#x10d;" horiz-adv-x="1017" 
d="M68 506c0 163 62 304 161 393c100 89 233 141 377 141c113 0 211 -29 293 -86l10 -221h-24c-46 41 -90 70 -133 86c-43 17 -92 25 -148 25c-96 0 -173 -32 -232 -97c-58 -64 -87 -144 -87 -241s29 -177 87 -242c59 -64 136 -96 232 -96c54 0 102 9 144 27
c42 19 87 49 135 92h24l-10 -226c-81 -60 -178 -90 -291 -90c-97 0 -186 21 -267 63s-146 104 -196 186c-50 83 -75 178 -75 286zM459 1153l-193 281h164l160 -152l160 152h163l-192 -281h-262z" />
    <glyph glyph-name="Dcaron" unicode="&#x10e;" horiz-adv-x="1292" 
d="M471 0h-338v1434h338c141 0 267 -28 380 -84s202 -139 269 -249c67 -109 101 -237 101 -384s-34 -275 -101 -385c-133 -219 -368 -332 -649 -332zM438 1575l-192 280h164l159 -151l160 151h164l-193 -280h-262zM371 1229v-1024h102c298 -5 511 183 510 512
c1 329 -212 517 -510 512h-102z" />
    <glyph glyph-name="dcaron" unicode="&#x10f;" horiz-adv-x="1626" 
d="M68 506c0 161 49 290 147 387c99 98 222 147 371 147c146 0 259 -48 340 -145v580h217v-1475h-217v117c-79 -84 -200 -146 -344 -146c-95 0 -182 22 -260 67s-140 108 -186 190c-45 82 -68 175 -68 278zM375 746c-60 -65 -90 -145 -90 -240s30 -175 90 -240
c61 -65 139 -98 235 -98s174 33 235 98s91 145 91 240s-30 175 -91 240s-139 98 -235 98s-174 -33 -235 -98zM1278 1311c0 40 13 74 38 101c25 28 57 42 95 42c41 0 75 -14 101 -42c27 -28 40 -62 40 -103c0 -139 -72 -258 -217 -359l-39 41c73 61 111 112 115 189
c-35 0 -66 13 -93 39c-27 27 -40 57 -40 92z" />
    <glyph glyph-name="Dcroat" unicode="&#x110;" horiz-adv-x="1320" 
d="M162 627h-154v176h154v631h338c211 0 397 -68 532 -189c135 -120 217 -308 217 -528s-82 -408 -217 -529c-135 -120 -321 -188 -532 -188h-338v627zM399 627v-422h103c298 -5 511 183 510 512c1 329 -212 517 -510 512h-103v-426h277v-176h-277z" />
    <glyph glyph-name="dslash" unicode="&#x111;" horiz-adv-x="1273" 
d="M68 506c0 161 49 290 147 387c99 98 222 147 371 147c146 0 259 -48 340 -145v274h-303v148h303v158h217v-158h135v-148h-135v-1169h-217v117c-79 -84 -200 -146 -344 -146c-95 0 -182 22 -260 67s-140 108 -186 190c-45 82 -68 175 -68 278zM375 746
c-60 -65 -90 -145 -90 -240s30 -175 90 -240c61 -65 139 -98 235 -98s174 33 235 98s91 145 91 240s-30 175 -91 240s-139 98 -235 98s-174 -33 -235 -98z" />
    <glyph glyph-name="Emacron" unicode="&#x112;" horiz-adv-x="1089" 
d="M1008 0h-875v1434h866v-205h-628v-389h606v-205h-606v-430h637v-205zM852 1610h-492v162h492v-162z" />
    <glyph glyph-name="emacron" unicode="&#x113;" 
d="M68 506c0 149 58 288 149 381c92 95 223 153 363 153c103 0 192 -23 269 -69c155 -91 232 -249 232 -441v-79h-798c12 -95 50 -167 113 -215s137 -72 220 -72c137 0 249 38 369 143h23l-9 -217c-120 -79 -251 -119 -393 -119c-99 0 -190 24 -273 71
c-82 47 -147 112 -194 194s-71 172 -71 270zM289 606h581c-10 78 -42 141 -96 189c-53 49 -118 73 -194 73c-65 0 -125 -22 -181 -67c-56 -44 -93 -109 -110 -195zM819 1188h-491v162h491v-162z" />
    <glyph glyph-name="Ebreve" unicode="&#x114;" horiz-adv-x="1089" 
d="M1008 0h-875v1434h866v-205h-628v-389h606v-205h-606v-430h637v-205zM365 1774h151c0 -63 34 -103 90 -103s90 40 90 103h152c0 -70 -22 -128 -67 -173s-103 -67 -175 -67s-130 22 -175 67c-44 45 -66 103 -66 173z" />
    <glyph glyph-name="ebreve" unicode="&#x115;" 
d="M68 506c0 149 58 288 149 381c92 95 223 153 363 153c103 0 192 -23 269 -69c155 -91 232 -249 232 -441v-79h-798c12 -95 50 -167 113 -215s137 -72 220 -72c137 0 249 38 369 143h23l-9 -217c-120 -79 -251 -119 -393 -119c-99 0 -190 24 -273 71
c-82 47 -147 112 -194 194s-71 172 -71 270zM289 606h581c-10 78 -42 141 -96 189c-53 49 -118 73 -194 73c-65 0 -125 -22 -181 -67c-56 -44 -93 -109 -110 -195zM332 1393h151c0 -63 34 -103 90 -103s91 42 91 103h151c0 -70 -22 -128 -67 -173s-103 -67 -175 -67
s-130 22 -175 67c-44 45 -66 103 -66 173z" />
    <glyph glyph-name="Edotaccent" unicode="&#x116;" horiz-adv-x="1089" 
d="M1008 0h-875v1434h866v-205h-628v-389h606v-205h-606v-430h637v-205zM444 1741c0 39 14 72 41 99c28 28 62 42 101 42s72 -14 99 -41c28 -27 42 -61 42 -100s-14 -73 -42 -101c-27 -27 -60 -41 -99 -41s-72 14 -100 41c-28 28 -42 62 -42 101z" />
    <glyph glyph-name="edotaccent" unicode="&#x117;" 
d="M68 506c0 149 58 288 149 381c92 95 223 153 363 153c103 0 192 -23 269 -69c155 -91 232 -249 232 -441v-79h-798c12 -95 50 -167 113 -215s137 -72 220 -72c137 0 249 38 369 143h23l-9 -217c-120 -79 -251 -119 -393 -119c-99 0 -190 24 -273 71
c-82 47 -147 112 -194 194s-71 172 -71 270zM289 606h581c-10 78 -42 141 -96 189c-53 49 -118 73 -194 73c-65 0 -125 -22 -181 -67c-56 -44 -93 -109 -110 -195zM492 1219c-27 27 -41 61 -41 100s14 73 41 100c28 27 61 41 100 41s72 -14 99 -41c28 -27 42 -61 42 -100
s-14 -73 -42 -100c-27 -27 -60 -41 -99 -41s-72 14 -100 41z" />
    <glyph glyph-name="Eogonek" unicode="&#x118;" horiz-adv-x="1089" 
d="M866 0h-733v1434h866v-205h-628v-389h606v-205h-606v-430h637v-205c-92 -85 -138 -164 -138 -238c0 -77 55 -131 138 -131c53 0 99 15 139 45l18 -6l-18 -129c-49 -22 -107 -33 -176 -33c-81 0 -146 21 -194 64s-72 98 -72 166c0 105 60 201 161 262z" />
    <glyph glyph-name="eogonek" unicode="&#x119;" horiz-adv-x="1157" 
d="M68 506c0 149 58 288 149 381c92 95 223 153 363 153c103 0 192 -23 269 -69c155 -91 232 -249 232 -441v-79h-798c12 -95 50 -167 113 -215s137 -72 220 -72c137 0 249 38 369 143h23l-9 -217c-64 -43 -127 -73 -190 -90c-91 -84 -137 -163 -137 -238
c0 -79 56 -131 137 -131c53 0 99 15 139 45l19 -6l-19 -129c-49 -22 -107 -33 -176 -33c-81 0 -146 21 -194 64s-72 98 -72 166c0 93 40 170 121 233h-21c-99 0 -190 24 -273 71c-82 47 -147 112 -194 194s-71 172 -71 270zM289 606h581c-10 78 -42 141 -96 189
c-53 49 -118 73 -194 73c-65 0 -125 -22 -181 -67c-56 -44 -93 -109 -110 -195z" />
    <glyph glyph-name="Ecaron" unicode="&#x11a;" horiz-adv-x="1089" 
d="M1008 0h-875v1434h866v-205h-628v-389h606v-205h-606v-430h637v-205zM455 1575l-193 280h164l160 -151l159 151h164l-192 -280h-262z" />
    <glyph glyph-name="ecaron" unicode="&#x11b;" horiz-adv-x="1157" 
d="M68 506c0 149 58 288 149 381c92 95 223 153 363 153c103 0 192 -23 269 -69c155 -91 232 -249 232 -441v-79h-798c12 -95 50 -167 113 -215s137 -72 220 -72c137 0 249 38 369 143h23l-9 -217c-120 -79 -251 -119 -393 -119c-99 0 -190 24 -273 71
c-82 47 -147 112 -194 194s-71 172 -71 270zM442 1153l-192 281h164l159 -152l160 152h164l-192 -281h-263zM289 606h581c-10 78 -42 141 -96 189c-53 49 -118 73 -194 73c-65 0 -125 -22 -181 -67c-56 -44 -93 -109 -110 -195z" />
    <glyph glyph-name="Gcircumflex" unicode="&#x11c;" horiz-adv-x="1507" 
d="M72 717c0 143 35 272 105 386c70 115 164 203 281 265c118 63 247 94 388 94c181 0 334 -44 461 -131l20 -252h-31c-137 112 -302 178 -446 178c-147 0 -280 -50 -380 -141c-99 -89 -161 -232 -161 -399c0 -164 57 -305 150 -397s223 -144 370 -144c133 0 246 42 340 127
v303h-428v205h666v-598c-188 -161 -369 -242 -588 -242c-207 0 -396 78 -531 207c-67 65 -119 144 -158 237s-58 194 -58 302zM672 1575h-164l192 280h263l192 -280h-164l-160 151z" />
    <glyph glyph-name="gcircumflex" unicode="&#x11d;" horiz-adv-x="1239" 
d="M70 520c0 157 66 296 163 383c99 87 222 137 345 137c144 0 255 -53 323 -129v101h217v-920c0 -205 -54 -359 -153 -450c-99 -92 -230 -134 -398 -134c-119 0 -226 28 -321 84l-8 218h41c43 -36 88 -62 135 -79s105 -26 174 -26c92 0 167 28 225 83c59 55 88 132 88 232
v109c-86 -86 -195 -129 -328 -129c-93 0 -178 21 -255 64c-76 43 -136 105 -181 184c-45 80 -67 171 -67 272zM372 749c-57 -63 -85 -140 -85 -229s28 -166 85 -229s135 -94 234 -94s176 31 232 94s84 140 84 229s-28 166 -84 229s-133 95 -232 95s-177 -32 -234 -95z
M455 1153h-164l192 281h262l193 -281h-164l-160 152z" />
    <glyph glyph-name="Gbreve" unicode="&#x11e;" horiz-adv-x="1507" 
d="M72 717c0 143 35 272 105 386c70 115 164 203 281 265c118 63 247 94 388 94c181 0 334 -44 461 -131l20 -252h-31c-137 112 -302 178 -446 178c-147 0 -280 -50 -380 -141c-99 -89 -161 -232 -161 -399c0 -164 57 -305 150 -397s223 -144 370 -144c133 0 246 42 340 127
v303h-428v205h666v-598c-188 -161 -369 -242 -588 -242c-207 0 -396 78 -531 207c-67 65 -119 144 -158 237s-58 194 -58 302zM594 1815h151c0 -61 35 -103 91 -103s90 40 90 103h151c0 -70 -22 -128 -67 -173c-44 -45 -102 -67 -174 -67s-130 22 -175 67s-67 103 -67 173z
" />
    <glyph glyph-name="gbreve" unicode="&#x11f;" horiz-adv-x="1239" 
d="M70 520c0 157 66 296 163 383c99 87 222 137 345 137c144 0 255 -53 323 -129v101h217v-920c0 -205 -54 -359 -153 -450c-99 -92 -230 -134 -398 -134c-119 0 -226 28 -321 84l-8 218h41c43 -36 88 -62 135 -79s105 -26 174 -26c92 0 167 28 225 83c59 55 88 132 88 232
v109c-86 -86 -195 -129 -328 -129c-93 0 -178 21 -255 64c-76 43 -136 105 -181 184c-45 80 -67 171 -67 272zM372 749c-57 -63 -85 -140 -85 -229s28 -166 85 -229s135 -94 234 -94s176 31 232 94s84 140 84 229s-28 166 -84 229s-133 95 -232 95s-177 -32 -234 -95z
M362 1393h152c0 -63 34 -103 90 -103s90 40 90 103h152c0 -70 -22 -128 -67 -173s-103 -67 -175 -67s-130 22 -175 67s-67 103 -67 173z" />
    <glyph glyph-name="Gdotaccent" unicode="&#x120;" horiz-adv-x="1507" 
d="M72 717c0 143 35 272 105 386c70 115 164 203 281 265c118 63 247 94 388 94c181 0 334 -44 461 -131l20 -252h-31c-137 112 -302 178 -446 178c-147 0 -280 -50 -380 -141c-99 -89 -161 -232 -161 -399c0 -164 57 -305 150 -397s223 -144 370 -144c133 0 246 42 340 127
v303h-428v205h666v-598c-188 -161 -369 -242 -588 -242c-207 0 -396 78 -531 207c-67 65 -119 144 -158 237s-58 194 -58 302zM715 1640c-27 28 -41 62 -41 101s14 73 41 100s61 41 100 41s73 -14 100 -41s41 -61 41 -100s-14 -73 -42 -101c-27 -27 -60 -41 -99 -41
s-72 14 -100 41z" />
    <glyph glyph-name="gdotaccent" unicode="&#x121;" horiz-adv-x="1239" 
d="M70 520c0 157 66 296 163 383c99 87 222 137 345 137c144 0 255 -53 323 -129v101h217v-920c0 -205 -54 -359 -153 -450c-99 -92 -230 -134 -398 -134c-119 0 -226 28 -321 84l-8 218h41c43 -36 88 -62 135 -79s105 -26 174 -26c92 0 167 28 225 83c59 55 88 132 88 232
v109c-86 -86 -195 -129 -328 -129c-93 0 -178 21 -255 64c-76 43 -136 105 -181 184c-45 80 -67 171 -67 272zM372 749c-57 -63 -85 -140 -85 -229s28 -166 85 -229s135 -94 234 -94s176 31 232 94s84 140 84 229s-28 166 -84 229s-133 95 -232 95s-177 -32 -234 -95z
M588 1460c39 0 72 -14 99 -41c28 -27 42 -61 42 -100s-14 -73 -42 -100c-27 -27 -60 -41 -99 -41s-73 14 -101 41c-27 28 -41 61 -41 100s14 72 41 99c28 28 62 42 101 42z" />
    <glyph glyph-name="uni0122" unicode="&#x122;" horiz-adv-x="1507" 
d="M72 717c0 143 35 272 105 386c70 115 164 203 281 265c118 63 247 94 388 94c181 0 334 -44 461 -131l20 -252h-31c-137 112 -302 178 -446 178c-147 0 -280 -50 -380 -141c-99 -89 -161 -232 -161 -399c0 -164 57 -305 150 -397s223 -144 370 -144c133 0 246 42 340 127
v303h-428v205h666v-598c-188 -161 -369 -242 -588 -242c-207 0 -396 78 -531 207c-67 65 -119 144 -158 237s-58 194 -58 302zM657 -285c0 39 13 73 39 101c26 27 58 41 97 41c40 0 73 -14 99 -42c27 -28 40 -62 40 -102c0 -157 -77 -277 -232 -358l-18 47
c69 49 103 99 111 180c-35 0 -67 13 -95 39c-27 26 -41 57 -41 94z" />
    <glyph glyph-name="uni0123" unicode="&#x123;" horiz-adv-x="1239" 
d="M70 520c0 157 66 296 163 383c99 87 222 137 345 137c144 0 255 -53 323 -129v101h217v-920c0 -205 -54 -359 -153 -450c-99 -92 -230 -134 -398 -134c-119 0 -226 28 -321 84l-8 218h41c43 -36 88 -62 135 -79s105 -26 174 -26c92 0 167 28 225 83c59 55 88 132 88 232
v109c-86 -86 -195 -129 -328 -129c-93 0 -178 21 -255 64c-76 43 -136 105 -181 184c-45 80 -67 171 -67 272zM372 749c-57 -63 -85 -140 -85 -229s28 -166 85 -229s135 -94 234 -94s176 31 232 94s84 140 84 229s-28 166 -84 229s-133 95 -232 95s-177 -32 -234 -95z
M451 1362c0 138 72 257 217 358l39 -41c-73 -61 -111 -111 -115 -188c35 0 66 -13 93 -40c27 -26 40 -56 40 -91c0 -40 -13 -74 -38 -102c-25 -27 -57 -41 -95 -41c-41 0 -75 14 -102 42c-26 28 -39 62 -39 103z" />
    <glyph glyph-name="Hcircumflex" unicode="&#x124;" horiz-adv-x="1363" 
d="M371 0h-238v1434h238v-576h622v576h238v-1434h-238v653h-622v-653zM522 1575h-164l193 280h262l193 -280h-164l-160 151z" />
    <glyph glyph-name="hcircumflex" unicode="&#x125;" horiz-adv-x="1163" 
d="M338 0h-217v1475h217v-601c37 49 88 88 152 119c65 31 131 47 198 47c111 0 199 -31 266 -93s101 -148 101 -259v-688h-217v623c0 69 -21 123 -63 162c-41 39 -95 59 -161 59c-74 0 -139 -28 -194 -85s-82 -129 -82 -218v-541zM397 1575h-164l193 280h262l193 -280h-164
l-160 151z" />
    <glyph glyph-name="Hbar" unicode="&#x126;" horiz-adv-x="1372" 
d="M137 1057h-137v162h137v215h238v-215h622v215h238v-215h137v-162h-137v-1057h-238v653h-622v-653h-238v1057zM375 1057v-199h622v199h-622z" />
    <glyph glyph-name="hbar" unicode="&#x127;" horiz-adv-x="1191" 
d="M150 1169h-140v148h140v158h217v-158h295v-148h-295v-295c37 49 88 88 152 119c65 31 131 47 198 47c111 0 199 -31 266 -93s100 -148 100 -259v-688h-217v623c0 69 -21 123 -63 162c-41 39 -95 59 -160 59c-74 0 -139 -28 -194 -85s-82 -129 -82 -218v-541h-217v1169z
" />
    <glyph glyph-name="Itilde" unicode="&#x128;" horiz-adv-x="503" 
d="M-92 1585h-17l15 170c56 60 124 90 205 90c68 0 134 -28 171 -56c39 -28 92 -56 140 -56c56 0 115 33 176 98h16l-14 -170c-56 -60 -124 -90 -205 -90c-68 0 -133 28 -172 56c-37 28 -91 56 -139 56c-56 0 -115 -33 -176 -98zM371 0h-238v1434h238v-1434z" />
    <glyph glyph-name="itilde" unicode="&#x129;" horiz-adv-x="479" 
d="M-104 1163h-17l15 170c56 60 124 90 204 90c68 0 135 -28 172 -56c39 -28 92 -56 140 -56c56 0 115 33 176 98h16l-14 -170c-56 -60 -124 -90 -205 -90c-68 0 -133 28 -172 56c-37 29 -91 57 -139 57c-55 0 -114 -33 -176 -99zM348 0h-217v1012h217v-1012z" />
    <glyph glyph-name="Imacron" unicode="&#x12a;" horiz-adv-x="503" 
d="M498 1610h-492v162h492v-162zM371 0h-238v1434h238v-1434z" />
    <glyph glyph-name="imacron" unicode="&#x12b;" horiz-adv-x="479" 
d="M485 1188h-491v162h491v-162zM348 0h-217v1012h217v-1012z" />
    <glyph glyph-name="Ibreve" unicode="&#x12c;" horiz-adv-x="503" 
d="M10 1815h152c0 -63 34 -103 90 -103s90 40 90 103h152c0 -70 -22 -128 -67 -173s-103 -67 -175 -67s-130 22 -175 67s-67 103 -67 173zM371 0h-238v1434h238v-1434z" />
    <glyph glyph-name="ibreve" unicode="&#x12d;" horiz-adv-x="479" 
d="M-2 1393h152c0 -63 34 -103 90 -103s90 40 90 103h151c0 -70 -22 -128 -67 -173c-44 -45 -102 -67 -174 -67s-130 22 -175 67s-67 103 -67 173zM348 0h-217v1012h217v-1012z" />
    <glyph glyph-name="Iogonek" unicode="&#x12e;" horiz-adv-x="503" 
d="M68 -262c0 105 60 201 161 262h-96v1434h238v-1434c-92 -85 -138 -164 -138 -238c0 -77 55 -131 138 -131c53 0 99 15 139 45l18 -6l-18 -129c-49 -22 -107 -33 -176 -33c-81 0 -146 21 -194 64s-72 98 -72 166z" />
    <glyph glyph-name="iogonek" unicode="&#x12f;" horiz-adv-x="479" 
d="M45 -262c0 105 61 201 162 262h-76v1012h217v-1012c-91 -84 -137 -163 -137 -238c0 -79 56 -131 137 -131c53 0 99 15 139 45l19 -6l-19 -129c-49 -22 -107 -33 -176 -33c-81 0 -146 21 -194 64s-72 98 -72 166zM240 1460c39 0 72 -14 99 -41c28 -27 42 -61 42 -100
s-14 -73 -42 -100c-27 -27 -60 -41 -99 -41s-73 14 -101 41c-27 28 -41 61 -41 100s14 72 41 99c28 28 62 42 101 42z" />
    <glyph glyph-name="Idot" unicode="&#x130;" horiz-adv-x="503" 
d="M152 1640c-27 28 -41 62 -41 101s14 73 41 100c28 27 61 41 100 41s72 -14 99 -41c28 -27 42 -61 42 -100s-14 -73 -42 -101c-27 -27 -60 -41 -99 -41s-72 14 -100 41zM371 0h-238v1434h238v-1434z" />
    <glyph glyph-name="dotlessi" unicode="&#x131;" horiz-adv-x="479" 
d="M348 0h-217v1012h217v-1012z" />
    <glyph glyph-name="IJ" unicode="&#x132;" horiz-adv-x="1212" 
d="M123 946v488h237v-508c0 -169 94 -258 238 -258c148 0 244 83 244 252v514h237v-969c0 -163 -47 -286 -141 -369s-220 -125 -379 -125c-111 0 -215 13 -313 39l-29 246h23c90 -53 196 -80 319 -80c139 0 283 69 283 273v112c-64 -60 -166 -98 -275 -98
c-125 0 -233 39 -314 115s-130 205 -130 368z" />
    <glyph glyph-name="ij" unicode="&#x133;" horiz-adv-x="1112" 
d="M127 1219c-27 27 -41 61 -41 100s14 73 41 100s61 41 100 41s73 -14 100 -42c28 -27 42 -60 42 -99s-14 -72 -42 -100c-27 -27 -61 -41 -100 -41s-73 14 -100 41zM117 356v656h217v-619c0 -136 80 -225 209 -225c147 0 233 103 233 272v572h217v-965
c0 -169 -45 -301 -135 -396s-208 -143 -354 -143c-127 0 -243 27 -350 80l-11 217h39c51 -34 101 -58 148 -71c47 -14 102 -21 164 -21c180 0 282 115 282 307v66c-71 -77 -166 -115 -287 -115c-87 0 -177 35 -250 98c-72 63 -122 167 -122 287zM784 1219
c-27 28 -41 61 -41 100s14 72 41 99c28 28 62 42 101 42s73 -14 100 -41s41 -61 41 -100s-14 -73 -41 -100s-61 -41 -100 -41s-73 14 -101 41z" />
    <glyph glyph-name="Jcircumflex" unicode="&#x134;" horiz-adv-x="796" 
d="M111 0l-25 223h33c54 -31 108 -47 162 -47c91 0 155 66 155 203v1055h238v-1043c0 -132 -33 -235 -98 -309s-150 -111 -257 -111c-41 0 -76 2 -103 6s-62 12 -105 23zM395 1575h-164l193 280h262l193 -280h-164l-160 151z" />
    <glyph glyph-name="jcircumflex" unicode="&#x135;" horiz-adv-x="483" 
d="M-76 -457l-18 189h28c33 -26 68 -39 107 -39c64 0 96 41 96 123v1196h217v-1178c0 -215 -112 -326 -291 -326c-50 0 -96 12 -139 35zM86 1153h-164l193 281h262l192 -281h-163l-160 152z" />
    <glyph glyph-name="uni0136" unicode="&#x136;" horiz-adv-x="1236" 
d="M371 0h-238v1434h238v-674l520 674h266l-549 -699l602 -735h-280l-559 678v-678zM485 -285c0 39 13 73 39 101c26 27 58 41 97 41c40 0 73 -14 99 -42c27 -28 40 -62 40 -102c0 -157 -77 -277 -232 -358l-18 47c69 49 103 99 111 180c-35 0 -67 13 -95 39
c-27 26 -41 57 -41 94z" />
    <glyph glyph-name="uni0137" unicode="&#x137;" horiz-adv-x="1003" 
d="M338 0h-217v1475h217v-904l373 441h252l-406 -469l422 -543h-262l-379 492v-492zM365 -285c0 39 13 73 38 101c26 27 58 41 97 41c40 0 73 -14 99 -42c27 -28 40 -62 40 -102c0 -157 -77 -277 -231 -358l-19 47c69 49 103 99 111 180c-35 0 -67 13 -94 39s-41 57 -41 94z
" />
    <glyph glyph-name="kgreenlandic" unicode="&#x138;" horiz-adv-x="993" 
d="M328 0h-217v1012h217v-441l372 441h252l-405 -469l422 -543h-262l-379 492v-492z" />
    <glyph glyph-name="Lacute" unicode="&#x139;" horiz-adv-x="1161" 
d="M1081 0h-948v1434h238v-1229h710v-205zM324 1575h-185l185 280h288z" />
    <glyph glyph-name="lacute" unicode="&#x13a;" horiz-adv-x="458" 
d="M281 1575h-185l185 280h288zM338 0h-217v1475h217v-1475z" />
    <glyph glyph-name="uni013B" unicode="&#x13b;" horiz-adv-x="1161" 
d="M1081 0h-948v1434h238v-1229h710v-205zM477 -256c0 39 13 73 38 100c26 27 58 41 97 41c41 0 74 -14 100 -41c27 -28 40 -62 40 -102c0 -157 -77 -277 -232 -358l-18 47c69 49 102 99 110 180c-35 0 -67 13 -94 39s-41 57 -41 94z" />
    <glyph glyph-name="uni013C" unicode="&#x13c;" horiz-adv-x="438" 
d="M82 -256c0 39 13 73 38 100c26 27 58 41 97 41c40 0 73 -14 99 -41c27 -28 40 -62 40 -102c0 -157 -77 -277 -231 -358l-19 47c69 49 103 99 111 180c-35 0 -67 13 -94 39s-41 57 -41 94zM328 0h-217v1475h217v-1475z" />
    <glyph glyph-name="Lcaron" unicode="&#x13d;" horiz-adv-x="1161" 
d="M1081 0h-948v1434h238v-1229h710v-205zM834 1311c0 40 13 74 38 101c25 28 57 42 95 42c41 0 75 -14 101 -42c27 -28 40 -62 40 -103c0 -139 -72 -258 -217 -359l-39 41c73 61 111 112 115 189c-35 0 -66 13 -93 39c-27 27 -40 57 -40 92z" />
    <glyph glyph-name="lcaron" unicode="&#x13e;" horiz-adv-x="798" 
d="M338 0h-217v1475h217v-1475zM483 1311c0 40 13 74 38 101c25 28 57 42 95 42c41 0 75 -14 102 -42s40 -62 40 -103c0 -139 -72 -258 -217 -359l-39 41c72 61 110 112 114 189c-35 0 -66 13 -93 39c-27 27 -40 57 -40 92z" />
    <glyph glyph-name="Ldot" unicode="&#x13f;" horiz-adv-x="1161" 
d="M1081 0h-948v1434h238v-1229h710v-205zM738 646c-27 27 -40 59 -40 97s13 70 40 97s60 41 98 41s70 -14 97 -41s40 -59 40 -97s-13 -70 -40 -97s-59 -40 -97 -40s-71 13 -98 40z" />
    <glyph glyph-name="ldot" unicode="&#x140;" horiz-adv-x="759" 
d="M338 0h-217v1475h217v-1475zM511 646c-27 27 -40 59 -40 97s13 70 40 97s59 41 97 41s70 -14 97 -41s40 -59 40 -97s-13 -70 -40 -97s-59 -40 -97 -40s-70 13 -97 40z" />
    <glyph glyph-name="Lslash" unicode="&#x141;" horiz-adv-x="1191" 
d="M164 377l-164 -94v215l164 94v842h237v-703l340 197v-215l-340 -197v-311h711v-205h-948v377z" />
    <glyph glyph-name="lslash" unicode="&#x142;" horiz-adv-x="561" 
d="M172 459l-166 -97v216l166 96v801h217v-676l166 96v-215l-166 -96v-584h-217v459z" />
    <glyph glyph-name="Nacute" unicode="&#x143;" horiz-adv-x="1415" 
d="M371 0h-238v1434h96l815 -924v924h238v-1434h-96l-815 928v-928zM717 1575h-185l185 280h289z" />
    <glyph glyph-name="nacute" unicode="&#x144;" 
d="M338 0h-217v1012h217v-138c35 49 83 88 145 119c63 31 128 47 197 47c107 0 194 -31 259 -92c66 -61 99 -148 99 -260v-688h-217v623c0 143 -87 221 -219 221c-74 0 -137 -28 -188 -85s-76 -129 -76 -218v-541zM604 1153h-184l184 281h289z" />
    <glyph glyph-name="uni0145" unicode="&#x145;" horiz-adv-x="1415" 
d="M371 0h-238v1434h96l815 -924v924h238v-1434h-96l-815 928v-928zM569 -285c0 39 13 73 39 101c26 27 58 41 97 41c40 0 73 -14 99 -42c27 -28 40 -62 40 -102c0 -157 -77 -277 -232 -358l-18 47c69 49 103 99 111 180c-35 0 -67 13 -95 39c-27 26 -41 57 -41 94z" />
    <glyph glyph-name="uni0146" unicode="&#x146;" 
d="M338 0h-217v1012h217v-138c35 49 83 88 145 119c63 31 128 47 197 47c107 0 194 -31 259 -92c66 -61 99 -148 99 -260v-688h-217v623c0 143 -87 221 -219 221c-74 0 -137 -28 -188 -85s-76 -129 -76 -218v-541zM444 -285c0 39 13 73 39 101c26 27 58 41 97 41
c40 0 73 -14 99 -42c27 -28 40 -62 40 -102c0 -157 -77 -277 -232 -358l-18 47c69 49 103 99 111 180c-35 0 -67 13 -95 39c-27 26 -41 57 -41 94z" />
    <glyph glyph-name="Ncaron" unicode="&#x147;" horiz-adv-x="1415" 
d="M371 0h-238v1434h96l815 -924v924h238v-1434h-96l-815 928v-928zM584 1575l-193 280h164l160 -151l159 151h164l-192 -280h-262z" />
    <glyph glyph-name="ncaron" unicode="&#x148;" 
d="M338 0h-217v1012h217v-138c35 49 83 88 145 119c63 31 128 47 197 47c107 0 194 -31 259 -92c66 -61 99 -148 99 -260v-688h-217v623c0 143 -87 221 -219 221c-74 0 -137 -28 -188 -85s-76 -129 -76 -218v-541zM475 1153l-192 281h163l160 -152l160 152h164l-193 -281
h-262z" />
    <glyph glyph-name="napostrophe" unicode="&#x149;" horiz-adv-x="1368" 
d="M25 1311c0 40 13 74 38 101c25 28 57 42 95 42c41 0 75 -14 101 -42c27 -28 40 -62 40 -103c0 -139 -72 -258 -217 -359l-39 41c73 61 111 112 115 189c-35 0 -66 13 -93 39c-27 27 -40 57 -40 92zM559 0h-217v1012h217v-138c35 49 83 88 145 119c63 31 128 47 197 47
c107 0 194 -31 260 -92s99 -148 99 -260v-688h-218v623c0 143 -87 221 -219 221c-74 0 -137 -28 -188 -85s-76 -129 -76 -218v-541z" />
    <glyph glyph-name="Eng" unicode="&#x14a;" horiz-adv-x="1415" 
d="M371 0h-238v1434h96l815 -1065v1065h238v-1506c0 -133 -32 -236 -97 -309c-65 -74 -150 -111 -257 -111c-69 0 -138 10 -209 29l-25 223h33c54 -31 108 -47 162 -47c91 0 155 66 155 203v84l-673 883v-883z" />
    <glyph glyph-name="eng" unicode="&#x14b;" 
d="M338 0h-217v1012h217v-138c35 49 83 88 145 119c63 31 128 47 197 47c107 0 194 -31 259 -92c66 -61 99 -148 99 -260v-854c0 -215 -111 -326 -290 -326c-56 0 -103 12 -140 35l-18 189h28c33 -26 68 -39 107 -39c64 0 96 41 96 123v807c0 143 -87 221 -219 221
c-74 0 -137 -28 -188 -85s-76 -129 -76 -218v-541z" />
    <glyph glyph-name="Omacron" unicode="&#x14c;" horiz-adv-x="1654" 
d="M827 1462c104 0 202 -19 295 -57c93 -37 174 -89 241 -155c136 -131 220 -322 220 -533c0 -140 -34 -267 -101 -382c-67 -114 -158 -203 -273 -268c-115 -64 -243 -96 -382 -96s-267 32 -382 96c-115 65 -206 154 -273 268c-67 115 -100 242 -100 382s33 267 100 381
c67 115 158 204 273 268s243 96 382 96zM827 176c144 0 274 51 367 142c95 92 152 234 152 399c0 110 -24 206 -71 289s-109 146 -187 188c-77 42 -164 63 -261 63s-184 -21 -262 -63c-77 -42 -139 -105 -186 -188s-70 -179 -70 -289s23 -207 70 -290
c93 -165 255 -251 448 -251zM1073 1610h-491v162h491v-162z" />
    <glyph glyph-name="omacron" unicode="&#x14d;" horiz-adv-x="1220" 
d="M141 231c-49 83 -73 174 -73 275s24 192 73 274s114 146 197 191c83 46 173 69 272 69s189 -23 272 -69c83 -45 149 -109 198 -191s73 -173 73 -274s-24 -192 -73 -275c-49 -82 -115 -146 -198 -192c-83 -45 -173 -68 -272 -68s-189 23 -272 68c-83 46 -148 110 -197 192
zM610 168c91 0 168 31 231 94s95 145 95 244s-32 180 -95 243s-140 95 -231 95c-90 0 -167 -32 -230 -95s-95 -144 -95 -243s32 -181 95 -244s140 -94 230 -94zM856 1188h-491v162h491v-162z" />
    <glyph glyph-name="Obreve" unicode="&#x14e;" horiz-adv-x="1654" 
d="M827 1462c104 0 202 -19 295 -57c93 -37 174 -89 241 -155c136 -131 220 -322 220 -533c0 -140 -34 -267 -101 -382c-67 -114 -158 -203 -273 -268c-115 -64 -243 -96 -382 -96s-267 32 -382 96c-115 65 -206 154 -273 268c-67 115 -100 242 -100 382s33 267 100 381
c67 115 158 204 273 268s243 96 382 96zM827 176c144 0 274 51 367 142c95 92 152 234 152 399c0 110 -24 206 -71 289s-109 146 -187 188c-77 42 -164 63 -261 63s-184 -21 -262 -63c-77 -42 -139 -105 -186 -188s-70 -179 -70 -289s23 -207 70 -290
c93 -165 255 -251 448 -251zM586 1815h151c0 -63 34 -103 90 -103s91 42 91 103h151c0 -70 -22 -128 -67 -173s-103 -67 -175 -67s-130 22 -175 67c-44 45 -66 103 -66 173z" />
    <glyph glyph-name="obreve" unicode="&#x14f;" horiz-adv-x="1220" 
d="M141 231c-49 83 -73 174 -73 275s24 192 73 274s114 146 197 191c83 46 173 69 272 69s189 -23 272 -69c83 -45 149 -109 198 -191s73 -173 73 -274s-24 -192 -73 -275c-49 -82 -115 -146 -198 -192c-83 -45 -173 -68 -272 -68s-189 23 -272 68c-83 46 -148 110 -197 192
zM610 168c91 0 168 31 231 94s95 145 95 244s-32 180 -95 243s-140 95 -231 95c-90 0 -167 -32 -230 -95s-95 -144 -95 -243s32 -181 95 -244s140 -94 230 -94zM369 1393h151c0 -63 34 -103 90 -103s90 40 90 103h152c0 -70 -22 -128 -67 -173s-103 -67 -175 -67
s-130 22 -175 67c-44 45 -66 103 -66 173z" />
    <glyph glyph-name="Ohungarumlaut" unicode="&#x150;" horiz-adv-x="1654" 
d="M827 1462c104 0 202 -19 295 -57c93 -37 174 -89 241 -155c136 -131 220 -322 220 -533c0 -140 -34 -267 -101 -382c-67 -114 -158 -203 -273 -268c-115 -64 -243 -96 -382 -96s-267 32 -382 96c-115 65 -206 154 -273 268c-67 115 -100 242 -100 382s33 267 100 381
c67 115 158 204 273 268s243 96 382 96zM827 176c144 0 274 51 367 142c95 92 152 234 152 399c0 110 -24 206 -71 289s-109 146 -187 188c-77 42 -164 63 -261 63s-184 -21 -262 -63c-77 -42 -139 -105 -186 -188s-70 -179 -70 -289s23 -207 70 -290
c93 -165 255 -251 448 -251zM662 1575h-185l185 280h288zM1024 1575h-184l184 280h289z" />
    <glyph glyph-name="ohungarumlaut" unicode="&#x151;" horiz-adv-x="1220" 
d="M141 231c-49 83 -73 174 -73 275s24 192 73 274s114 146 197 191c83 46 173 69 272 69s189 -23 272 -69c83 -45 149 -109 198 -191s73 -173 73 -274s-24 -192 -73 -275c-49 -82 -115 -146 -198 -192c-83 -45 -173 -68 -272 -68s-189 23 -272 68c-83 46 -148 110 -197 192
zM438 1153h-184l184 281h289zM610 168c91 0 168 31 231 94s95 145 95 244s-32 180 -95 243s-140 95 -231 95c-90 0 -167 -32 -230 -95s-95 -144 -95 -243s32 -181 95 -244s140 -94 230 -94zM801 1153h-185l185 281h289z" />
    <glyph glyph-name="OE" unicode="&#x152;" horiz-adv-x="2301" 
d="M827 1462c199 0 382 -72 519 -196v168h866v-205h-629v-389h606v-205h-606v-430h637v-205h-874v168c-137 -125 -320 -197 -519 -197c-139 0 -267 32 -382 96c-115 65 -206 154 -273 268c-67 115 -100 242 -100 382s33 267 100 381c67 115 158 204 273 268s243 96 382 96z
M827 176c144 0 274 51 367 142c95 92 152 234 152 399c0 110 -24 206 -71 289s-109 146 -187 188c-77 42 -164 63 -261 63s-184 -21 -262 -63c-77 -42 -139 -105 -186 -188s-70 -179 -70 -289s23 -207 70 -290c93 -165 255 -251 448 -251z" />
    <glyph glyph-name="oe" unicode="&#x153;" horiz-adv-x="2017" 
d="M610 1040c175 0 331 -76 432 -204c93 127 242 204 406 204c103 0 192 -23 269 -69c155 -91 233 -249 233 -441v-79h-799c12 -95 50 -167 113 -215c64 -48 138 -72 221 -72c137 0 248 38 368 143h23l-8 -217c-120 -79 -251 -119 -393 -119c-176 0 -334 78 -431 209
c-101 -131 -259 -209 -434 -209c-99 0 -189 23 -272 68c-83 46 -148 110 -197 192c-49 83 -73 174 -73 275s24 192 73 274s114 146 197 191c83 46 173 69 272 69zM610 168c91 0 168 31 231 94s95 145 95 244s-32 180 -95 243s-140 95 -231 95c-90 0 -167 -32 -230 -95
s-95 -144 -95 -243s32 -181 95 -244s140 -94 230 -94zM1157 606h582c-10 78 -42 141 -96 189c-54 49 -119 73 -195 73c-65 0 -125 -22 -181 -67c-56 -44 -93 -109 -110 -195z" />
    <glyph glyph-name="Racute" unicode="&#x154;" horiz-adv-x="1165" 
d="M371 0h-238v1434h416c143 0 258 -36 347 -109s134 -172 134 -299c0 -94 -27 -174 -81 -240c-53 -65 -121 -113 -204 -143l388 -643h-265l-372 618h-125v-618zM371 1229v-406h168c164 0 254 68 254 203s-90 203 -254 203h-168zM571 1575h-184l184 280h289z" />
    <glyph glyph-name="racute" unicode="&#x155;" horiz-adv-x="839" 
d="M338 0h-217v1012h217v-123c65 96 169 151 276 151c62 0 115 -16 158 -47l14 -231h-18c-59 55 -121 82 -186 82c-63 0 -118 -22 -166 -69s-78 -134 -78 -247v-528zM471 1153h-184l184 281h289z" />
    <glyph glyph-name="uni0156" unicode="&#x156;" horiz-adv-x="1165" 
d="M371 0h-238v1434h416c143 0 258 -36 347 -109s134 -172 134 -299c0 -94 -27 -174 -81 -240c-53 -65 -121 -113 -204 -143l388 -643h-265l-372 618h-125v-618zM371 1229v-406h168c164 0 254 68 254 203s-90 203 -254 203h-168zM471 -285c0 39 13 73 38 101
c26 27 58 41 97 41c40 0 73 -14 99 -42c27 -28 40 -62 40 -102c0 -157 -77 -277 -231 -358l-18 47c69 49 102 99 110 180c-35 0 -67 13 -94 39s-41 57 -41 94z" />
    <glyph glyph-name="uni0157" unicode="&#x157;" horiz-adv-x="839" 
d="M92 -285c0 39 13 73 38 101c26 27 58 41 97 41c40 0 73 -14 100 -42s40 -62 40 -102c0 -157 -77 -277 -232 -358l-18 47c69 49 102 99 110 180c-35 0 -67 13 -94 39s-41 57 -41 94zM338 0h-217v1012h217v-123c65 96 169 151 276 151c62 0 115 -16 158 -47l14 -231h-18
c-59 55 -121 82 -186 82c-63 0 -118 -22 -166 -69s-78 -134 -78 -247v-528z" />
    <glyph glyph-name="Rcaron" unicode="&#x158;" horiz-adv-x="1165" 
d="M371 0h-238v1434h416c143 0 258 -36 347 -109s134 -172 134 -299c0 -94 -27 -174 -81 -240c-53 -65 -121 -113 -204 -143l388 -643h-265l-372 618h-125v-618zM430 1575l-192 280h163l160 -151l160 151h164l-193 -280h-262zM371 1229v-406h168c164 0 254 68 254 203
s-90 203 -254 203h-168z" />
    <glyph glyph-name="rcaron" unicode="&#x159;" horiz-adv-x="839" 
d="M309 1153l-192 281h164l159 -152l160 152h164l-193 -281h-262zM338 0h-217v1012h217v-123c65 96 169 151 276 151c62 0 115 -16 158 -47l14 -231h-18c-59 55 -121 82 -186 82c-63 0 -118 -22 -166 -69s-78 -134 -78 -247v-528z" />
    <glyph glyph-name="Sacute" unicode="&#x15a;" horiz-adv-x="1056" 
d="M98 121l13 280h20c108 -139 224 -225 383 -225c69 0 124 19 165 56c41 38 62 88 62 151c0 68 -22 123 -66 164c-44 42 -114 84 -210 127c-228 100 -354 231 -354 420c0 74 20 139 59 196c79 113 211 172 360 172c147 0 262 -37 344 -110l11 -256h-27
c-107 116 -217 174 -330 174c-57 0 -105 -16 -143 -47s-57 -71 -57 -121c0 -54 23 -101 70 -140s123 -81 227 -126c231 -100 354 -230 354 -430c0 -127 -43 -231 -129 -313c-85 -81 -196 -122 -332 -122c-181 0 -327 65 -420 150zM539 1575h-185l185 280h288z" />
    <glyph glyph-name="sacute" unicode="&#x15b;" horiz-adv-x="860" 
d="M72 72l49 204h12c89 -72 183 -108 281 -108c97 0 166 42 166 113c0 42 -16 74 -48 97c-31 23 -87 48 -167 75c-177 59 -265 158 -265 297c0 83 33 152 100 207s151 83 251 83c103 0 194 -24 274 -71l8 -207h-14c-92 65 -181 98 -268 98c-83 0 -146 -37 -146 -106
c0 -36 16 -66 49 -89s88 -48 166 -75c91 -32 145 -59 198 -104s79 -109 79 -193c0 -98 -37 -176 -110 -235c-73 -58 -162 -87 -267 -87c-129 0 -245 34 -348 101zM440 1153h-184l184 281h289z" />
    <glyph glyph-name="Scircumflex" unicode="&#x15c;" horiz-adv-x="1056" 
d="M98 121l13 280h20c108 -139 224 -225 383 -225c69 0 124 19 165 56c41 38 62 88 62 151c0 68 -22 123 -66 164c-44 42 -114 84 -210 127c-228 100 -354 231 -354 420c0 74 20 139 59 196c79 113 211 172 360 172c147 0 262 -37 344 -110l11 -256h-27
c-107 116 -217 174 -330 174c-57 0 -105 -16 -143 -47s-57 -71 -57 -121c0 -54 23 -101 70 -140s123 -81 227 -126c231 -100 354 -230 354 -430c0 -127 -43 -231 -129 -313c-85 -81 -196 -122 -332 -122c-181 0 -327 65 -420 150zM369 1575h-164l192 280h262l193 -280h-164
l-160 151z" />
    <glyph glyph-name="scircumflex" unicode="&#x15d;" horiz-adv-x="860" 
d="M72 72l49 204h12c89 -72 183 -108 281 -108c97 0 166 42 166 113c0 42 -16 74 -48 97c-31 23 -87 48 -167 75c-177 59 -265 158 -265 297c0 83 33 152 100 207s151 83 251 83c103 0 194 -24 274 -71l8 -207h-14c-92 65 -181 98 -268 98c-83 0 -146 -37 -146 -106
c0 -36 16 -66 49 -89s88 -48 166 -75c91 -32 145 -59 198 -104s79 -109 79 -193c0 -98 -37 -176 -110 -235c-73 -58 -162 -87 -267 -87c-129 0 -245 34 -348 101zM270 1153h-164l193 281h262l193 -281h-164l-160 152z" />
    <glyph glyph-name="Scedilla" unicode="&#x15e;" horiz-adv-x="1056" 
d="M98 121l13 280h20c108 -139 224 -225 383 -225c69 0 124 19 165 56c41 38 62 88 62 151c0 68 -22 123 -66 164c-44 42 -114 84 -210 127c-228 100 -354 231 -354 420c0 74 20 139 59 196c79 113 211 172 360 172c147 0 262 -37 344 -110l11 -256h-27
c-107 116 -217 174 -330 174c-57 0 -105 -16 -143 -47s-57 -71 -57 -121c0 -54 23 -101 70 -140s123 -81 227 -126c231 -100 354 -230 354 -430c0 -124 -41 -227 -123 -308s-189 -123 -321 -127l-66 -92c38 11 74 17 109 17c108 0 174 -71 174 -179c0 -64 -24 -115 -71 -152
c-47 -38 -110 -57 -189 -57c-69 0 -130 10 -181 29l-22 129l20 6c52 -31 103 -47 154 -47c59 0 106 32 106 88s-45 90 -100 90c-36 0 -95 -12 -123 -24l-14 16l78 185c-125 18 -229 65 -312 141z" />
    <glyph glyph-name="scedilla" unicode="&#x15f;" horiz-adv-x="860" 
d="M72 72l49 204h12c89 -72 183 -108 281 -108c97 0 166 42 166 113c0 42 -16 74 -48 97c-31 23 -87 48 -167 75c-177 59 -265 158 -265 297c0 83 33 152 100 207s151 83 251 83c103 0 194 -24 274 -71l8 -207h-14c-92 65 -181 98 -268 98c-83 0 -146 -37 -146 -106
c0 -36 16 -66 49 -89s88 -48 166 -75c91 -32 145 -59 198 -104s79 -109 79 -193c0 -93 -33 -169 -100 -226c-66 -57 -149 -89 -248 -96l-66 -92c38 11 74 17 109 17c108 0 174 -71 174 -179c0 -64 -24 -115 -71 -152c-47 -38 -110 -57 -189 -57c-69 0 -130 10 -181 29
l-22 129l20 6c52 -31 103 -47 154 -47c59 0 106 32 106 88s-45 90 -100 90c-36 0 -95 -12 -123 -24l-14 16l78 182c-93 13 -177 45 -252 95z" />
    <glyph glyph-name="Scaron" unicode="&#x160;" horiz-adv-x="1056" 
d="M98 121l13 280h20c108 -139 224 -225 383 -225c69 0 124 19 165 56c41 38 62 88 62 151c0 68 -22 123 -66 164c-44 42 -114 84 -210 127c-228 100 -354 231 -354 420c0 74 20 139 59 196c79 113 211 172 360 172c147 0 262 -37 344 -110l11 -256h-27
c-107 116 -217 174 -330 174c-57 0 -105 -16 -143 -47s-57 -71 -57 -121c0 -54 23 -101 70 -140s123 -81 227 -126c231 -100 354 -230 354 -430c0 -127 -43 -231 -129 -313c-85 -81 -196 -122 -332 -122c-181 0 -327 65 -420 150zM403 1575l-192 280h164l160 -151l159 151
h164l-192 -280h-263z" />
    <glyph glyph-name="scaron" unicode="&#x161;" horiz-adv-x="860" 
d="M72 72l49 204h12c89 -72 183 -108 281 -108c97 0 166 42 166 113c0 42 -16 74 -48 97c-31 23 -87 48 -167 75c-177 59 -265 158 -265 297c0 83 33 152 100 207s151 83 251 83c103 0 194 -24 274 -71l8 -207h-14c-92 65 -181 98 -268 98c-83 0 -146 -37 -146 -106
c0 -36 16 -66 49 -89s88 -48 166 -75c91 -32 145 -59 198 -104s79 -109 79 -193c0 -98 -37 -176 -110 -235c-73 -58 -162 -87 -267 -87c-129 0 -245 34 -348 101zM299 1153l-193 281h164l160 -152l160 152h164l-193 -281h-262z" />
    <glyph glyph-name="uni0162" unicode="&#x162;" horiz-adv-x="1101" 
d="M432 1229h-360v205h958v-205h-360v-1229h-238v1229zM414 -285c0 39 13 73 38 101c26 27 58 41 97 41c40 0 73 -14 99 -42c27 -28 40 -62 40 -102c0 -157 -77 -277 -231 -358l-19 47c69 49 103 99 111 180c-35 0 -67 13 -94 39s-41 57 -41 94z" />
    <glyph glyph-name="uni0163" unicode="&#x163;" horiz-adv-x="788" 
d="M205 823h-180v189h180v192l217 99v-291h283v-189h-283v-538c0 -40 12 -71 36 -93c24 -21 52 -32 83 -32c59 0 114 21 166 63h18l-20 -200c-65 -35 -136 -52 -211 -52c-85 0 -154 27 -208 80c-54 54 -81 132 -81 234v538zM338 -285c0 39 13 73 38 101c26 27 58 41 97 41
c40 0 73 -14 99 -42c27 -28 40 -62 40 -102c0 -157 -77 -277 -231 -358l-19 47c69 49 103 99 111 180c-35 0 -67 13 -94 39s-41 57 -41 94z" />
    <glyph glyph-name="Tcaron" unicode="&#x164;" horiz-adv-x="1101" 
d="M432 1229h-360v205h958v-205h-360v-1229h-238v1229zM420 1575l-193 280h164l160 -151l160 151h163l-192 -280h-262z" />
    <glyph glyph-name="tcaron" unicode="&#x165;" horiz-adv-x="1083" 
d="M205 823h-180v189h180v192l217 99v-291h283v-189h-283v-538c0 -40 12 -71 36 -93c24 -21 52 -32 83 -32c59 0 114 21 166 63h18l-20 -200c-65 -35 -136 -52 -211 -52c-85 0 -154 27 -208 80c-54 54 -81 132 -81 234v538zM772 1311c0 40 13 74 38 101c25 28 57 42 95 42
c41 0 75 -14 102 -42s40 -62 40 -103c0 -138 -73 -258 -218 -359l-38 41c72 61 110 112 114 189c-35 0 -66 13 -93 39c-27 27 -40 57 -40 92z" />
    <glyph glyph-name="Tbar" unicode="&#x166;" horiz-adv-x="1101" 
d="M432 1229h-360v205h958v-205h-360v-326h282v-162h-282v-743h-238v743h-282v162h282v326z" />
    <glyph glyph-name="tbar" unicode="&#x167;" horiz-adv-x="788" 
d="M205 823h-180v189h180v192l217 99v-291h283v-189h-283v-223h264v-147h-264v-168c0 -40 12 -71 36 -93c24 -21 52 -32 83 -32c59 0 114 21 166 63h18l-20 -200c-65 -35 -136 -52 -211 -52c-85 0 -154 27 -208 80c-54 54 -81 132 -81 234v168h-158v147h158v223z" />
    <glyph glyph-name="Utilde" unicode="&#x168;" horiz-adv-x="1335" 
d="M113 553v881h237v-906c0 -127 39 -223 100 -276c63 -52 134 -76 218 -76s156 24 217 76c61 53 100 149 100 276v906h238v-881c0 -183 -50 -326 -150 -429c-100 -102 -235 -153 -405 -153s-305 51 -405 153c-100 103 -150 246 -150 429zM324 1585h-17l15 170
c56 60 124 90 204 90c68 0 135 -28 172 -56c39 -28 92 -56 140 -56c56 0 115 33 176 98h16l-14 -170c-56 -60 -124 -90 -205 -90c-68 0 -133 28 -172 56c-37 28 -91 56 -139 56c-56 0 -115 -33 -176 -98z" />
    <glyph glyph-name="utilde" unicode="&#x169;" 
d="M109 334v678h217v-623c0 -143 87 -221 219 -221c75 0 137 28 188 83s76 129 76 220v541h217v-1012h-217v137c-35 -49 -83 -89 -146 -120c-62 -31 -127 -46 -196 -46c-107 0 -193 32 -259 97s-99 153 -99 266zM229 1163h-16l14 170c56 60 124 90 205 90
c68 0 134 -28 171 -56c39 -28 92 -56 140 -56c57 0 116 33 177 98h16l-14 -170c-56 -60 -124 -90 -205 -90c-68 0 -133 28 -172 56c-37 29 -91 57 -139 57c-56 0 -115 -33 -177 -99z" />
    <glyph glyph-name="Umacron" unicode="&#x16a;" horiz-adv-x="1335" 
d="M113 553v881h237v-906c0 -127 39 -223 100 -276c63 -52 134 -76 218 -76s156 24 217 76c61 53 100 149 100 276v906h238v-881c0 -183 -50 -326 -150 -429c-100 -102 -235 -153 -405 -153s-305 51 -405 153c-100 103 -150 246 -150 429zM913 1610h-491v162h491v-162z" />
    <glyph glyph-name="umacron" unicode="&#x16b;" 
d="M109 334v678h217v-623c0 -143 87 -221 219 -221c75 0 137 28 188 83s76 129 76 220v541h217v-1012h-217v137c-35 -49 -83 -89 -146 -120c-62 -31 -127 -46 -196 -46c-107 0 -193 32 -259 97s-99 153 -99 266zM817 1188h-491v162h491v-162z" />
    <glyph glyph-name="Ubreve" unicode="&#x16c;" horiz-adv-x="1335" 
d="M113 553v881h237v-906c0 -127 39 -223 100 -276c63 -52 134 -76 218 -76s156 24 217 76c61 53 100 149 100 276v906h238v-881c0 -183 -50 -326 -150 -429c-100 -102 -235 -153 -405 -153s-305 51 -405 153c-100 103 -150 246 -150 429zM426 1815h152
c0 -63 34 -103 90 -103s90 40 90 103h151c0 -70 -22 -128 -67 -173c-44 -45 -102 -67 -174 -67s-130 22 -175 67s-67 103 -67 173z" />
    <glyph glyph-name="ubreve" unicode="&#x16d;" 
d="M109 334v678h217v-623c0 -143 87 -221 219 -221c75 0 137 28 188 83s76 129 76 220v541h217v-1012h-217v137c-35 -49 -83 -89 -146 -120c-62 -31 -127 -46 -196 -46c-107 0 -193 32 -259 97s-99 153 -99 266zM332 1393h151c0 -63 34 -103 90 -103s91 42 91 103h151
c0 -70 -22 -128 -67 -173s-103 -67 -175 -67s-130 22 -175 67c-44 45 -66 103 -66 173z" />
    <glyph glyph-name="Uring" unicode="&#x16e;" horiz-adv-x="1335" 
d="M113 553v881h237v-906c0 -127 39 -223 100 -276c63 -52 134 -76 218 -76s156 24 217 76c61 53 100 149 100 276v906h238v-881c0 -183 -50 -326 -150 -429c-100 -102 -235 -153 -405 -153s-305 51 -405 153c-100 103 -150 246 -150 429zM518 1596c-41 40 -61 89 -61 147
s20 107 61 147s91 60 150 60s109 -20 150 -60s61 -89 61 -147s-20 -107 -61 -147s-91 -60 -150 -60s-109 20 -150 60zM582 1827c-22 -23 -33 -51 -33 -84s11 -61 33 -84c23 -23 51 -35 86 -35s63 12 85 35s33 51 33 84s-11 61 -33 84s-50 35 -85 35s-63 -12 -86 -35z" />
    <glyph glyph-name="uring" unicode="&#x16f;" 
d="M109 334v678h217v-623c0 -143 87 -221 219 -221c75 0 137 28 188 83s76 129 76 220v541h217v-1012h-217v137c-35 -49 -83 -89 -146 -120c-62 -31 -127 -46 -196 -46c-107 0 -193 32 -259 97s-99 153 -99 266zM423 1174c-41 40 -61 89 -61 147s20 107 61 147s91 60 150 60
s109 -20 150 -60s61 -89 61 -147s-20 -107 -61 -147s-91 -60 -150 -60s-109 20 -150 60zM488 1405c-22 -23 -33 -51 -33 -84s11 -61 33 -84s50 -35 85 -35s63 12 85 35c23 23 34 51 34 84s-11 61 -34 84c-22 23 -50 35 -85 35s-63 -12 -85 -35z" />
    <glyph glyph-name="Uhungarumlaut" unicode="&#x170;" horiz-adv-x="1335" 
d="M113 553v881h237v-906c0 -127 39 -223 100 -276c63 -52 134 -76 218 -76s156 24 217 76c61 53 100 149 100 276v906h238v-881c0 -183 -50 -326 -150 -429c-100 -102 -235 -153 -405 -153s-305 51 -405 153c-100 103 -150 246 -150 429zM520 1575h-184l184 280h289z
M883 1575h-185l185 280h288z" />
    <glyph glyph-name="uhungarumlaut" unicode="&#x171;" 
d="M109 334v678h217v-623c0 -143 87 -221 219 -221c75 0 137 28 188 83s76 129 76 220v541h217v-1012h-217v137c-35 -49 -83 -89 -146 -120c-62 -31 -127 -46 -196 -46c-107 0 -193 32 -259 97s-99 153 -99 266zM381 1153h-184l184 281h289zM743 1153h-184l184 281h289z" />
    <glyph glyph-name="Uogonek" unicode="&#x172;" horiz-adv-x="1335" 
d="M113 553v881h237v-906c0 -127 39 -223 100 -276c63 -52 134 -76 218 -76s156 24 217 76c61 53 100 149 100 276v906h238v-881c0 -288 -134 -484 -361 -553c-90 -83 -135 -162 -135 -238c0 -79 56 -131 137 -131c53 0 100 15 140 45l18 -6l-18 -129
c-49 -22 -108 -33 -177 -33c-81 0 -146 21 -194 64s-72 98 -72 166c0 93 40 170 121 233h-14c-170 0 -305 51 -405 153c-100 103 -150 246 -150 429z" />
    <glyph glyph-name="uogonek" unicode="&#x173;" 
d="M109 334v678h217v-623c0 -143 87 -221 219 -221c75 0 137 28 188 83s76 129 76 220v541h217v-1012c-91 -84 -137 -163 -137 -238c0 -79 56 -131 137 -131c53 0 99 15 139 45l19 -6l-19 -129c-49 -22 -107 -33 -176 -33c-81 0 -146 21 -194 64s-72 98 -72 166
c0 105 61 201 162 262h-76v137c-35 -49 -83 -89 -146 -120c-62 -31 -127 -46 -196 -46c-107 0 -193 32 -259 97s-99 153 -99 266z" />
    <glyph glyph-name="Wcircumflex" unicode="&#x174;" horiz-adv-x="1986" 
d="M528 0l-483 1434h252l297 -908l346 908h107l346 -908l297 908h252l-484 -1434h-88l-377 987l-377 -987h-88zM834 1575h-164l192 280h262l193 -280h-164l-160 151z" />
    <glyph glyph-name="wcircumflex" unicode="&#x175;" horiz-adv-x="1576" 
d="M471 0l-444 1012h225l252 -592l241 592h86l242 -592l252 592h225l-444 -1012h-55l-263 649l-262 -649h-55zM629 1153h-164l192 281h263l192 -281h-164l-160 152z" />
    <glyph glyph-name="Ycircumflex" unicode="&#x176;" horiz-adv-x="1224" 
d="M494 623l-465 811h258l325 -598l326 598h258l-465 -811v-623h-237v623zM453 1575h-164l192 280h262l193 -280h-164l-160 151z" />
    <glyph glyph-name="ycircumflex" unicode="&#x177;" horiz-adv-x="1050" 
d="M418 190l-398 822h232l274 -586l279 586h225l-717 -1475h-225zM365 1153h-164l192 281h262l193 -281h-164l-160 152z" />
    <glyph glyph-name="Ydieresis" unicode="&#x178;" horiz-adv-x="1224" 
d="M494 623l-465 811h258l325 -598l326 598h258l-465 -811v-623h-237v623zM332 1616c-25 25 -37 56 -37 92s12 66 37 91s56 38 92 38s66 -13 91 -38s38 -55 38 -91s-13 -67 -38 -92s-55 -37 -91 -37s-67 12 -92 37zM711 1616c-25 25 -37 56 -37 92s12 66 37 91s56 38 92 38
s66 -13 91 -38s38 -55 38 -91s-13 -67 -38 -92s-55 -37 -91 -37s-67 12 -92 37z" />
    <glyph glyph-name="Zacute" unicode="&#x179;" horiz-adv-x="1234" 
d="M1163 0h-1112v31l725 1198h-663v205h1020v-31l-725 -1198h755v-205zM606 1575h-184l184 280h289z" />
    <glyph glyph-name="zacute" unicode="&#x17a;" horiz-adv-x="999" 
d="M911 0h-839v31l487 784h-446v197h786v-31l-487 -784h499v-197zM510 1153h-184l184 281h289z" />
    <glyph glyph-name="Zdotaccent" unicode="&#x17b;" horiz-adv-x="1234" 
d="M1163 0h-1112v31l725 1198h-663v205h1020v-31l-725 -1198h755v-205zM487 1741c0 39 14 72 41 99c28 28 62 42 101 42s73 -14 100 -41s41 -61 41 -100s-14 -73 -42 -101c-27 -27 -60 -41 -99 -41s-73 14 -101 41c-27 28 -41 62 -41 101z" />
    <glyph glyph-name="zdotaccent" unicode="&#x17c;" horiz-adv-x="999" 
d="M911 0h-839v31l487 784h-446v197h786v-31l-487 -784h499v-197zM406 1219c-27 27 -41 61 -41 100s14 73 41 100c28 27 61 41 100 41s72 -14 99 -41c28 -27 42 -61 42 -100s-14 -73 -42 -100c-27 -27 -60 -41 -99 -41s-72 14 -100 41z" />
    <glyph glyph-name="Zcaron" unicode="&#x17d;" horiz-adv-x="1234" 
d="M1163 0h-1112v31l725 1198h-663v205h1020v-31l-725 -1198h755v-205zM489 1575l-192 280h164l160 -151l159 151h164l-192 -280h-263z" />
    <glyph glyph-name="zcaron" unicode="&#x17e;" horiz-adv-x="999" 
d="M911 0h-839v31l487 784h-446v197h786v-31l-487 -784h499v-197zM369 1153l-193 281h164l160 -152l159 152h164l-192 -281h-262z" />
    <glyph glyph-name="longs" unicode="&#x17f;" horiz-adv-x="716" 
d="M203 823h-123v189h123v133c0 98 30 175 91 232s133 85 216 85c61 0 119 -14 174 -43l8 -200h-16c-40 38 -84 57 -131 57c-76 0 -125 -49 -125 -137v-1139h-217v823z" />
    <glyph glyph-name="uni018E" unicode="&#x18e;" horiz-adv-x="1089" 
d="M719 1229h-637v205h874v-1434h-866v205h629v389h-606v205h606v430z" />
    <glyph glyph-name="uni018F" unicode="&#x18f;" horiz-adv-x="1157" 
d="M68 481v80h798c-12 95 -50 167 -114 215c-63 48 -137 72 -220 72c-137 0 -248 -38 -368 -143h-23l9 217c119 79 250 118 393 118c296 6 544 -241 538 -534c0 -100 -23 -191 -69 -273c-45 -82 -107 -146 -186 -193c-78 -46 -164 -69 -257 -69c-103 0 -193 23 -270 68
c-153 92 -231 250 -231 442zM860 406h-581c10 -78 42 -141 95 -190c54 -49 119 -73 195 -73c65 0 125 22 181 67s93 110 110 196z" />
    <glyph glyph-name="florin" unicode="&#x192;" horiz-adv-x="811" 
d="M-285 -399l31 200h21c34 -38 73 -57 118 -57c76 0 126 44 142 123l190 956h-123l37 189h123l27 133c21 105 63 184 126 237s139 80 226 80c70 0 129 -14 178 -43l-31 -200h-20c-34 38 -74 57 -119 57c-76 0 -125 -44 -141 -123l-29 -141h174l-37 -189h-174l-188 -948
c-21 -105 -63 -184 -126 -237s-139 -80 -226 -80c-71 0 -130 14 -179 43z" />
    <glyph glyph-name="uni01B5" unicode="&#x1b5;" horiz-adv-x="1234" 
d="M1163 0h-1112v31l369 610h-283v162h381l258 426h-663v205h1020v-31l-365 -600h332v-162h-430l-262 -436h755v-205z" />
    <glyph glyph-name="uni01B6" unicode="&#x1b6;" horiz-adv-x="999" 
d="M911 0h-839v31l254 409h-176v148h268l141 227h-446v197h786v-31l-246 -393h226v-148h-316l-151 -243h499v-197z" />
    <glyph glyph-name="Aringacute" unicode="&#x1fa;" horiz-adv-x="1396" 
d="M266 0h-231l602 1372c-89 27 -150 106 -150 199c0 58 20 107 61 147s91 60 150 60s109 -20 150 -60s61 -89 61 -147c0 -93 -60 -172 -149 -199l602 -1372h-232l-114 266h-635zM698 995l-227 -524h455zM709 1853h-185l185 281h288zM613 1655c-22 -23 -33 -51 -33 -84
s11 -61 33 -84s50 -35 85 -35s63 12 85 35c23 23 34 51 34 84s-11 61 -34 84c-22 23 -50 35 -85 35s-63 -12 -85 -35z" />
    <glyph glyph-name="aringacute" unicode="&#x1fb;" horiz-adv-x="1251" 
d="M68 506c0 103 24 196 71 278c95 165 260 256 447 256c143 0 263 -59 327 -139v111h217v-1012h-217v111c-88 -89 -184 -140 -335 -140c-135 0 -264 55 -357 147s-153 232 -153 388zM373 745c-59 -65 -88 -145 -88 -239s29 -174 88 -240c59 -65 136 -98 231 -98
s171 33 229 98c58 66 87 146 87 240s-29 174 -87 239c-58 66 -134 99 -229 99s-172 -33 -231 -99zM450 1174c-41 40 -61 89 -61 147s20 107 61 147s91 60 150 60s109 -20 150 -60s61 -89 61 -147s-20 -107 -61 -147s-91 -60 -150 -60s-109 20 -150 60zM635 1604h-184
l184 280h289zM514 1405c-22 -23 -33 -51 -33 -84s11 -61 33 -84c23 -23 51 -35 86 -35s63 12 85 35c23 23 34 51 34 84s-11 61 -34 84c-22 23 -50 35 -85 35s-63 -12 -86 -35z" />
    <glyph glyph-name="AEacute" unicode="&#x1fc;" horiz-adv-x="2033" 
d="M266 0h-231l629 1434h698l92 -205h-629l170 -389h582l86 -205h-578l189 -430h637l88 -205h-869l-114 266h-635zM698 995l-227 -524h453zM985 1575h-184l184 280h289z" />
    <glyph glyph-name="aeacute" unicode="&#x1fd;" horiz-adv-x="1753" 
d="M57 262c0 79 23 144 69 197c93 105 248 147 460 147h86c-2 84 -24 148 -65 192s-92 66 -152 66c-107 0 -200 -42 -279 -125h-33l19 203c40 27 90 50 149 69s119 29 178 29c135 0 251 -57 330 -157c93 99 226 157 367 157c103 0 192 -23 269 -69
c155 -91 233 -249 233 -441v-79h-799c12 -95 50 -167 113 -215c64 -48 138 -72 221 -72c137 0 248 38 368 143h23l-8 -217c-120 -79 -251 -119 -394 -119c-177 0 -334 80 -434 213c-93 -147 -236 -213 -393 -213c-93 0 -171 28 -234 84s-94 125 -94 207zM274 279
c0 -75 61 -127 146 -127c69 0 128 26 177 79c50 53 75 126 75 220c-267 0 -398 -52 -398 -172zM907 1153h-184l184 281h289zM895 606h582c-10 78 -42 141 -96 189c-54 49 -119 73 -195 73c-65 0 -125 -22 -181 -67c-56 -44 -93 -109 -110 -195z" />
    <glyph glyph-name="circumflex" unicode="&#x2c6;" horiz-adv-x="802" 
d="M242 1153h-164l192 281h262l193 -281h-164l-160 152z" />
    <glyph glyph-name="caron" unicode="&#x2c7;" horiz-adv-x="802" 
d="M270 1153l-192 281h164l159 -152l160 152h164l-193 -281h-262z" />
    <glyph glyph-name="breve" unicode="&#x2d8;" horiz-adv-x="581" 
d="M49 1393h152c0 -63 34 -103 90 -103s90 40 90 103h151c0 -70 -22 -128 -67 -173c-44 -45 -102 -67 -174 -67s-130 22 -175 67s-67 103 -67 173z" />
    <glyph glyph-name="dotaccent" unicode="&#x2d9;" horiz-adv-x="462" 
d="M131 1219c-27 27 -41 61 -41 100s14 73 41 100s61 41 100 41s73 -14 100 -42c28 -27 42 -60 42 -99s-14 -72 -42 -100c-27 -27 -61 -41 -100 -41s-73 14 -100 41z" />
    <glyph glyph-name="ring" unicode="&#x2da;" horiz-adv-x="995" 
d="M348 1174c-41 40 -61 89 -61 147s20 107 61 147s91 60 150 60s109 -20 150 -60s61 -89 61 -147s-20 -107 -61 -147s-91 -60 -150 -60s-109 20 -150 60zM412 1405c-22 -23 -33 -51 -33 -84s11 -61 33 -84c23 -23 51 -35 86 -35s63 12 85 35s33 51 33 84s-11 61 -33 84
s-50 35 -85 35s-63 -12 -86 -35z" />
    <glyph glyph-name="ogonek" unicode="&#x2db;" horiz-adv-x="665" 
d="M131 -262c0 63 21 122 62 175c42 53 98 93 167 122l74 -35c-91 -84 -137 -163 -137 -238c0 -79 56 -131 137 -131c53 0 99 15 139 45l19 -6l-19 -129c-49 -22 -107 -33 -176 -33c-81 0 -146 21 -194 64s-72 98 -72 166z" />
    <glyph glyph-name="tilde" unicode="&#x2dc;" horiz-adv-x="1071" 
d="M190 1163h-16l14 170c56 60 124 90 205 90c68 0 135 -28 172 -56c39 -28 92 -56 140 -56c56 0 115 33 176 98h16l-14 -170c-56 -60 -124 -90 -205 -90c-68 0 -133 28 -172 56c-37 29 -91 57 -139 57c-56 0 -115 -33 -177 -99z" />
    <glyph glyph-name="hungarumlaut" unicode="&#x2dd;" horiz-adv-x="983" 
d="M258 1153h-184l184 281h289zM621 1153h-185l185 281h288z" />
    <glyph glyph-name="pi" unicode="&#x3c0;" horiz-adv-x="1214" 
d="M180 844h-157v168h1169v-168h-158v-844h-217v844h-420v-844h-217v844z" />
    <glyph glyph-name="uni2000" unicode="&#x2000;" horiz-adv-x="1067" 
 />
    <glyph glyph-name="uni2001" unicode="&#x2001;" horiz-adv-x="2134" 
 />
    <glyph glyph-name="uni2002" unicode="&#x2002;" horiz-adv-x="1067" 
 />
    <glyph glyph-name="uni2003" unicode="&#x2003;" horiz-adv-x="2134" 
 />
    <glyph glyph-name="uni2004" unicode="&#x2004;" horiz-adv-x="711" 
 />
    <glyph glyph-name="uni2005" unicode="&#x2005;" horiz-adv-x="533" 
 />
    <glyph glyph-name="uni2006" unicode="&#x2006;" horiz-adv-x="355" 
 />
    <glyph glyph-name="uni2007" unicode="&#x2007;" horiz-adv-x="355" 
 />
    <glyph glyph-name="uni2008" unicode="&#x2008;" horiz-adv-x="266" 
 />
    <glyph glyph-name="uni2009" unicode="&#x2009;" horiz-adv-x="426" 
 />
    <glyph glyph-name="uni200A" unicode="&#x200a;" horiz-adv-x="118" 
 />
    <glyph glyph-name="uni2010" unicode="&#x2010;" horiz-adv-x="815" 
d="M733 561h-651v176h651v-176z" />
    <glyph glyph-name="uni2011" unicode="&#x2011;" horiz-adv-x="815" 
d="M733 561h-651v176h651v-176z" />
    <glyph glyph-name="figuredash" unicode="&#x2012;" horiz-adv-x="815" 
d="M733 561h-651v176h651v-176z" />
    <glyph glyph-name="endash" unicode="&#x2013;" horiz-adv-x="1122" 
d="M1040 561h-958v176h958v-176z" />
    <glyph glyph-name="emdash" unicode="&#x2014;" horiz-adv-x="1798" 
d="M1716 561h-1634v176h1634v-176z" />
    <glyph glyph-name="quoteleft" unicode="&#x2018;" horiz-adv-x="438" 
d="M82 1096c0 138 72 257 217 358l39 -41c-73 -61 -111 -111 -115 -188c35 0 66 -13 93 -40c27 -26 40 -56 40 -91c0 -40 -13 -74 -38 -102s-57 -42 -95 -42c-41 0 -75 14 -102 42c-26 29 -39 63 -39 104z" />
    <glyph glyph-name="quoteright" unicode="&#x2019;" horiz-adv-x="438" 
d="M82 1311c0 40 13 74 38 101c25 28 57 42 95 42c41 0 75 -14 101 -42c27 -28 40 -62 40 -103c0 -139 -72 -258 -217 -359l-39 41c73 61 111 112 115 189c-35 0 -66 13 -93 39c-27 27 -40 57 -40 92z" />
    <glyph glyph-name="quotesinglbase" unicode="&#x201a;" horiz-adv-x="454" 
d="M90 131c0 40 13 74 38 101c25 28 57 42 95 42c41 0 75 -14 102 -42s40 -62 40 -103c0 -137 -73 -257 -218 -358l-38 41c73 61 110 111 114 188c-35 0 -66 13 -93 39c-27 27 -40 57 -40 92z" />
    <glyph glyph-name="quotedblleft" unicode="&#x201c;" horiz-adv-x="780" 
d="M82 1096c0 138 72 257 217 358l39 -41c-73 -61 -111 -111 -115 -188c35 0 66 -13 93 -40c27 -26 40 -56 40 -91c0 -40 -13 -74 -38 -102s-57 -42 -95 -42c-41 0 -75 14 -102 42c-26 29 -39 63 -39 104zM424 1096c0 138 72 257 217 358l39 -41
c-73 -61 -111 -111 -115 -188c35 0 66 -13 93 -40c27 -26 40 -56 40 -91c0 -40 -13 -74 -38 -102s-57 -42 -95 -42c-41 0 -75 14 -102 42c-26 29 -39 63 -39 104z" />
    <glyph glyph-name="quotedblright" unicode="&#x201d;" horiz-adv-x="780" 
d="M82 1311c0 40 13 74 38 101c25 28 57 42 95 42c41 0 75 -14 101 -42c27 -28 40 -62 40 -103c0 -139 -72 -258 -217 -359l-39 41c73 61 111 112 115 189c-35 0 -66 13 -93 39c-27 27 -40 57 -40 92zM424 1311c0 40 13 74 38 101c25 28 57 42 95 42c41 0 75 -14 101 -42
c27 -28 40 -62 40 -103c0 -139 -72 -258 -217 -359l-39 41c73 61 111 112 115 189c-35 0 -66 13 -93 39c-27 27 -40 57 -40 92z" />
    <glyph glyph-name="quotedblbase" unicode="&#x201e;" horiz-adv-x="796" 
d="M90 131c0 40 13 74 38 101c25 28 57 42 95 42c41 0 75 -14 102 -42s40 -62 40 -103c0 -137 -73 -257 -218 -358l-38 41c73 61 110 111 114 188c-35 0 -66 13 -93 39c-27 27 -40 57 -40 92zM432 131c0 40 13 74 38 101c25 28 57 42 95 42c41 0 75 -14 102 -42
s40 -62 40 -103c0 -137 -73 -257 -218 -358l-38 41c73 61 110 111 114 188c-35 0 -66 13 -93 39c-27 27 -40 57 -40 92z" />
    <glyph glyph-name="dagger" unicode="&#x2020;" horiz-adv-x="778" 
d="M279 827h-246v185h246v422h217v-422h249v-185h-249v-1290h-217v1290z" />
    <glyph glyph-name="daggerdbl" unicode="&#x2021;" horiz-adv-x="778" 
d="M279 0h-246v184h246v643h-246v185h246v422h217v-422h249v-185h-249v-643h249v-184h-249v-463h-217v463z" />
    <glyph glyph-name="bullet" unicode="&#x2022;" horiz-adv-x="659" 
d="M189 596c-39 39 -58 86 -58 141s19 102 58 141s86 58 141 58s102 -19 140 -58c39 -39 58 -86 58 -141s-19 -102 -58 -141c-38 -38 -85 -57 -140 -57s-102 19 -141 57z" />
    <glyph glyph-name="ellipsis" unicode="&#x2026;" horiz-adv-x="1359" 
d="M130 20c-27 27 -40 59 -40 97s13 70 40 97s59 40 97 40s70 -13 97 -40s41 -59 41 -97s-14 -70 -41 -97s-59 -40 -97 -40s-70 13 -97 40zM583 20c-27 27 -40 59 -40 97s13 70 40 97s59 40 97 40s70 -13 97 -40s40 -59 40 -97s-13 -70 -40 -97s-59 -40 -97 -40
s-70 13 -97 40zM1035 20c-27 27 -40 59 -40 97s13 70 40 97s60 40 98 40s70 -13 97 -40s40 -59 40 -97s-13 -70 -40 -97s-59 -40 -97 -40s-71 13 -98 40z" />
    <glyph glyph-name="uni202F" unicode="&#x202f;" horiz-adv-x="426" 
 />
    <glyph glyph-name="perthousand" unicode="&#x2030;" horiz-adv-x="2039" 
d="M173 908c-65 63 -97 140 -97 231s32 168 97 230s144 93 237 93s171 -31 236 -93s97 -139 97 -230s-32 -168 -97 -231c-65 -62 -143 -93 -236 -93s-172 31 -237 93zM201 412l-60 114l961 498l59 -115zM287 1266c-34 -33 -51 -75 -51 -127s17 -94 51 -127s75 -49 123 -49
s89 16 123 49s51 75 51 127s-17 94 -51 127s-75 49 -123 49s-89 -16 -123 -49zM664 64c-65 63 -97 140 -97 231s32 168 97 230s144 93 237 93s171 -31 236 -93s98 -139 98 -230s-33 -168 -98 -231c-65 -62 -143 -93 -236 -93s-172 31 -237 93zM778 422
c-34 -33 -51 -75 -51 -127s17 -94 51 -127s75 -49 123 -49s89 16 123 49s51 75 51 127s-17 94 -51 127s-75 49 -123 49s-89 -16 -123 -49zM1402 64c-65 63 -97 140 -97 231s32 168 97 230s143 93 236 93s171 -31 236 -93s98 -139 98 -230s-33 -168 -98 -231
c-65 -62 -143 -93 -236 -93s-171 31 -236 93zM1515 422c-34 -33 -51 -75 -51 -127s17 -94 51 -127s75 -49 123 -49s89 16 123 49s51 75 51 127s-17 94 -51 127s-75 49 -123 49s-89 -16 -123 -49z" />
    <glyph glyph-name="guilsinglleft" unicode="&#x2039;" horiz-adv-x="655" 
d="M541 244l-475 407v119l475 408h32v-209l-301 -258l301 -258v-209h-32z" />
    <glyph glyph-name="guilsinglright" unicode="&#x203a;" horiz-adv-x="655" 
d="M115 244h-33v209l301 258l-301 258v209h33l475 -408v-119z" />
    <glyph glyph-name="fraction" unicode="&#x2044;" horiz-adv-x="1306" 
d="M203 412l-60 114l961 498l59 -115z" />
    <glyph glyph-name="uni205F" unicode="&#x205f;" horiz-adv-x="533" 
 />
    <glyph glyph-name="zerosuperior" unicode="&#x2070;" horiz-adv-x="729" 
d="M134 806c-58 70 -87 160 -87 269s29 199 87 268c58 70 135 105 231 105s173 -35 230 -105c58 -69 87 -159 87 -268s-29 -199 -87 -269c-57 -69 -134 -104 -230 -104s-173 35 -231 104zM239 1256c-31 -43 -46 -103 -46 -181s15 -139 46 -182s73 -64 126 -64s95 21 126 64
s46 104 46 182s-15 138 -46 181s-73 65 -126 65s-95 -22 -126 -65z" />
    <glyph glyph-name="foursuperior" unicode="&#x2074;" horiz-adv-x="612" 
d="M346 868h-326v95l392 471h77v-441h97v-125h-97v-151h-143v151zM346 1182l-156 -189h156v189z" />
    <glyph glyph-name="fivesuperior" unicode="&#x2075;" horiz-adv-x="575" 
d="M78 735l-31 158h19c59 -43 123 -64 190 -64c83 0 137 48 137 129s-54 129 -137 129c-58 0 -116 -17 -174 -51l-33 6l47 392h408v-123h-299l-23 -131c35 13 73 20 115 20c152 0 244 -90 244 -242c0 -78 -27 -140 -80 -187c-53 -46 -119 -69 -197 -69
c-69 0 -131 11 -186 33z" />
    <glyph glyph-name="sixsuperior" unicode="&#x2076;" horiz-adv-x="606" 
d="M41 1044c0 72 12 138 35 198c23 61 59 110 107 148c49 39 106 58 171 58c56 0 103 -13 140 -39l14 -137h-19c-37 35 -83 53 -137 53c-88 0 -153 -70 -162 -197c43 35 93 52 150 52c67 0 123 -22 166 -66c43 -43 65 -99 65 -166s-25 -125 -76 -174
c-51 -48 -111 -72 -182 -72c-90 0 -159 34 -207 101c-43 59 -65 140 -65 241zM227 1031c-21 -23 -32 -52 -32 -87s11 -65 32 -88c22 -23 51 -35 86 -35s64 12 86 35s33 53 33 88s-11 64 -33 87s-51 34 -86 34s-64 -11 -86 -34z" />
    <glyph glyph-name="sevensuperior" unicode="&#x2077;" horiz-adv-x="577" 
d="M362 1309h-327v125h522v-27l-342 -690h-154z" />
    <glyph glyph-name="eightsuperior" unicode="&#x2078;" horiz-adv-x="581" 
d="M41 924c0 85 45 147 109 182c-55 45 -82 96 -82 151c0 53 21 98 62 135c42 37 96 56 161 56s119 -19 160 -56c42 -37 63 -82 63 -135c0 -55 -27 -106 -82 -151c64 -35 109 -97 109 -182c0 -59 -23 -111 -70 -156c-47 -44 -107 -66 -180 -66s-133 22 -180 66
c-47 45 -70 97 -70 156zM207 1020c-22 -22 -33 -50 -33 -84s11 -62 33 -84c23 -22 51 -33 84 -33s61 11 83 33c23 22 34 50 34 84s-11 62 -34 84c-22 22 -50 33 -83 33s-61 -11 -84 -33zM225 1312c-35 -33 -35 -93 0 -126c18 -17 40 -25 66 -25s48 8 65 25
c36 33 36 93 0 126c-17 17 -39 25 -65 25s-48 -8 -66 -25z" />
    <glyph glyph-name="ninesuperior" unicode="&#x2079;" horiz-adv-x="606" 
d="M35 1202c0 67 25 125 76 173c51 49 111 73 182 73c91 0 160 -33 207 -100c43 -59 65 -140 65 -242c0 -72 -12 -138 -35 -199c-23 -60 -59 -109 -108 -148c-48 -38 -105 -57 -170 -57c-55 0 -102 13 -139 39l-15 138h19c38 -36 84 -54 137 -54c88 0 153 70 162 197
c-42 -34 -92 -51 -150 -51c-65 0 -119 22 -164 65c-45 44 -67 99 -67 166zM207 1294c-22 -23 -33 -53 -33 -88s11 -64 33 -87s51 -34 86 -34s64 11 86 34s33 52 33 87s-11 65 -33 88s-51 35 -86 35s-64 -12 -86 -35z" />
    <glyph glyph-name="zeroinferior" unicode="&#x2080;" horiz-adv-x="729" 
d="M134 -372c-58 69 -87 159 -87 268s29 199 87 268s135 104 231 104s173 -35 230 -104c58 -69 87 -159 87 -268s-29 -199 -87 -268c-57 -70 -134 -105 -230 -105s-173 35 -231 105zM239 77c-31 -43 -46 -103 -46 -181s15 -138 46 -181s73 -65 126 -65s95 22 126 65
s46 103 46 181s-15 138 -46 181s-73 64 -126 64s-95 -21 -126 -64z" />
    <glyph glyph-name="oneinferior" unicode="&#x2081;" horiz-adv-x="266" 
d="M61 -463v649l97 68h47v-717h-144z" />
    <glyph glyph-name="twoinferior" unicode="&#x2082;" horiz-adv-x="587" 
d="M29 -463v25l276 336c44 54 66 104 66 151c0 57 -45 98 -113 98c-65 0 -125 -47 -166 -112h-33l9 151c57 55 127 82 211 82c149 0 239 -84 239 -209c0 -76 -32 -148 -112 -241l-132 -156h271v-125h-516z" />
    <glyph glyph-name="threeinferior" unicode="&#x2083;" horiz-adv-x="598" 
d="M299 129h-244v125h469v-18l-170 -218c117 -21 199 -101 199 -229c0 -85 -27 -150 -80 -196c-53 -47 -119 -70 -199 -70c-82 0 -149 16 -202 49l-15 149h21c63 -49 125 -73 186 -73c85 0 139 46 139 135c0 83 -58 133 -139 133c-31 0 -57 -3 -78 -10l-22 43z" />
    <glyph glyph-name="fourinferior" unicode="&#x2084;" horiz-adv-x="612" 
d="M20 -311v94l392 471h77v-440h97v-125h-97v-152h-143v152h-326zM346 2l-156 -188h156v188z" />
    <glyph glyph-name="fiveinferior" unicode="&#x2085;" horiz-adv-x="575" 
d="M78 -444l-31 157h19c59 -42 122 -63 190 -63c83 0 137 48 137 129s-54 129 -137 129c-58 0 -116 -17 -174 -51l-33 6l47 391h408v-123h-299l-23 -131c35 13 73 20 115 20c152 0 244 -89 244 -241c0 -78 -27 -140 -80 -186c-53 -47 -119 -70 -197 -70
c-69 0 -131 11 -186 33z" />
    <glyph glyph-name="sixinferior" unicode="&#x2086;" horiz-adv-x="606" 
d="M41 -135c0 72 12 138 35 198s59 109 107 147c49 39 106 58 171 58c56 0 103 -13 140 -39l14 -137h-19c-37 35 -83 53 -137 53c-88 0 -153 -69 -162 -196c42 34 92 51 150 51c67 0 123 -22 166 -65s65 -99 65 -166s-25 -125 -76 -173c-51 -49 -111 -73 -182 -73
c-91 0 -160 33 -207 100c-43 59 -65 140 -65 242zM227 -149c-21 -23 -32 -52 -32 -87s11 -64 32 -87c22 -23 51 -35 86 -35s64 12 86 35s33 52 33 87s-11 64 -33 87s-51 34 -86 34s-64 -11 -86 -34z" />
    <glyph glyph-name="seveninferior" unicode="&#x2087;" horiz-adv-x="577" 
d="M362 129h-327v125h522v-27l-342 -690h-154z" />
    <glyph glyph-name="eightinferior" unicode="&#x2088;" horiz-adv-x="581" 
d="M41 -256c0 85 45 147 109 182c-55 45 -82 96 -82 152c0 53 21 98 62 135c42 37 96 55 161 55s119 -18 160 -55c42 -37 63 -82 63 -135c0 -56 -27 -107 -82 -152c64 -35 109 -97 109 -182c0 -59 -23 -111 -70 -155s-107 -66 -180 -66s-133 22 -180 66s-70 96 -70 155z
M207 -160c-22 -22 -33 -50 -33 -84s11 -62 33 -83c23 -22 51 -33 84 -33s61 11 83 33c23 21 34 49 34 83s-11 62 -34 84c-22 22 -50 33 -83 33s-61 -11 -84 -33zM225 133c-35 -33 -35 -93 0 -126c18 -17 40 -25 66 -25s48 8 65 25c36 33 36 93 0 126c-17 17 -39 25 -65 25
s-48 -8 -66 -25z" />
    <glyph glyph-name="nineinferior" unicode="&#x2089;" horiz-adv-x="606" 
d="M35 23c0 67 25 125 76 173s111 72 182 72c91 0 160 -33 207 -100c43 -59 65 -140 65 -242c0 -72 -12 -138 -35 -198s-59 -109 -108 -147c-48 -39 -105 -58 -170 -58c-55 0 -102 13 -139 39l-15 137h19c37 -35 83 -53 137 -53c88 0 153 69 162 196
c-42 -34 -92 -51 -150 -51c-65 0 -119 22 -164 66s-67 99 -67 166zM207 115c-22 -23 -33 -53 -33 -88s11 -64 33 -87s51 -34 86 -34s64 11 86 34s33 52 33 87s-11 65 -33 88s-51 35 -86 35s-64 -12 -86 -35z" />
    <glyph glyph-name="Euro" unicode="&#x20ac;" horiz-adv-x="1294" 
d="M176 492h-151l53 151h69c-1 17 -2 41 -2 74s1 57 2 74h-122l53 151h98c43 153 123 277 241 374s261 146 429 146c136 0 247 -32 332 -96l20 -231h-27c-105 87 -204 122 -340 122c-91 0 -174 -27 -250 -82c-75 -54 -130 -132 -163 -233h565l-53 -151h-543
c-3 -31 -4 -55 -4 -74s1 -43 4 -74h596l-53 -151h-512c33 -102 88 -180 163 -235c76 -54 159 -81 250 -81c136 0 235 35 340 123h27l-20 -231c-86 -65 -197 -97 -332 -97c-169 0 -323 56 -435 151s-194 222 -235 370z" />
    <glyph glyph-name="trademark" unicode="&#x2122;" horiz-adv-x="1443" 
d="M221 1317h-180v117h500v-117h-181v-600h-139v600zM664 717h-138l197 717h39l203 -453l202 453h39l197 -717h-137l-103 395l-184 -395h-29l-184 395z" />
    <glyph glyph-name="Omega" unicode="&#x2126;" horiz-adv-x="1658" 
d="M111 791c0 126 31 240 93 342c62 103 148 183 257 241c110 59 233 88 368 88s258 -29 368 -88c110 -58 196 -138 258 -241c62 -102 93 -216 93 -342c0 -113 -28 -225 -84 -334c-55 -109 -123 -193 -204 -252h266v-205h-590v160c101 61 184 135 257 235
c73 101 118 232 118 375c0 149 -45 268 -135 355c-89 88 -205 132 -347 132s-258 -44 -347 -132c-89 -87 -134 -206 -134 -355c0 -143 45 -274 118 -375c73 -100 156 -174 257 -235v-160h-590v205h266c-81 59 -149 143 -205 252c-55 109 -83 221 -83 334z" />
    <glyph glyph-name="onethird" unicode="&#x2153;" horiz-adv-x="1073" 
d="M86 207l-59 115l960 497l60 -114zM410 717h-144v649l96 68h48v-717zM721 129h-244v125h469v-18l-170 -218c117 -21 199 -101 199 -229c0 -85 -27 -150 -80 -196c-53 -47 -119 -70 -199 -70c-82 0 -149 16 -202 49l-15 149h21c63 -49 125 -73 186 -73c85 0 139 46 139 135
c0 83 -58 133 -139 133c-31 0 -57 -3 -78 -10l-22 43z" />
    <glyph glyph-name="twothirds" unicode="&#x2154;" horiz-adv-x="1101" 
d="M543 717h-516v24l276 336c44 54 66 105 66 152c0 57 -45 98 -113 98c-65 0 -125 -48 -166 -113h-33l9 152c57 55 127 82 210 82c149 0 240 -84 240 -209c0 -73 -38 -153 -113 -242l-131 -155h271v-125zM115 207l-60 115l961 497l59 -114zM750 129h-244v125h469v-18
l-170 -218c117 -21 199 -101 199 -229c0 -85 -27 -150 -80 -196c-53 -47 -119 -70 -199 -70c-83 0 -150 16 -203 49l-14 149h20c63 -49 125 -73 187 -73c85 0 139 46 139 135c0 83 -58 133 -139 133c-31 0 -57 -3 -78 -10l-23 43z" />
    <glyph glyph-name="oneeighth" unicode="&#x215b;" horiz-adv-x="1073" 
d="M86 207l-59 115l960 497l60 -114zM410 717h-144v649l96 68h48v-717zM430 -256c0 85 45 147 109 182c-55 45 -82 96 -82 152c0 53 21 98 62 135c42 37 96 55 161 55s119 -18 160 -55c42 -37 63 -82 63 -135c0 -56 -27 -107 -82 -152c64 -35 109 -97 109 -182
c0 -59 -23 -111 -70 -155s-107 -66 -180 -66s-133 22 -180 66s-70 96 -70 155zM596 -160c-22 -22 -33 -50 -33 -84s11 -62 33 -83c23 -22 51 -33 84 -33s61 11 83 33c23 21 34 49 34 83s-11 62 -34 84c-22 22 -50 33 -83 33s-61 -11 -84 -33zM614 133
c-35 -33 -35 -93 0 -126c18 -17 40 -25 66 -25s48 8 65 25c36 33 36 93 0 126c-17 17 -39 25 -65 25s-48 -8 -66 -25z" />
    <glyph glyph-name="threeeighths" unicode="&#x215c;" horiz-adv-x="1073" 
d="M86 207l-59 115l960 497l60 -114zM311 1309h-243v125h469v-19l-170 -217c116 -21 198 -101 198 -229c0 -85 -26 -150 -79 -197s-119 -70 -199 -70c-81 0 -149 17 -203 50l-14 149h20c63 -49 125 -74 186 -74c85 0 140 47 140 136c0 83 -57 133 -140 133
c-29 0 -54 -4 -77 -11l-23 43zM430 -256c0 85 45 147 109 182c-55 45 -82 96 -82 152c0 53 21 98 62 135c42 37 96 55 161 55s119 -18 160 -55c42 -37 63 -82 63 -135c0 -56 -27 -107 -82 -152c64 -35 109 -97 109 -182c0 -59 -23 -111 -70 -155s-107 -66 -180 -66
s-133 22 -180 66s-70 96 -70 155zM596 -160c-22 -22 -33 -50 -33 -84s11 -62 33 -83c23 -22 51 -33 84 -33s61 11 83 33c23 21 34 49 34 83s-11 62 -34 84c-22 22 -50 33 -83 33s-61 -11 -84 -33zM614 133c-35 -33 -35 -93 0 -126c18 -17 40 -25 66 -25s48 8 65 25
c36 33 36 93 0 126c-17 17 -39 25 -65 25s-48 -8 -66 -25z" />
    <glyph glyph-name="fiveeighths" unicode="&#x215d;" horiz-adv-x="1073" 
d="M86 207l-59 115l960 497l60 -114zM78 735l-31 158h19c59 -43 123 -64 190 -64c83 0 137 48 137 129s-54 129 -137 129c-58 0 -116 -17 -174 -51l-33 6l47 392h408v-123h-299l-23 -131c35 13 73 20 115 20c152 0 244 -90 244 -242c0 -78 -27 -140 -80 -187
c-53 -46 -119 -69 -197 -69c-69 0 -131 11 -186 33zM430 -256c0 85 45 147 109 182c-55 45 -82 96 -82 152c0 53 21 98 62 135c42 37 96 55 161 55s119 -18 160 -55c42 -37 63 -82 63 -135c0 -56 -27 -107 -82 -152c64 -35 109 -97 109 -182c0 -59 -23 -111 -70 -155
s-107 -66 -180 -66s-133 22 -180 66s-70 96 -70 155zM596 -160c-22 -22 -33 -50 -33 -84s11 -62 33 -83c23 -22 51 -33 84 -33s61 11 83 33c23 21 34 49 34 83s-11 62 -34 84c-22 22 -50 33 -83 33s-61 -11 -84 -33zM614 133c-35 -33 -35 -93 0 -126c18 -17 40 -25 66 -25
s48 8 65 25c36 33 36 93 0 126c-17 17 -39 25 -65 25s-48 -8 -66 -25z" />
    <glyph glyph-name="seveneighths" unicode="&#x215e;" horiz-adv-x="1073" 
d="M86 207l-59 115l960 497l60 -114zM465 1309h-328v125h522v-27l-342 -690h-153zM430 -256c0 85 45 147 109 182c-55 45 -82 96 -82 152c0 53 21 98 62 135c42 37 96 55 161 55s119 -18 160 -55c42 -37 63 -82 63 -135c0 -56 -27 -107 -82 -152c64 -35 109 -97 109 -182
c0 -59 -23 -111 -70 -155s-107 -66 -180 -66s-133 22 -180 66s-70 96 -70 155zM596 -160c-22 -22 -33 -50 -33 -84s11 -62 33 -83c23 -22 51 -33 84 -33s61 11 83 33c23 21 34 49 34 83s-11 62 -34 84c-22 22 -50 33 -83 33s-61 -11 -84 -33zM614 133
c-35 -33 -35 -93 0 -126c18 -17 40 -25 66 -25s48 8 65 25c36 33 36 93 0 126c-17 17 -39 25 -65 25s-48 -8 -66 -25z" />
    <glyph glyph-name="partialdiff" unicode="&#x2202;" horiz-adv-x="1177" 
d="M78 455c0 280 221 473 471 473c117 0 212 -34 285 -101c-9 127 -58 244 -127 320c-69 77 -159 125 -250 125c-80 0 -155 -17 -224 -51l-20 12l47 201c79 19 150 28 213 28c423 0 627 -411 627 -872c0 -190 -49 -341 -146 -452s-224 -167 -381 -167
c-142 0 -260 47 -354 141c-94 95 -141 209 -141 343zM315 455c0 -79 25 -145 76 -199c51 -53 114 -80 189 -80c76 0 140 27 193 81s79 120 79 198s-26 143 -79 195c-53 53 -117 79 -193 79s-139 -26 -190 -79c-50 -52 -75 -117 -75 -195z" />
    <glyph glyph-name="increment" unicode="&#x2206;" horiz-adv-x="1347" 
d="M1290 0h-1233v115l496 1319h242l495 -1319v-115zM674 1167l-361 -979h721z" />
    <glyph glyph-name="product" unicode="&#x220f;" horiz-adv-x="1273" 
d="M371 -463h-238v1897h1008v-1897h-238v1692h-532v-1692z" />
    <glyph glyph-name="summation" unicode="&#x2211;" horiz-adv-x="1208" 
d="M1137 0h-1065v72l452 686l-418 602v74h986v-205h-615l318 -471l-371 -553h713v-205z" />
    <glyph glyph-name="minus" unicode="&#x2212;" horiz-adv-x="999" 
d="M918 664h-836v176h836v-176z" />
    <glyph glyph-name="radical" unicode="&#x221a;" horiz-adv-x="1073" 
d="M219 594h-184v184h344l145 -471l295 1127h207l-387 -1434h-215z" />
    <glyph glyph-name="infinity" unicode="&#x221e;" horiz-adv-x="1167" 
d="M102 410c0 173 88 299 224 372c-112 79 -168 180 -168 303c0 87 28 164 84 231c57 67 131 111 223 132v141h82v-129c21 3 53 3 74 0v129h81v-141c92 -21 166 -66 223 -133s85 -143 85 -230c0 -123 -56 -224 -168 -303c135 -73 223 -199 223 -372c0 -60 -14 -119 -41 -176
s-68 -109 -125 -156c-56 -47 -122 -78 -197 -94v-140h-81v129c-21 -3 -53 -3 -74 0v-129h-82v140c-76 16 -142 47 -199 94c-112 93 -164 212 -164 332zM465 207v450c-80 -43 -133 -128 -133 -225s53 -182 133 -225zM465 911v328c-55 -37 -82 -92 -82 -164s27 -127 82 -164z
M547 684v-506c16 -3 58 -3 74 0v506c-32 5 -42 5 -74 0zM547 1270v-391c16 -3 58 -3 74 0v391c-27 5 -47 5 -74 0zM702 657v-450c79 43 134 128 134 225s-54 182 -134 225zM702 1239v-328c55 39 82 94 82 164s-27 125 -82 164z" />
    <glyph glyph-name="integral" unicode="&#x222b;" horiz-adv-x="811" 
d="M-285 -399l31 200h21c34 -38 73 -57 118 -57c76 0 126 44 142 123l254 1278c21 105 63 184 126 237s139 80 226 80c70 0 129 -14 178 -43l-31 -200h-20c-34 38 -74 57 -119 57c-76 0 -125 -44 -141 -123l-254 -1278c-21 -105 -63 -184 -126 -237s-139 -80 -226 -80
c-71 0 -130 14 -179 43z" />
    <glyph glyph-name="approxequal" unicode="&#x2248;" horiz-adv-x="987" 
d="M111 416h-17l15 184c54 60 122 90 204 90c35 0 72 -6 109 -18c38 -12 70 -25 97 -40c53 -28 125 -57 177 -57c61 0 121 31 181 93h16l-14 -185c-54 -60 -122 -90 -205 -90c-35 0 -72 6 -110 18c-37 12 -69 25 -96 39c-53 29 -125 58 -177 58c-61 0 -121 -31 -180 -92z
M111 723h-17l15 184c54 60 122 90 204 90c35 0 72 -6 109 -18c38 -12 70 -25 97 -39c53 -28 125 -57 177 -57c61 0 122 31 181 92h16l-14 -184c-55 -61 -123 -91 -205 -91c-35 0 -72 6 -110 18c-37 12 -69 25 -96 39c-53 29 -125 58 -177 58c-61 0 -121 -31 -180 -92z" />
    <glyph glyph-name="notequal" unicode="&#x2260;" horiz-adv-x="1024" 
d="M248 377h-154v176h248l147 274h-395v177h490l92 172h192l-92 -172h154v-177h-248l-147 -274h395v-176h-490l-92 -172h-192z" />
    <glyph glyph-name="lessequal" unicode="&#x2264;" horiz-adv-x="1024" 
d="M930 0h-836v176h836v-176zM813 356l-635 437v163l635 437h33v-205l-467 -314l467 -313v-205h-33z" />
    <glyph glyph-name="greaterequal" unicode="&#x2265;" horiz-adv-x="1024" 
d="M930 0h-836v176h836v-176zM211 356h-33v205l467 313l-467 314v205h33l635 -437v-163z" />
    <glyph glyph-name="lozenge" unicode="&#x25ca;" horiz-adv-x="1150" 
d="M453 0l-428 717l428 717h245l428 -717l-428 -717h-245zM575 1247l-313 -530l313 -531l314 531z" />
    <glyph glyph-name="uniE000" unicode="&#xe000;" horiz-adv-x="1013" 
d="M1014 0h-1014v1014h1014v-1014z" />
    <glyph glyph-name="apple" unicode="&#xf8ff;" horiz-adv-x="1597" 
d="M193 45v1219c0 20 13 38 32 45l553 159c10 3 17 5 21 5c3 0 10 -2 20 -5l553 -159c19 -7 33 -25 33 -45v-1219c0 -24 -18 -45 -45 -45c-4 0 -9 1 -14 2l-547 158l-547 -158c-5 -1 -10 -2 -14 -2c-27 0 -45 21 -45 45zM281 948v-844l473 138v417c-99 8 -191 38 -274 89
s-150 118 -199 200zM754 1370l-471 -137c8 -128 57 -238 146 -329s198 -143 325 -154v620zM844 659v-417l473 -138v844c-51 -82 -117 -149 -200 -200s-174 -81 -273 -89zM844 1370v-620c127 11 236 63 325 154s138 201 146 329z" />
    <glyph glyph-name="zero.tn" horiz-adv-x="1331" 
d="M117 334c-49 113 -74 240 -74 383c0 285 102 519 291 648c95 65 206 97 332 97s236 -32 331 -97s167 -153 216 -266c50 -112 75 -239 75 -382s-25 -270 -75 -383c-49 -112 -121 -201 -216 -266s-205 -97 -331 -97s-237 32 -332 97s-167 154 -217 266zM383 1114
c-68 -95 -102 -228 -102 -397s34 -302 102 -398c69 -95 163 -143 283 -143s214 48 282 143c69 96 103 229 103 398s-34 302 -103 397c-68 95 -162 143 -282 143s-214 -48 -283 -143z" />
    <glyph glyph-name="one.tn" horiz-adv-x="1331" 
d="M784 0h-237v1319l168 115h69v-1434z" />
    <glyph glyph-name="two.tn" horiz-adv-x="1331" 
d="M1149 0h-971v31l559 692c47 59 81 113 102 160c21 48 31 100 31 155c0 67 -23 122 -70 164c-47 43 -103 64 -169 64c-68 0 -135 -21 -201 -64c-65 -42 -119 -95 -160 -160h-24l14 261c97 100 244 159 385 159c139 0 250 -37 331 -112s122 -173 122 -295
c0 -157 -68 -296 -195 -451l-325 -399h571v-205z" />
    <glyph glyph-name="three.tn" horiz-adv-x="1331" 
d="M707 1229h-517v205h889v-31l-344 -447c116 -21 211 -67 286 -142s118 -188 118 -325c0 -158 -49 -284 -147 -378c-98 -93 -227 -140 -388 -140c-139 0 -263 31 -373 92l-26 254h22c116 -94 244 -141 385 -141c85 0 156 26 213 78c57 53 86 126 86 219
c0 97 -31 174 -92 231c-61 58 -139 87 -235 87c-45 0 -97 -7 -156 -21l-25 49z" />
    <glyph glyph-name="four.tn" horiz-adv-x="1331" 
d="M786 340h-647v115l815 979h70v-889h154v-205h-154v-340h-238v340zM786 956l-337 -411h337v411z" />
    <glyph glyph-name="five.tn" horiz-adv-x="1331" 
d="M244 41l-51 264h20c119 -86 248 -129 387 -129c93 0 170 27 231 80c62 54 93 129 93 225c0 95 -30 170 -89 223s-136 80 -229 80c-115 0 -233 -39 -354 -116l-51 8l92 758h792v-205h-614l-49 -311c80 34 161 51 242 51c150 0 269 -43 356 -130s131 -206 131 -358
c4 -305 -240 -516 -539 -510c-73 0 -134 5 -182 16c-47 10 -109 28 -186 54z" />
    <glyph glyph-name="six.tn" horiz-adv-x="1331" 
d="M147 647c-1 422 199 815 619 815c103 0 190 -22 262 -67l25 -228h-25c-95 68 -171 90 -262 90c-104 0 -190 -41 -259 -122s-109 -193 -122 -334c39 37 89 67 152 91s127 36 190 36c135 0 246 -44 331 -131s128 -201 128 -340c0 -127 -57 -252 -148 -340
c-89 -88 -221 -146 -358 -146c-167 0 -301 64 -401 191c-84 107 -132 281 -132 485zM678 176c81 0 146 26 195 79c50 53 75 119 75 200c0 80 -25 146 -75 199c-49 53 -114 79 -195 79s-148 -26 -199 -79s-76 -119 -76 -199s25 -147 76 -200s118 -79 199 -79z" />
    <glyph glyph-name="seven.tn" horiz-adv-x="1331" 
d="M850 1233h-666v201h996v-31l-705 -1403h-250z" />
    <glyph glyph-name="eight.tn" horiz-adv-x="1331" 
d="M184 410c0 173 88 299 224 372c-112 79 -168 180 -168 303c0 107 40 196 121 268c81 73 182 109 305 109s224 -36 305 -109c81 -72 121 -161 121 -268c0 -123 -56 -224 -168 -303c135 -73 223 -199 223 -372c0 -103 -44 -208 -123 -295c-77 -85 -207 -144 -358 -144
c-313 0 -482 238 -482 439zM414 432c0 -72 25 -133 75 -182c51 -49 110 -74 177 -74s126 25 176 74c51 49 76 110 76 182c0 73 -25 133 -75 182c-49 49 -108 74 -177 74s-128 -25 -178 -74c-49 -49 -74 -109 -74 -182zM465 1075c0 -57 19 -105 58 -142s86 -56 143 -56
s104 19 142 56c39 37 58 85 58 142c0 58 -19 106 -57 143s-86 56 -143 56s-105 -19 -144 -56c-38 -37 -57 -85 -57 -143z" />
    <glyph glyph-name="nine.tn" horiz-adv-x="1331" 
d="M139 977c0 87 22 167 66 241c45 75 106 134 183 178c78 44 164 66 257 66c159 0 304 -67 391 -176c95 -121 142 -288 142 -500c1 -422 -199 -815 -619 -815c-101 0 -189 23 -262 68l-25 227h25c95 -68 171 -90 262 -90c105 0 192 40 260 119c69 79 109 192 121 338
c-39 -37 -90 -67 -153 -91s-126 -36 -189 -36c-135 0 -245 44 -331 131c-85 87 -128 201 -128 340zM377 979c0 -81 25 -147 74 -200c50 -53 115 -79 196 -79s147 26 198 79s77 120 77 200s-26 146 -77 199s-117 79 -198 79s-146 -26 -196 -79c-49 -53 -74 -119 -74 -199z
" />
    </font>
</defs>
</svg>
