<?xml version="1.0" standalone="no"?>
<!DOCTYPE svg PUBLIC "-//W3C//DTD SVG 1.1//EN" "http://www.w3.org/Graphics/SVG/1.1/DTD/svg11.dtd" >
<svg xmlns="http://www.w3.org/2000/svg" xmlns:xlink="http://www.w3.org/1999/xlink" version="1.1">
<metadata>
Created by FontForge 20200511 at Mon Feb  3 19:33:22 2014
 By convertio
Copyright (c) 2013 by The Entente (AS&#38;EH). All rights reserved.
</metadata>
<defs>
<font id="Value" horiz-adv-x="1120" >
  <font-face 
    font-family="Value"
    font-weight="400"
    font-stretch="normal"
    units-per-em="2048"
    panose-1="2 11 5 3 3 2 4 2 2 3"
    ascent="1638"
    descent="-410"
    x-height="1012"
    cap-height="1434"
    bbox="-285 -590 2220 2134"
    underline-thickness="102"
    underline-position="-204"
    unicode-range="U+000D-FB02"
  />
<missing-glyph horiz-adv-x="645" 
 />
    <glyph glyph-name="fi" unicode="fi" horiz-adv-x="1157" 
d="M223 864h-133v148h133v151c0 85 27 156 81 213s119 86 196 86c61 0 117 -14 170 -43l6 -157h-17c-35 35 -90 53 -131 53c-88 0 -141 -59 -141 -162v-141h180v-148h-180v-864h-164v864zM853 1238c-45 45 -45 117 0 162s117 45 162 0s45 -117 0 -162s-117 -45 -162 0z
M1016 0h-164v1012h164v-1012z" />
    <glyph glyph-name="fl" unicode="fl" horiz-adv-x="1136" 
d="M223 864h-133v148h133v151c0 85 27 156 81 213s119 86 196 86c61 0 117 -14 170 -43l6 -157h-17c-35 35 -90 53 -131 53c-88 0 -141 -59 -141 -162v-141h180v-148h-180v-864h-164v864zM1006 0h-164v1475h164v-1475z" />
    <glyph glyph-name=".notdef" horiz-adv-x="645" 
 />
    <glyph glyph-name="NULL" horiz-adv-x="0" 
 />
    <glyph glyph-name="NULL" horiz-adv-x="0" 
 />
    <glyph glyph-name="CR.001" horiz-adv-x="682" 
 />
    <glyph glyph-name="CR" unicode="&#xd;" horiz-adv-x="0" 
 />
    <glyph glyph-name="space" unicode=" " horiz-adv-x="645" 
 />
    <glyph glyph-name="exclam" unicode="!" horiz-adv-x="520" 
d="M179 24c-24 24 -36 54 -36 89s12 65 36 89c25 24 54 36 89 36s64 -12 88 -36c25 -24 37 -54 37 -89s-12 -65 -37 -89c-24 -24 -53 -36 -88 -36s-64 12 -89 36zM350 410h-164v1024h164v-1024z" />
    <glyph glyph-name="quotedbl" unicode="&#x22;" horiz-adv-x="692" 
d="M127 983l-45 451h201l-45 -451h-111zM455 983l-45 451h200l-45 -451h-110z" />
    <glyph glyph-name="numbersign" unicode="#" horiz-adv-x="1398" 
d="M311 408h-250l31 139h246l63 340h-258l31 139h252l76 408h151l-75 -408h358l76 408h151l-76 -408h250l-30 -139h-246l-64 -340h258l-30 -139h-252l-76 -408h-152l76 408h-358l-76 -408h-151zM553 887l-64 -340h357l63 340h-356z" />
    <glyph glyph-name="dollar" unicode="$" horiz-adv-x="1060" 
d="M109 135l12 213h20c31 -39 61 -72 90 -100c29 -27 65 -53 110 -77c45 -23 92 -37 140 -42v567c-109 47 -195 106 -259 175c-63 70 -95 150 -95 241c0 97 33 176 100 238c67 63 152 99 254 108v131h119v-131c105 -11 194 -47 268 -110l9 -197h-27
c-79 87 -163 140 -250 158v-486c250 -107 375 -247 375 -422c0 -109 -35 -203 -105 -282c-69 -78 -159 -125 -270 -142v-133h-119v129c-147 7 -271 61 -372 162zM291 1118c0 -95 66 -166 190 -237v430c-57 -8 -103 -30 -138 -66c-35 -35 -52 -78 -52 -127zM600 639v-504
c119 27 191 117 191 242c0 113 -66 191 -191 262z" />
    <glyph glyph-name="percent" unicode="%" horiz-adv-x="1318" 
d="M172 908c-64 63 -96 140 -96 231s32 168 96 230c65 62 143 93 236 93s171 -31 235 -93s96 -139 96 -230s-32 -168 -96 -231c-64 -62 -142 -93 -235 -93s-171 31 -236 93zM190 418l-51 100l961 498l51 -101zM265 1287c-39 -37 -58 -87 -58 -148s19 -111 58 -149
c39 -37 86 -56 143 -56s104 19 142 56c39 38 58 88 58 149s-19 111 -58 148c-38 37 -85 56 -142 56s-104 -19 -143 -56zM663 64c-64 63 -96 140 -96 231s32 168 96 230c65 62 143 93 236 93s171 -31 235 -93c65 -62 97 -139 97 -230s-32 -168 -97 -231
c-64 -62 -142 -93 -235 -93s-171 31 -236 93zM756 443c-39 -37 -58 -87 -58 -148s19 -111 58 -149c39 -37 86 -56 143 -56s104 19 143 56c39 38 58 88 58 149s-19 111 -58 148c-39 38 -86 57 -143 57s-104 -19 -143 -57z" />
    <glyph glyph-name="ampersand" unicode="&#x26;" horiz-adv-x="1296" 
d="M78 387c0 159 99 312 303 420c-91 115 -137 220 -137 313c0 71 18 134 55 187c73 107 188 155 309 155c99 0 183 -30 252 -89s103 -131 103 -216c0 -160 -111 -292 -332 -397l303 -369c60 85 110 185 149 299h17l49 -201c-34 -84 -73 -157 -117 -219l223 -270h-206
l-123 147c-123 -117 -263 -176 -418 -176c-124 0 -227 39 -308 116c-81 78 -122 178 -122 300zM262 395c0 -81 25 -146 74 -195c50 -49 115 -73 194 -73c103 0 202 46 299 139l-350 422c-148 -75 -217 -181 -217 -293zM416 1120c0 -64 40 -144 119 -241
c101 44 170 87 207 128c38 41 57 87 57 136s-18 89 -54 122c-35 33 -81 50 -137 50s-102 -18 -138 -54s-54 -83 -54 -141z" />
    <glyph glyph-name="quotesingle" unicode="'" horiz-adv-x="364" 
d="M127 983l-45 451h201l-45 -451h-111z" />
    <glyph glyph-name="parenleft" unicode="(" horiz-adv-x="595" 
d="M414 1434h141c-193 -321 -289 -638 -289 -949s96 -627 289 -948h-141c-92 122 -167 262 -225 421s-87 334 -87 527s29 368 87 527s133 300 225 422z" />
    <glyph glyph-name="parenright" unicode=")" horiz-adv-x="595" 
d="M182 -463h-141c193 321 289 637 289 948s-96 628 -289 949h141c92 -122 167 -263 225 -422s87 -334 87 -527s-29 -368 -87 -527s-133 -299 -225 -421z" />
    <glyph glyph-name="asterisk" unicode="*" horiz-adv-x="774" 
d="M160 920l-70 118l4 19l242 73l-242 74l-4 19l70 118l16 7l186 -172l-57 245l12 13h140l12 -13l-57 -245l186 172l16 -7l70 -118l-4 -19l-242 -74l242 -73l4 -19l-70 -118l-16 -7l-186 172l57 -245l-12 -13h-140l-12 13l57 245l-186 -172z" />
    <glyph glyph-name="plus" unicode="+" horiz-adv-x="1011" 
d="M438 684h-340v135h340v340h135v-340h340v-135h-340v-340h-135v340z" />
    <glyph glyph-name="comma" unicode="," horiz-adv-x="413" 
d="M90 100c0 68 50 121 115 121c68 0 119 -55 119 -123c0 -143 -83 -255 -203 -319l-15 39c62 41 95 98 99 170c-31 0 -58 11 -81 32s-34 48 -34 80z" />
    <glyph glyph-name="hyphen" unicode="-" horiz-adv-x="802" 
d="M717 582h-631v135h631v-135z" />
    <glyph glyph-name="period" unicode="." horiz-adv-x="413" 
d="M90 102c0 33 11 61 34 84s50 35 81 35c33 0 61 -12 84 -35s35 -51 35 -84c0 -31 -12 -58 -35 -81c-23 -22 -51 -33 -84 -33c-31 0 -58 11 -81 33c-23 23 -34 50 -34 81z" />
    <glyph glyph-name="slash" unicode="/" horiz-adv-x="1054" 
d="M207 0h-176l817 1434h176z" />
    <glyph glyph-name="zero" unicode="0" horiz-adv-x="1425" 
d="M713 1462c187 0 345 -80 448 -212c104 -132 162 -320 162 -533c0 -287 -97 -518 -284 -649c-93 -65 -202 -97 -326 -97s-233 32 -326 97s-164 154 -213 266c-48 113 -72 240 -72 383s24 270 72 382c49 113 120 201 213 266s202 97 326 97zM406 1148
c-79 -105 -119 -249 -119 -431s40 -326 119 -432c79 -105 182 -158 307 -158s228 53 307 158c79 106 119 250 119 432s-40 326 -119 431c-79 106 -182 159 -307 159s-228 -53 -307 -159z" />
    <glyph glyph-name="one" unicode="1" horiz-adv-x="471" 
d="M328 0h-185v1337l142 97h43v-1434z" />
    <glyph glyph-name="two" unicode="2" horiz-adv-x="1130" 
d="M1026 0h-948v20l561 685c54 67 93 126 116 179c24 53 36 110 36 171c0 78 -26 139 -78 184c-51 45 -115 68 -191 68c-71 0 -139 -20 -204 -60s-117 -93 -158 -160h-19l13 213c49 50 106 89 172 118s133 44 200 44c130 0 236 -38 318 -114s123 -170 123 -283
c0 -157 -74 -291 -193 -438l-387 -471h639v-156z" />
    <glyph glyph-name="three" unicode="3" horiz-adv-x="1161" 
d="M682 1278h-563v156h864v-21l-367 -473c117 -15 219 -58 302 -131c84 -73 135 -189 135 -332c0 -152 -49 -274 -146 -367s-224 -139 -381 -139c-74 0 -139 9 -195 26s-112 41 -167 71l-23 194h17c115 -90 240 -135 377 -135c101 0 183 31 246 93c64 63 96 144 96 243
c0 71 -17 132 -52 185c-69 105 -182 155 -309 155c-49 0 -103 -7 -162 -21l-18 37z" />
    <glyph glyph-name="four" unicode="4" horiz-adv-x="1124" 
d="M698 356h-659v82l801 996h43v-922h159v-156h-159v-356h-185v356zM698 1016l-407 -504h407v504z" />
    <glyph glyph-name="five" unicode="5" horiz-adv-x="1134" 
d="M152 57l-39 203h16c119 -89 248 -133 387 -133c89 0 175 31 242 88s110 153 110 266s-34 200 -101 261s-151 92 -251 92c-115 0 -235 -43 -358 -129l-35 6l88 723h764v-156h-629l-51 -373c88 43 178 64 270 64c268 5 481 -188 479 -488c0 -151 -50 -273 -150 -368
s-227 -142 -380 -142c-66 0 -126 7 -180 20s-115 35 -182 66z" />
    <glyph glyph-name="six" unicode="6" horiz-adv-x="1216" 
d="M98 647c0 422 203 815 613 815c96 0 183 -22 260 -65l18 -185h-24c-93 72 -165 95 -254 95c-123 0 -221 -47 -296 -141s-119 -230 -132 -408c48 56 106 99 175 128s137 44 204 44c140 0 252 -44 337 -132c85 -87 127 -202 127 -343c0 -85 -22 -165 -66 -239
s-105 -133 -182 -178s-162 -67 -253 -67c-152 0 -282 61 -369 160c-105 121 -158 293 -158 516zM389 689c-60 -62 -90 -140 -90 -234s30 -172 90 -235c61 -62 139 -93 234 -93s172 31 231 93s88 140 88 235s-29 173 -88 234c-59 62 -136 93 -231 93s-173 -31 -234 -93z" />
    <glyph glyph-name="seven" unicode="7" horiz-adv-x="1095" 
d="M819 1278h-708v156h952v-21l-711 -1413h-184z" />
    <glyph glyph-name="eight" unicode="8" horiz-adv-x="1142" 
d="M102 410c0 85 21 160 64 225c43 66 98 117 166 153c-113 77 -170 176 -170 297c0 108 38 198 114 269c77 72 175 108 295 108s218 -36 295 -108s115 -162 115 -269c0 -121 -57 -220 -170 -297c68 -36 123 -87 165 -153c43 -65 64 -140 64 -225c0 -103 -42 -208 -117 -295
c-75 -85 -203 -144 -352 -144s-277 59 -352 144c-75 87 -117 192 -117 295zM364 628c-57 -53 -85 -123 -85 -210s28 -157 85 -211c57 -53 126 -80 207 -80s150 27 207 80c57 54 86 124 86 211s-29 157 -86 210c-57 54 -126 81 -207 81s-150 -27 -207 -81zM571 856
c70 0 128 21 175 64s71 98 71 165s-24 122 -71 165s-106 65 -175 65s-128 -22 -175 -65s-70 -98 -70 -165s23 -122 70 -165s106 -64 175 -64z" />
    <glyph glyph-name="nine" unicode="9" horiz-adv-x="1216" 
d="M90 979c0 85 22 165 65 238c43 74 104 133 181 178s163 67 256 67c152 0 286 -60 373 -159c102 -117 153 -289 153 -517c0 -421 -202 -815 -612 -815c-95 0 -181 22 -260 66l-19 184h25c47 -36 89 -61 128 -74s81 -20 126 -20c123 0 221 47 296 141s119 230 132 408
c-95 -115 -221 -172 -379 -172c-137 0 -248 44 -335 132c-87 89 -130 203 -130 343zM362 1214c-59 -62 -88 -140 -88 -235s29 -173 88 -235s137 -93 232 -93s173 31 233 93c61 63 91 141 91 235s-30 172 -91 234c-60 63 -138 94 -233 94s-173 -31 -232 -93z" />
    <glyph glyph-name="colon" unicode=":" horiz-adv-x="413" 
d="M90 102c0 33 11 61 34 84s50 35 81 35c33 0 61 -12 84 -35s35 -51 35 -84c0 -31 -12 -58 -35 -81c-23 -22 -51 -33 -84 -33c-31 0 -58 11 -81 33c-23 23 -34 50 -34 81zM90 856c0 33 11 61 34 84s50 35 81 35c33 0 61 -12 84 -35s35 -51 35 -84c0 -31 -12 -58 -35 -81
s-51 -34 -84 -34c-31 0 -58 11 -81 34s-34 50 -34 81z" />
    <glyph glyph-name="semicolon" unicode=";" horiz-adv-x="413" 
d="M90 100c0 68 50 121 115 121c68 0 119 -55 119 -123c0 -143 -83 -255 -203 -319l-15 39c62 41 95 98 99 170c-31 0 -58 11 -81 32s-34 48 -34 80zM90 856c0 33 11 61 34 84s50 35 81 35c33 0 61 -12 84 -35s35 -51 35 -84c0 -31 -12 -58 -35 -81s-51 -34 -84 -34
c-31 0 -58 11 -81 34s-34 50 -34 81z" />
    <glyph glyph-name="less" unicode="&#x3c;" horiz-adv-x="835" 
d="M717 201l-619 438v143l619 439h20v-166l-489 -344l489 -344v-166h-20z" />
    <glyph glyph-name="equal" unicode="=" horiz-adv-x="1011" 
d="M913 397h-815v135h815v-135zM913 848h-815v135h815v-135z" />
    <glyph glyph-name="greater" unicode="&#x3e;" horiz-adv-x="835" 
d="M119 201h-21v166l490 344l-490 344v166h21l618 -439v-143z" />
    <glyph glyph-name="question" unicode="?" horiz-adv-x="999" 
d="M131 1163h-18l12 176c41 33 91 62 151 86c60 25 119 37 177 37c115 0 209 -30 282 -91c74 -60 111 -140 111 -241c0 -115 -50 -217 -113 -286c-88 -99 -206 -195 -205 -330v-88h-163v63c0 47 8 92 23 134c32 85 80 136 135 199l77 86c47 53 82 129 82 206
c0 65 -22 116 -66 155c-43 39 -101 58 -172 58c-62 0 -121 -17 -178 -50s-102 -71 -135 -114zM366 24c-24 24 -36 54 -36 89s12 65 36 89s54 36 89 36s65 -12 89 -36s36 -54 36 -89s-12 -65 -36 -89s-54 -36 -89 -36s-65 12 -89 36z" />
    <glyph glyph-name="at" unicode="@" horiz-adv-x="1806" 
d="M102 645c0 115 22 224 65 326c44 103 103 189 177 260s161 128 260 169c100 41 205 62 314 62c111 0 215 -20 312 -59c98 -39 181 -92 250 -159s124 -148 164 -243s60 -196 60 -303c0 -134 -31 -240 -93 -317s-138 -115 -227 -115c-115 0 -196 64 -231 160
c-83 -107 -183 -160 -299 -160c-92 0 -181 37 -249 101c-68 65 -113 169 -113 286c0 119 46 221 115 285c71 65 163 102 259 102c93 0 191 -46 248 -114v94h137v-422c0 -141 53 -213 144 -213c46 0 86 28 119 84c34 56 51 127 51 213c0 167 -51 312 -135 412
c-126 154 -316 233 -512 233c-164 0 -326 -64 -451 -177c-63 -56 -113 -128 -152 -216c-38 -87 -57 -184 -57 -289c0 -212 78 -393 201 -506s286 -178 459 -178c139 0 264 40 374 121h19l-8 -152c-120 -69 -248 -104 -385 -104c-233 0 -443 88 -587 232
c-71 72 -127 159 -168 260s-61 210 -61 327zM874 385c73 0 132 25 177 75c46 50 69 114 69 193s-23 144 -69 194c-45 50 -104 75 -177 75c-72 0 -131 -25 -176 -75s-67 -115 -67 -194s22 -144 67 -194c45 -49 104 -74 176 -74z" />
    <glyph glyph-name="A" unicode="A" horiz-adv-x="1368" 
d="M219 0h-184l622 1434h54l622 -1434h-184l-123 291h-684zM684 1090l-274 -644h548z" />
    <glyph glyph-name="B" unicode="B" horiz-adv-x="1210" 
d="M664 0h-521v1434h465c142 0 255 -33 338 -100c83 -66 125 -151 125 -255c0 -149 -70 -258 -209 -325c86 -27 155 -70 206 -130s77 -133 77 -218c0 -135 -60 -244 -153 -308c-92 -64 -207 -98 -328 -98zM328 659v-503h329c95 0 170 23 223 68c54 46 81 107 81 184
s-27 138 -81 183c-53 45 -128 68 -223 68h-329zM328 1278v-463h297c85 0 151 21 198 63c48 43 72 99 72 169c0 140 -101 231 -270 231h-297z" />
    <glyph glyph-name="C" unicode="C" horiz-adv-x="1359" 
d="M817 1462c158 0 297 -41 418 -123l12 -202h-20c-123 113 -262 170 -418 170c-145 0 -280 -57 -380 -156s-163 -254 -163 -434s63 -335 163 -434s235 -156 380 -156c156 0 295 57 418 170h20l-12 -203c-121 -82 -262 -123 -424 -123c-201 0 -387 80 -518 209
c-65 65 -116 144 -154 237s-57 193 -57 300c0 213 82 406 214 535c66 65 144 117 234 154c91 37 186 56 287 56z" />
    <glyph glyph-name="D" unicode="D" horiz-adv-x="1280" 
d="M463 0h-320v1434h320c196 0 379 -69 514 -189c67 -60 121 -136 161 -227s60 -192 60 -301s-20 -210 -60 -301s-94 -167 -161 -227c-135 -120 -318 -189 -514 -189zM328 1278v-1122h139c152 0 288 52 387 144c100 93 160 241 160 417s-60 324 -160 416
c-99 93 -235 145 -387 145h-139z" />
    <glyph glyph-name="E" unicode="E" horiz-adv-x="1062" 
d="M971 0h-828v1434h820v-156h-635v-463h612v-156h-612v-503h643v-156z" />
    <glyph glyph-name="F" unicode="F" horiz-adv-x="1105" 
d="M328 0h-185v1434h852v-156h-667v-514h645v-156h-645v-608z" />
    <glyph glyph-name="G" unicode="G" horiz-adv-x="1499" 
d="M836 1462c183 0 336 -44 458 -133l13 -188h-25c-76 61 -149 104 -218 129s-145 37 -226 37c-144 0 -282 -51 -391 -146s-181 -253 -181 -444s67 -349 171 -444s236 -146 376 -146c151 0 282 53 391 158v362h-454v156h639v-576c-171 -171 -365 -256 -582 -256
c-197 0 -380 77 -512 205c-65 65 -117 144 -156 237c-38 94 -57 195 -57 304s20 210 60 303c41 94 95 173 164 237c137 128 327 205 530 205z" />
    <glyph glyph-name="H" unicode="H" horiz-adv-x="1331" 
d="M328 0h-185v1434h185v-600h676v600h184v-1434h-184v678h-676v-678z" />
    <glyph glyph-name="I" unicode="I" horiz-adv-x="471" 
d="M328 0h-185v1434h185v-1434z" />
    <glyph glyph-name="J" unicode="J" horiz-adv-x="774" 
d="M111 0l-19 174h27c59 -31 116 -47 170 -47c112 0 168 63 168 190v1117h184v-1096c0 -111 -30 -200 -89 -267s-142 -100 -249 -100c-61 0 -125 10 -192 29z" />
    <glyph glyph-name="K" unicode="K" horiz-adv-x="1161" 
d="M328 0h-185v1434h185v-699l542 699h215l-561 -705l611 -729h-215l-592 707v-707z" />
    <glyph glyph-name="L" unicode="L" horiz-adv-x="1138" 
d="M1065 0h-922v1434h185v-1278h737v-156z" />
    <glyph glyph-name="M" unicode="M" horiz-adv-x="1789" 
d="M229 0h-184l373 1434h61l416 -1049l416 1049h61l373 -1434h-184l-248 961l-398 -961h-41l-397 961z" />
    <glyph glyph-name="N" unicode="N" horiz-adv-x="1382" 
d="M328 0h-185v1434h70l842 -1008v1008h184v-1434h-70l-841 1012v-1012z" />
    <glyph glyph-name="O" unicode="O" horiz-adv-x="1658" 
d="M82 717c0 105 19 204 58 296c39 93 92 172 158 237c67 66 146 118 238 155c92 38 190 57 293 57s201 -19 293 -57c92 -37 171 -89 238 -155c67 -65 119 -144 158 -237c39 -92 59 -191 59 -296c0 -140 -33 -267 -100 -382c-66 -114 -156 -203 -270 -268
c-114 -64 -240 -96 -378 -96s-264 32 -378 96c-114 65 -204 154 -270 268c-66 115 -99 242 -99 382zM829 127c105 0 199 23 284 69c85 47 152 115 203 206s77 196 77 315s-26 224 -77 315c-101 181 -278 275 -487 275c-156 0 -296 -57 -399 -156
c-101 -99 -164 -254 -164 -434s63 -335 164 -434c103 -99 243 -156 399 -156z" />
    <glyph glyph-name="P" unicode="P" horiz-adv-x="1048" 
d="M328 0h-185v1434h365c159 0 291 -51 374 -132c83 -80 128 -187 128 -303s-45 -222 -128 -303c-83 -80 -215 -131 -374 -131h-180v-565zM328 1278v-557h182c95 0 171 24 228 71c58 47 87 116 87 207s-29 160 -87 207c-57 48 -133 72 -228 72h-182z" />
    <glyph glyph-name="Q" unicode="Q" horiz-adv-x="1658" 
d="M82 717c0 105 19 204 58 296c39 93 92 172 158 237c67 66 146 118 238 155c92 38 190 57 293 57s201 -19 293 -57c92 -37 171 -89 238 -155c67 -65 119 -144 158 -237c39 -92 59 -191 59 -296c0 -189 -57 -351 -172 -484l192 -192l-112 -117l-197 195
c-133 -99 -286 -148 -459 -148c-138 0 -264 32 -378 96c-114 65 -204 154 -270 268c-66 115 -99 242 -99 382zM829 127c133 0 248 36 345 109l-193 194l115 115l190 -193c71 104 107 226 107 365c0 119 -26 224 -77 315c-101 181 -278 275 -487 275
c-156 0 -296 -57 -399 -156c-101 -99 -164 -254 -164 -434s63 -335 164 -434c103 -99 243 -156 399 -156z" />
    <glyph glyph-name="R" unicode="R" horiz-adv-x="1124" 
d="M328 0h-185v1434h379c142 0 258 -36 347 -108c90 -72 135 -170 135 -294c0 -204 -149 -328 -308 -377l396 -655h-201l-381 631h-182v-631zM328 1278v-492h198c187 0 293 87 293 246s-106 246 -293 246h-198z" />
    <glyph glyph-name="S" unicode="S" horiz-adv-x="1060" 
d="M109 135l12 213h20c52 -66 108 -119 168 -160c61 -41 130 -61 209 -61c84 0 150 23 199 68s74 106 74 182c0 75 -28 137 -87 188c-57 51 -122 86 -219 129c-109 47 -196 105 -261 176s-97 151 -97 242c0 105 39 190 118 254s175 96 290 96c133 0 244 -38 333 -114l9 -197
h-27c-93 109 -200 164 -322 164c-69 0 -126 -19 -171 -56c-44 -37 -66 -84 -66 -141c0 -121 107 -208 307 -293c244 -103 377 -237 377 -424c0 -123 -43 -225 -130 -307c-86 -82 -195 -123 -327 -123c-161 0 -297 55 -409 164z" />
    <glyph glyph-name="T" unicode="T" horiz-adv-x="1101" 
d="M459 1278h-377v156h938v-156h-377v-1278h-184v1278z" />
    <glyph glyph-name="U" unicode="U" horiz-adv-x="1306" 
d="M123 535v899h184v-930c0 -131 43 -234 110 -291c68 -57 148 -86 236 -86s168 29 235 86c68 57 111 160 111 291v930h185v-899c0 -179 -49 -317 -146 -416s-226 -148 -385 -148s-287 49 -384 147c-97 99 -146 238 -146 417z" />
    <glyph glyph-name="V" unicode="V" horiz-adv-x="1400" 
d="M662 0l-631 1434h184l485 -1125l486 1125h184l-631 -1434h-77z" />
    <glyph glyph-name="W" unicode="W" horiz-adv-x="1933" 
d="M524 0l-479 1434h184l322 -1012l387 1012h57l387 -1012l322 1012h184l-479 -1434h-45l-397 1051l-398 -1051h-45z" />
    <glyph glyph-name="X" unicode="X" horiz-adv-x="1206" 
d="M233 0h-184l471 774l-395 660h184l299 -512l305 512h185l-400 -658l459 -776h-184l-367 625z" />
    <glyph glyph-name="Y" unicode="Y" horiz-adv-x="1200" 
d="M508 623l-479 811h196l375 -652l375 652h196l-479 -811v-623h-184v623z" />
    <glyph glyph-name="Z" unicode="Z" horiz-adv-x="1218" 
d="M1147 0h-1090v20l779 1258h-717v156h995v-21l-786 -1257h819v-156z" />
    <glyph glyph-name="bracketleft" unicode="[" horiz-adv-x="559" 
d="M487 -463h-364v1897h364v-156h-200v-1585h200v-156z" />
    <glyph glyph-name="backslash" unicode="\" horiz-adv-x="1054" 
d="M848 0l-817 1434h176l817 -1434h-176z" />
    <glyph glyph-name="bracketright" unicode="]" horiz-adv-x="559" 
d="M72 -463v156h200v1585h-200v156h364v-1897h-364z" />
    <glyph glyph-name="asciicircum" unicode="^" horiz-adv-x="1032" 
d="M223 811h-151v20l391 603h106l392 -603v-20h-152l-293 446z" />
    <glyph glyph-name="underscore" unicode="_" horiz-adv-x="1028" 
d="M45 -135v135h938v-135h-938z" />
    <glyph glyph-name="grave" unicode="`" horiz-adv-x="577" 
d="M365 1153l-291 281h241l189 -281h-139z" />
    <glyph glyph-name="a" unicode="a" horiz-adv-x="1255" 
d="M606 1040c149 0 278 -66 355 -155v127h163v-1012h-163v127c-77 -89 -206 -156 -355 -156c-99 0 -189 24 -270 72s-144 113 -190 194c-45 82 -68 172 -68 269s23 187 68 268c46 82 109 147 190 194c81 48 171 72 270 72zM342 781c-67 -75 -100 -166 -100 -275
s33 -200 100 -275s155 -112 264 -112s197 37 264 112s101 166 101 275s-34 200 -101 275s-155 112 -264 112s-197 -37 -264 -112z" />
    <glyph glyph-name="b" unicode="b" horiz-adv-x="1263" 
d="M295 0h-164v1475h164v-611c44 49 99 90 165 124c66 35 138 52 216 52c139 0 268 -56 360 -149c92 -92 150 -230 150 -385c0 -103 -23 -195 -70 -277c-92 -164 -258 -258 -450 -258c-155 0 -284 69 -371 166v-137zM386 781c-67 -75 -101 -166 -101 -275s34 -200 101 -275
c68 -75 157 -112 267 -112s199 37 267 112s102 166 102 275s-34 200 -102 275s-157 112 -267 112s-199 -37 -267 -112z" />
    <glyph glyph-name="c" unicode="c" horiz-adv-x="1011" 
d="M606 1040c119 0 216 -30 293 -90l6 -164h-18c-45 38 -88 65 -131 82s-93 25 -150 25c-107 0 -195 -36 -263 -109c-67 -73 -101 -165 -101 -278c0 -114 32 -207 97 -279s154 -108 267 -108c112 0 189 30 277 106h18l-6 -164c-74 -60 -170 -90 -289 -90
c-97 0 -185 21 -264 63c-79 43 -143 105 -192 187c-48 83 -72 178 -72 285s25 202 74 284c100 165 266 250 454 250z" />
    <glyph glyph-name="d" unicode="d" horiz-adv-x="1263" 
d="M78 506c0 152 51 279 153 381s228 153 379 153c75 0 144 -15 207 -46c64 -30 115 -68 152 -115v596h164v-1475h-164v137c-97 -111 -220 -166 -371 -166c-145 0 -268 51 -369 154s-151 230 -151 381zM343 781c-67 -75 -101 -166 -101 -275s34 -200 101 -275
c68 -75 157 -112 267 -112s199 37 267 112s102 166 102 275s-34 200 -102 275s-157 112 -267 112s-199 -37 -267 -112z" />
    <glyph glyph-name="e" unicode="e" horiz-adv-x="1157" 
d="M78 506c0 149 58 289 149 382c92 93 220 152 355 152c143 0 261 -45 352 -136c91 -90 137 -210 137 -359v-82h-829c6 -72 28 -135 65 -188c75 -107 182 -156 297 -156c72 0 136 12 193 36c57 25 119 67 186 128h16l-6 -179c-120 -89 -236 -133 -387 -133
c-99 0 -189 24 -270 71s-144 112 -190 193c-45 82 -68 172 -68 271zM250 598h672c-10 91 -46 165 -108 222s-139 85 -232 85c-78 0 -149 -27 -212 -81c-63 -53 -103 -129 -120 -226z" />
    <glyph glyph-name="f" unicode="f" horiz-adv-x="708" 
d="M223 864h-133v148h133v151c0 85 27 156 81 213s119 86 196 86c61 0 117 -14 170 -43l6 -157h-17c-35 35 -90 53 -131 53c-88 0 -141 -59 -141 -162v-141h180v-148h-180v-864h-164v864z" />
    <glyph glyph-name="g" unicode="g" horiz-adv-x="1241" 
d="M78 520c0 156 62 294 158 381c96 88 224 139 360 139c148 0 278 -61 350 -153v125h164v-920c0 -202 -47 -350 -141 -443c-94 -94 -226 -141 -396 -141c-114 0 -220 30 -319 89l-6 163h26c47 -34 95 -60 144 -77c49 -18 109 -27 178 -27c103 0 187 30 252 90
s98 146 98 258v156c-84 -105 -216 -160 -360 -160c-136 0 -263 51 -356 138c-93 88 -152 225 -152 382zM281 702c-26 -55 -39 -116 -39 -182c0 -132 50 -247 162 -319c56 -36 122 -54 198 -54s142 18 198 53c56 36 97 82 123 137c27 56 40 117 40 183
c0 132 -51 248 -163 319c-56 36 -122 54 -198 54s-142 -18 -198 -54s-97 -82 -123 -137z" />
    <glyph glyph-name="h" unicode="h" horiz-adv-x="1136" 
d="M295 0h-164v1475h164v-619c37 53 88 97 154 132c67 35 135 52 204 52c109 0 197 -32 264 -96c67 -63 101 -149 101 -258v-686h-164v651c0 75 -24 134 -71 177s-107 65 -181 65c-85 0 -157 -32 -217 -95s-90 -142 -90 -235v-563z" />
    <glyph glyph-name="i" unicode="i" horiz-adv-x="446" 
d="M142 1238c-44 45 -44 117 0 162c45 45 117 45 162 0s45 -117 0 -162s-117 -45 -162 0zM305 0h-164v1012h164v-1012z" />
    <glyph glyph-name="j" unicode="j" horiz-adv-x="460" 
d="M-78 -457l-16 152h20c39 -26 76 -39 109 -39c82 0 123 49 123 147v1209h164v-1178c0 -211 -92 -326 -263 -326c-54 0 -100 12 -137 35zM125 1317c0 31 11 59 33 82c23 23 49 35 80 35s58 -12 81 -35s35 -51 35 -82s-12 -57 -35 -80c-23 -22 -50 -33 -81 -33
s-57 11 -80 33c-22 23 -33 49 -33 80z" />
    <glyph glyph-name="k" unicode="k" horiz-adv-x="909" 
d="M295 0h-164v1475h164v-928l395 465h174l-405 -475l415 -537h-176l-403 518v-518z" />
    <glyph glyph-name="l" unicode="l" horiz-adv-x="425" 
d="M295 0h-164v1475h164v-1475z" />
    <glyph glyph-name="m" unicode="m" horiz-adv-x="1579" 
d="M295 0h-164v1012h164v-125c61 95 171 153 291 153c124 0 211 -55 260 -166c31 49 75 88 133 119s117 47 178 47c200 0 303 -122 303 -321v-719h-164v696c0 124 -76 197 -196 197c-61 0 -112 -23 -154 -69s-63 -105 -63 -177v-647h-164v694c0 64 -19 113 -58 147
c-38 35 -85 52 -141 52c-67 0 -122 -27 -163 -80s-62 -126 -62 -217v-596z" />
    <glyph glyph-name="n" unicode="n" 
d="M295 0h-164v1012h164v-152c37 53 87 97 150 130s129 50 200 50c106 0 192 -32 257 -96c66 -64 99 -150 99 -258v-686h-163v651c0 75 -22 134 -67 177s-104 65 -177 65c-84 0 -155 -32 -213 -95c-57 -63 -86 -141 -86 -235v-563z" />
    <glyph glyph-name="o" unicode="o" horiz-adv-x="1216" 
d="M230 122c-101 101 -152 229 -152 384s51 282 152 383c102 101 228 151 378 151s276 -50 378 -151s153 -228 153 -383s-51 -283 -153 -384s-228 -151 -378 -151s-276 50 -378 151zM608 119c106 0 194 36 263 108s104 165 104 279s-35 207 -104 279s-157 108 -263 108
c-105 0 -193 -36 -262 -108s-104 -165 -104 -279s35 -207 104 -279s157 -108 262 -108z" />
    <glyph glyph-name="p" unicode="p" horiz-adv-x="1263" 
d="M295 -463h-164v1475h164v-152c46 51 101 94 164 128c64 35 134 52 211 52c146 0 268 -50 367 -151c99 -100 149 -228 149 -383s-58 -294 -150 -387c-92 -92 -221 -148 -360 -148c-81 0 -155 16 -222 49s-120 76 -159 127v-610zM390 780c-70 -75 -105 -167 -105 -274
s35 -199 105 -274s158 -113 263 -113s193 38 263 113c71 76 106 167 106 274s-35 198 -106 273c-70 76 -158 114 -263 114s-193 -38 -263 -113z" />
    <glyph glyph-name="q" unicode="q" horiz-adv-x="1263" 
d="M78 506c0 103 23 195 70 277s111 145 190 190c80 45 168 67 264 67c78 0 150 -17 216 -51c66 -33 116 -74 151 -121v144h164v-1475h-164v610c-88 -105 -220 -176 -381 -176c-139 0 -268 56 -360 148c-92 93 -150 232 -150 387zM347 780c-70 -75 -105 -167 -105 -274
s35 -199 105 -274s158 -113 263 -113s193 38 263 113c71 76 106 167 106 274s-35 198 -106 273c-70 76 -158 114 -263 114s-193 -38 -263 -113z" />
    <glyph glyph-name="r" unicode="r" horiz-adv-x="806" 
d="M295 0h-164v1012h164v-148c33 57 76 101 128 131c53 30 106 45 161 45c60 0 112 -16 155 -47l11 -166h-19c-46 44 -103 66 -172 66c-65 0 -125 -23 -178 -71c-52 -47 -86 -133 -86 -244v-578z" />
    <glyph glyph-name="s" unicode="s" horiz-adv-x="864" 
d="M82 74l39 155h12c94 -73 190 -110 289 -110c128 0 205 60 205 151c0 49 -19 86 -56 113s-97 54 -180 82c-80 27 -139 57 -195 104c-55 48 -87 116 -87 199c0 74 32 138 95 191c64 54 142 81 234 81c101 0 195 -26 281 -77l6 -156h-14c-85 65 -176 98 -273 98
c-104 0 -182 -48 -182 -133c0 -44 19 -80 58 -107s99 -56 182 -85c97 -33 160 -65 215 -113c55 -47 80 -109 80 -188c0 -88 -36 -161 -109 -220s-160 -88 -262 -88c-121 0 -233 34 -338 103z" />
    <glyph glyph-name="t" unicode="t" horiz-adv-x="763" 
d="M229 864h-194v148h194v213l164 78v-291h289v-148h-289v-620c0 -41 13 -73 39 -94c27 -21 57 -31 92 -31c49 0 99 20 152 59h18l-12 -155c-37 -19 -68 -33 -95 -40c-26 -8 -58 -12 -95 -12c-80 0 -144 24 -192 73c-47 49 -71 117 -71 204v616z" />
    <glyph glyph-name="u" unicode="u" 
d="M119 326v686h164v-652c0 -75 22 -134 66 -177c45 -43 104 -64 177 -64c84 0 155 31 212 94c58 63 87 142 87 236v563h164v-1012h-164v152c-37 -53 -87 -97 -150 -131c-63 -33 -129 -50 -200 -50c-106 0 -192 32 -258 96c-65 65 -98 151 -98 259z" />
    <glyph glyph-name="v" unicode="v" horiz-adv-x="1064" 
d="M520 0l-493 1012h184l321 -688l322 688h184l-493 -1012h-25z" />
    <glyph glyph-name="w" unicode="w" horiz-adv-x="1568" 
d="M473 0l-440 1012h172l287 -676l268 676h49l268 -676l287 676h172l-440 -1012h-45l-267 692l-266 -692h-45z" />
    <glyph glyph-name="x" unicode="x" horiz-adv-x="948" 
d="M231 0h-180l338 522l-317 490h182l225 -367l223 367h177l-306 -486l324 -526h-176l-246 393z" />
    <glyph glyph-name="y" unicode="y" horiz-adv-x="1021" 
d="M410 182l-404 830h184l306 -650l313 650h166l-713 -1475h-164z" />
    <glyph glyph-name="z" unicode="z" horiz-adv-x="976" 
d="M889 0h-817v20l546 844h-507v148h763v-21l-540 -844h555v-147z" />
    <glyph glyph-name="braceleft" unicode="{" horiz-adv-x="647" 
d="M104 408h-43v155h43c72 0 107 30 107 113v526c0 143 84 232 235 232h129v-156h-112c-59 0 -88 -34 -88 -102v-514c0 -97 -45 -156 -135 -177c90 -21 135 -79 135 -176v-514c0 -68 29 -102 88 -102h112v-156h-129c-151 0 -235 89 -235 232v526c0 83 -35 113 -107 113z" />
    <glyph glyph-name="bar" unicode="|" horiz-adv-x="409" 
d="M287 -463h-164v1897h164v-1897z" />
    <glyph glyph-name="braceright" unicode="}" horiz-adv-x="647" 
d="M72 -463v156h112c59 0 88 34 88 102v514c0 97 45 155 136 176c-91 21 -136 80 -136 177v514c0 68 -29 102 -88 102h-112v156h129c151 0 235 -89 235 -232v-526c0 -83 35 -113 107 -113h43v-155h-43c-72 0 -107 -30 -107 -113v-526c0 -143 -84 -232 -235 -232h-129z" />
    <glyph glyph-name="asciitilde" unicode="~" horiz-adv-x="983" 
d="M111 584h-13l13 149c57 57 122 86 194 86c73 0 153 -30 202 -61c51 -29 123 -60 183 -60c63 0 123 29 182 88h13l-13 -149c-57 -57 -122 -86 -194 -86c-73 0 -152 31 -203 60c-49 31 -122 61 -182 61c-63 0 -123 -29 -182 -88z" />
    <glyph glyph-name="uni00A0" unicode="&#xa0;" horiz-adv-x="645" 
 />
    <glyph glyph-name="exclamdown" unicode="&#xa1;" horiz-adv-x="520" 
d="M179 810c-24 24 -36 54 -36 89s12 65 36 89c25 24 54 36 89 36s64 -12 88 -36c25 -24 37 -54 37 -89s-12 -65 -37 -89c-24 -24 -53 -36 -88 -36s-64 12 -89 36zM350 -422h-164v1024h164v-1024z" />
    <glyph glyph-name="cent" unicode="&#xa2;" horiz-adv-x="991" 
d="M78 506c0 146 43 266 130 361s196 152 327 169v254h118v-252c96 -6 178 -35 246 -88l6 -164h-18c-77 68 -143 97 -234 105v-770c82 7 159 42 230 104h18l-6 -164c-71 -55 -151 -84 -242 -88v-252h-118v254c-255 32 -457 226 -457 531zM242 506c0 -101 26 -186 77 -255
s123 -111 216 -126v762c-89 -17 -160 -60 -213 -129s-80 -153 -80 -252z" />
    <glyph glyph-name="sterling" unicode="&#xa3;" horiz-adv-x="1062" 
d="M131 696h-141v135h151l9 89c26 335 236 547 493 542c106 0 203 -27 291 -80l20 -188l-24 -6c-100 79 -196 119 -287 119c-81 0 -151 -31 -211 -93c-59 -62 -95 -157 -108 -286l-11 -97h377v-135h-389l-53 -540h743v-156h-919z" />
    <glyph glyph-name="currency" unicode="&#xa4;" horiz-adv-x="1187" 
d="M215 238l-100 100l125 125c-59 77 -88 161 -88 254s29 177 88 254l-125 125l100 100l129 -127c75 49 159 74 250 74s175 -25 250 -74l129 127l100 -100l-125 -125c59 -77 88 -161 88 -254s-29 -177 -88 -254l125 -125l-100 -100l-129 127c-75 -49 -159 -74 -250 -74
s-175 25 -250 74zM391 923c-56 -54 -84 -123 -84 -206s28 -152 84 -206c57 -54 124 -81 203 -81s146 27 202 81c57 54 85 123 85 206s-28 152 -85 206c-56 54 -123 81 -202 81s-146 -27 -203 -81z" />
    <glyph glyph-name="yen" unicode="&#xa5;" horiz-adv-x="1200" 
d="M428 758l-399 676h196l375 -652l375 652h196l-399 -676h236v-135h-316v-131h316v-136h-316v-356h-184v356h-315v136h315v131h-315v135h235z" />
    <glyph glyph-name="brokenbar" unicode="&#xa6;" horiz-adv-x="409" 
d="M123 -463v819h164v-819h-164zM287 614h-164v820h164v-820z" />
    <glyph glyph-name="section" unicode="&#xa7;" horiz-adv-x="987" 
d="M72 547c0 119 57 217 172 295c-90 78 -135 167 -135 268c-4 198 198 357 403 352c136 0 248 -40 336 -119l8 -182h-14c-102 111 -215 166 -338 166c-69 0 -126 -20 -172 -60c-45 -40 -68 -92 -68 -155c0 -53 23 -103 69 -149c47 -46 129 -97 247 -154
c228 -108 342 -236 342 -385c0 -118 -57 -217 -172 -297c90 -78 135 -167 135 -266c0 -66 -19 -126 -58 -181c-38 -55 -88 -97 -150 -127c-61 -30 -127 -45 -196 -45c-136 0 -248 40 -336 119l-8 183h15c102 -111 214 -166 337 -166c69 0 126 20 171 60c46 40 69 92 69 155
c0 53 -23 103 -69 149s-128 97 -246 154c-228 108 -342 236 -342 385zM221 557c0 -107 100 -194 293 -285c69 -35 110 -57 123 -65c81 52 135 127 135 207c0 107 -100 193 -293 284c-51 23 -93 44 -125 64c-79 -49 -133 -126 -133 -205z" />
    <glyph glyph-name="dieresis" unicode="&#xa8;" horiz-adv-x="710" 
d="M61 1284c0 31 11 57 32 79c22 23 48 34 77 34c31 0 57 -11 79 -34c23 -22 34 -48 34 -79c0 -29 -11 -55 -34 -76c-22 -21 -48 -32 -79 -32c-29 0 -55 11 -77 32c-21 21 -32 47 -32 76zM428 1284c0 31 11 57 32 79c22 23 48 34 77 34c31 0 57 -11 79 -34
c22 -22 33 -48 33 -79c0 -29 -11 -55 -33 -76s-48 -32 -79 -32c-29 0 -55 11 -77 32c-21 21 -32 47 -32 76z" />
    <glyph glyph-name="copyright" unicode="&#xa9;" horiz-adv-x="1646" 
d="M78 717c0 102 18 199 55 290c73 183 201 319 388 396c93 39 194 59 302 59s209 -20 302 -59c94 -39 173 -92 237 -159c65 -67 115 -146 152 -237s55 -188 55 -290s-18 -199 -55 -290s-87 -171 -152 -238c-64 -67 -143 -120 -237 -159c-93 -39 -194 -59 -302 -59
c-144 0 -273 33 -388 100c-114 67 -202 158 -264 271s-93 238 -93 375zM823 70c184 0 349 73 457 189c109 117 174 281 174 458s-65 341 -174 457c-108 117 -273 190 -457 190c-123 0 -232 -29 -329 -88c-97 -58 -171 -136 -223 -234s-78 -206 -78 -325s26 -227 78 -325
s126 -176 223 -235c97 -58 206 -87 329 -87zM473 717c0 116 37 209 112 279c75 71 164 106 269 106c85 0 156 -22 211 -66l4 -116h-12c-59 50 -127 75 -203 75c-77 0 -140 -26 -189 -79c-49 -52 -73 -118 -73 -199c0 -83 23 -150 70 -202c47 -51 111 -77 192 -77
c80 0 135 21 199 76h14l-6 -117c-50 -43 -119 -65 -207 -65c-107 0 -198 35 -271 105s-110 163 -110 280z" />
    <glyph glyph-name="ordfeminine" unicode="&#xaa;" horiz-adv-x="872" 
d="M55 1073c0 104 36 192 107 265s159 110 264 110s196 -48 248 -109v88h117v-710h-117v90c-52 -63 -143 -111 -248 -111s-193 36 -264 109s-107 163 -107 268zM170 1073c0 -77 23 -142 70 -194s109 -78 186 -78s139 26 186 78s70 117 70 194c0 76 -24 140 -71 193
s-108 80 -185 80s-139 -27 -186 -80s-70 -117 -70 -193z" />
    <glyph glyph-name="guillemotleft" unicode="&#xab;" horiz-adv-x="1015" 
d="M535 262l-469 406v86l469 405h22v-168l-330 -280l330 -281v-168h-22zM911 262l-469 406v86l469 405h23v-168l-330 -280l330 -281v-168h-23z" />
    <glyph glyph-name="logicalnot" unicode="&#xac;" horiz-adv-x="937" 
d="M676 639h-570v147h725v-440h-155v293z" />
    <glyph glyph-name="uni00AD" unicode="&#xad;" horiz-adv-x="802" 
d="M717 582h-631v135h631v-135z" />
    <glyph glyph-name="registered" unicode="&#xae;" horiz-adv-x="1646" 
d="M78 717c0 102 18 199 55 290c73 183 201 319 388 396c93 39 194 59 302 59s209 -20 302 -59c94 -39 173 -92 237 -159c65 -67 115 -146 152 -237s55 -188 55 -290s-18 -199 -55 -290s-87 -171 -152 -238c-64 -67 -143 -120 -237 -159c-93 -39 -194 -59 -302 -59
c-144 0 -273 33 -388 100c-114 67 -202 158 -264 271s-93 238 -93 375zM823 70c184 0 349 73 457 189c109 117 174 281 174 458s-65 341 -174 457c-108 117 -273 190 -457 190c-123 0 -232 -29 -329 -88c-97 -58 -171 -136 -223 -234s-78 -206 -78 -325s26 -227 78 -325
s126 -176 223 -235c97 -58 206 -87 329 -87zM707 352h-105v762h221c75 0 135 -20 182 -59s70 -92 70 -158c0 -51 -16 -94 -49 -129s-72 -61 -119 -76l211 -340h-119l-200 328h-92v-328zM707 1016v-238h112c95 0 142 40 142 119c0 77 -50 119 -142 119h-112z" />
    <glyph glyph-name="overscore" unicode="&#xaf;" horiz-adv-x="593" 
d="M532 1208h-471v131h471v-131z" />
    <glyph glyph-name="degree" unicode="&#xb0;" horiz-adv-x="620" 
d="M132 1035c-49 48 -73 107 -73 177s24 129 73 177c49 49 109 73 181 73s132 -24 181 -73c49 -48 73 -107 73 -177s-24 -129 -73 -177s-109 -72 -181 -72s-132 24 -181 72zM200 1327c-28 -30 -42 -68 -42 -115s14 -85 42 -115c28 -29 66 -44 113 -44s85 15 113 44
c29 30 43 68 43 115s-14 85 -43 115c-28 30 -66 45 -113 45s-85 -15 -113 -45z" />
    <glyph glyph-name="plusminus" unicode="&#xb1;" horiz-adv-x="1011" 
d="M913 0h-815v135h815v-135zM438 684h-340v135h340v340h135v-340h340v-135h-340v-340h-135v340z" />
    <glyph glyph-name="twosuperior" unicode="&#xb2;" horiz-adv-x="575" 
d="M532 717h-503v16l284 336c49 59 74 115 74 168c0 61 -54 109 -123 109s-130 -38 -184 -113h-19l9 129c52 52 128 86 200 86c68 0 124 -20 168 -59s66 -90 66 -152c0 -71 -40 -153 -121 -244l-152 -174h301v-102z" />
    <glyph glyph-name="threesuperior" unicode="&#xb3;" horiz-adv-x="581" 
d="M68 756l-13 127h15c60 -52 123 -78 190 -78c43 0 79 13 109 39c30 27 45 63 45 110s-16 84 -47 112s-68 42 -111 42c-27 0 -53 -4 -78 -12l-16 32l153 203h-256v103h445v-13l-178 -231c59 -7 109 -31 150 -71s61 -90 61 -150c0 -84 -27 -150 -80 -197s-118 -70 -193 -70
c-72 0 -137 18 -196 54z" />
    <glyph glyph-name="acute" unicode="&#xb4;" horiz-adv-x="577" 
d="M213 1153h-139l188 281h242z" />
    <glyph glyph-name="mu" unicode="&#xb5;" 
d="M283 -463h-164v1475h164v-652c0 -75 22 -134 66 -177c45 -43 104 -64 177 -64c84 0 155 31 212 94c58 63 87 142 87 236v563h164v-1012h-164v152c-37 -53 -87 -97 -150 -131c-63 -33 -129 -50 -200 -50c-73 0 -137 15 -192 45v-479z" />
    <glyph glyph-name="paragraph" unicode="&#xb6;" horiz-adv-x="1185" 
d="M422 1434h641v-1897h-176v1741h-260v-1741h-176v1258h-29c-114 0 -205 30 -272 89c-67 60 -101 137 -101 230s34 170 101 230s158 90 272 90z" />
    <glyph glyph-name="middot" unicode="&#xb7;" horiz-adv-x="391" 
d="M90 717c0 33 11 61 34 84s50 35 81 35c33 0 61 -12 84 -35s35 -51 35 -84c0 -31 -12 -58 -35 -81s-51 -34 -84 -34c-31 0 -58 11 -81 34s-34 50 -34 81z" />
    <glyph glyph-name="cedilla" unicode="&#xb8;" horiz-adv-x="665" 
d="M131 -459l-16 103l14 6c53 -30 104 -45 152 -45c68 0 120 36 120 104s-52 103 -116 103c-39 0 -80 -10 -123 -29l-10 12l133 299l96 -35l-121 -186c39 15 80 23 121 23c49 0 90 -18 122 -53s48 -79 48 -130c0 -59 -23 -108 -69 -147s-108 -58 -185 -58
c-62 0 -117 11 -166 33z" />
    <glyph glyph-name="onesuperior" unicode="&#xb9;" horiz-adv-x="245" 
d="M184 717h-123v649l97 68h26v-717z" />
    <glyph glyph-name="ordmasculine" unicode="&#xba;" horiz-adv-x="856" 
d="M55 1073c0 109 36 198 107 269c72 71 161 106 266 106s194 -35 265 -106c72 -71 108 -160 108 -269s-36 -200 -108 -271c-71 -71 -160 -106 -265 -106s-194 35 -266 106c-71 71 -107 162 -107 271zM170 1073c0 -81 24 -146 73 -197c49 -50 110 -75 185 -75
c73 0 134 25 183 75c49 51 73 116 73 197c0 80 -24 145 -73 196s-110 77 -183 77c-74 0 -136 -26 -185 -77s-73 -116 -73 -196z" />
    <glyph glyph-name="guillemotright" unicode="&#xbb;" horiz-adv-x="1015" 
d="M104 262h-22v168l330 281l-330 280v168h22l469 -405v-86zM481 262h-22v168l329 281l-329 280v168h22l469 -405v-86z" />
    <glyph glyph-name="onequarter" unicode="&#xbc;" horiz-adv-x="1064" 
d="M78 213l-51 100l960 498l51 -100zM389 717h-123v649l96 68h27v-717zM307 -299v68l395 485h52v-451h98v-102h-98v-164h-123v164h-324zM631 12l-172 -209h172v209z" />
    <glyph glyph-name="onehalf" unicode="&#xbd;" horiz-adv-x="1064" 
d="M78 213l-51 100l960 498l51 -100zM389 717h-123v649l96 68h27v-717zM401 -463v17l285 335c49 59 74 115 74 168c0 61 -54 109 -123 109s-130 -38 -184 -113h-19l8 129c52 52 129 86 201 86c68 0 124 -20 168 -59s66 -90 66 -152c0 -71 -40 -152 -121 -243l-152 -174h301
v-103h-504z" />
    <glyph glyph-name="threequarters" unicode="&#xbe;" horiz-adv-x="1064" 
d="M78 213l-51 100l960 498l51 -100zM55 756l-12 127h14c60 -52 124 -78 191 -78c85 0 153 56 153 149c0 47 -15 85 -46 112c-31 28 -68 42 -111 42c-27 0 -53 -4 -78 -12l-16 32l153 203h-256v103h445v-13l-179 -231c59 -7 109 -31 150 -71s61 -90 61 -150
c0 -84 -27 -150 -80 -197s-117 -70 -192 -70c-73 0 -138 18 -197 54zM307 -299v68l395 485h52v-451h98v-102h-98v-164h-123v164h-324zM631 12l-172 -209h172v209z" />
    <glyph glyph-name="questiondown" unicode="&#xbf;" horiz-adv-x="884" 
d="M90 -119c0 115 51 217 112 286c91 100 206 196 206 331v88h163v-64c0 -305 -317 -374 -317 -624c0 -65 22 -116 65 -155c44 -39 102 -58 173 -58c62 0 121 17 178 50s102 71 135 113h18l-12 -176c-41 -33 -91 -62 -151 -86c-60 -25 -119 -37 -177 -37
c-115 0 -209 30 -283 91c-73 60 -110 140 -110 241zM392 810c-24 24 -36 54 -36 89s12 65 36 89s54 36 89 36s65 -12 89 -36s36 -54 36 -89s-12 -65 -36 -89s-54 -36 -89 -36s-65 12 -89 36z" />
    <glyph glyph-name="Agrave" unicode="&#xc0;" horiz-adv-x="1368" 
d="M219 0h-184l622 1434h54l622 -1434h-184l-123 291h-684zM600 1575l-291 280h242l188 -280h-139zM684 1090l-274 -644h548z" />
    <glyph glyph-name="Aacute" unicode="&#xc1;" horiz-adv-x="1368" 
d="M219 0h-184l622 1434h54l622 -1434h-184l-123 291h-684zM684 1090l-274 -644h548zM768 1575h-139l188 280h242z" />
    <glyph glyph-name="Acircumflex" unicode="&#xc2;" horiz-adv-x="1368" 
d="M219 0h-184l622 1434h54l622 -1434h-184l-123 291h-684zM500 1575h-123l205 280h215l204 -280h-122l-191 182zM684 1090l-274 -644h548z" />
    <glyph glyph-name="Atilde" unicode="&#xc3;" horiz-adv-x="1368" 
d="M219 0h-184l622 1434h54l622 -1434h-184l-123 291h-684zM334 1602h-10l14 147c61 57 129 86 203 86c65 0 132 -30 172 -59c40 -28 96 -58 145 -58c59 0 118 33 178 99h11l-15 -148c-61 -57 -129 -86 -203 -86c-65 0 -132 30 -172 58c-40 29 -96 59 -145 59
c-59 0 -119 -33 -178 -98zM684 1090l-274 -644h548z" />
    <glyph glyph-name="Adieresis" unicode="&#xc4;" horiz-adv-x="1368" 
d="M219 0h-184l622 1434h54l622 -1434h-184l-123 291h-684zM391 1706c0 31 11 57 32 79c22 23 48 34 77 34c31 0 57 -11 79 -34c22 -22 33 -48 33 -79c0 -29 -11 -55 -33 -77c-22 -21 -48 -32 -79 -32c-29 0 -55 11 -77 32c-21 22 -32 48 -32 77zM684 1090l-274 -644h548z
M758 1706c0 31 11 57 32 79c21 23 47 34 76 34c31 0 57 -11 79 -34c23 -22 34 -48 34 -79c0 -29 -11 -55 -34 -77c-22 -21 -48 -32 -79 -32c-29 0 -55 11 -76 32c-21 22 -32 48 -32 77z" />
    <glyph glyph-name="Aring" unicode="&#xc5;" horiz-adv-x="1368" 
d="M219 0h-184l596 1370c-47 13 -85 37 -114 74s-44 80 -44 127c0 58 20 107 61 147s91 60 150 60s109 -20 150 -60s61 -89 61 -147c0 -47 -15 -90 -44 -127s-67 -61 -114 -74l596 -1370h-184l-123 291h-684zM684 1090l-274 -644h548zM591 1662c-24 -25 -36 -55 -36 -91
s12 -67 36 -92s55 -37 93 -37s69 12 93 37s36 56 36 92s-12 66 -36 91s-55 38 -93 38s-69 -13 -93 -38z" />
    <glyph glyph-name="AE" unicode="&#xc6;" horiz-adv-x="1994" 
d="M219 0h-184l622 1434h666l70 -156h-623l207 -463h571l66 -156h-570l222 -503h626l68 -156h-811l-123 291h-684zM684 1090l-272 -644h546z" />
    <glyph glyph-name="Ccedilla" unicode="&#xc7;" horiz-adv-x="1353" 
d="M82 717c0 213 82 406 214 535c66 65 144 117 234 154c91 37 186 56 287 56c158 0 297 -41 418 -123l12 -202h-20c-123 113 -262 170 -418 170c-145 0 -280 -57 -380 -156s-163 -254 -163 -434s63 -335 163 -434s235 -156 380 -156c156 0 295 57 418 170h20l-12 -203
c-118 -80 -257 -121 -418 -123l-63 -98c39 15 79 23 120 23c52 0 93 -17 124 -52s46 -78 46 -131c0 -59 -22 -108 -66 -147s-104 -58 -181 -58c-66 0 -123 11 -172 33l-17 103l15 6c53 -30 104 -45 151 -45c64 0 121 39 121 108c0 68 -53 99 -121 99c-36 0 -76 -10 -119 -29
l-10 12l80 182c-181 20 -345 105 -460 233c-113 128 -183 310 -183 507z" />
    <glyph glyph-name="Egrave" unicode="&#xc8;" horiz-adv-x="1062" 
d="M971 0h-828v1434h820v-156h-635v-463h612v-156h-612v-503h643v-156zM590 1575l-291 280h242l188 -280h-139z" />
    <glyph glyph-name="Eacute" unicode="&#xc9;" horiz-adv-x="1062" 
d="M971 0h-828v1434h820v-156h-635v-463h612v-156h-612v-503h643v-156zM537 1575h-140l189 280h241z" />
    <glyph glyph-name="Ecircumflex" unicode="&#xca;" horiz-adv-x="1062" 
d="M971 0h-828v1434h820v-156h-635v-463h612v-156h-612v-503h643v-156zM373 1575h-123l205 280h215l204 -280h-122l-191 182z" />
    <glyph glyph-name="Edieresis" unicode="&#xcb;" horiz-adv-x="1062" 
d="M971 0h-828v1434h820v-156h-635v-463h612v-156h-612v-503h643v-156zM287 1706c0 31 11 57 32 79c21 23 47 34 76 34c31 0 57 -11 79 -34c23 -22 34 -48 34 -79c0 -29 -11 -55 -34 -77c-22 -21 -48 -32 -79 -32c-29 0 -55 11 -76 32c-21 22 -32 48 -32 77zM653 1706
c0 31 11 57 32 79c22 23 48 34 77 34c31 0 57 -11 79 -34c22 -22 33 -48 33 -79c0 -29 -11 -55 -33 -77c-22 -21 -48 -32 -79 -32c-29 0 -55 11 -77 32c-21 22 -32 48 -32 77z" />
    <glyph glyph-name="Igrave" unicode="&#xcc;" horiz-adv-x="471" 
d="M219 1575l-291 280h242l188 -280h-139zM328 0h-185v1434h185v-1434z" />
    <glyph glyph-name="Iacute" unicode="&#xcd;" horiz-adv-x="471" 
d="M242 1575h-140l189 280h241zM328 0h-185v1434h185v-1434z" />
    <glyph glyph-name="Icircumflex" unicode="&#xce;" horiz-adv-x="471" 
d="M47 1575h-123l205 280h215l205 -280h-123l-190 182zM328 0h-185v1434h185v-1434z" />
    <glyph glyph-name="Idieresis" unicode="&#xcf;" horiz-adv-x="471" 
d="M-57 1706c0 31 11 57 32 79c21 23 47 34 76 34c31 0 57 -11 79 -34c23 -22 34 -48 34 -79c0 -29 -11 -55 -34 -77c-22 -21 -48 -32 -79 -32c-29 0 -55 11 -76 32c-21 22 -32 48 -32 77zM328 0h-185v1434h185v-1434zM309 1706c0 31 11 57 32 79c22 23 48 34 77 34
c31 0 57 -11 79 -34c22 -22 33 -48 33 -79c0 -29 -11 -55 -33 -77c-22 -21 -48 -32 -79 -32c-29 0 -55 11 -77 32c-21 22 -32 48 -32 77z" />
    <glyph glyph-name="Eth" unicode="&#xd0;" horiz-adv-x="1296" 
d="M160 647h-160v135h160v652h319c196 0 379 -69 514 -189c67 -60 121 -136 161 -227s60 -192 60 -301s-20 -210 -60 -301s-94 -167 -161 -227c-135 -120 -318 -189 -514 -189h-319v647zM344 647v-491h139c152 0 288 52 387 144c100 93 160 241 160 417s-60 324 -160 416
c-99 93 -235 145 -387 145h-139v-496h287v-135h-287z" />
    <glyph glyph-name="Ntilde" unicode="&#xd1;" horiz-adv-x="1382" 
d="M328 0h-185v1434h70l842 -1008v1008h184v-1434h-70l-841 1012v-1012zM340 1602h-10l14 147c61 57 129 86 203 86c65 0 132 -30 172 -59c40 -28 96 -58 145 -58c59 0 118 33 178 99h11l-15 -148c-61 -57 -129 -86 -202 -86c-65 0 -133 30 -173 58c-40 29 -96 59 -145 59
c-59 0 -119 -33 -178 -98z" />
    <glyph glyph-name="Ograve" unicode="&#xd2;" horiz-adv-x="1658" 
d="M82 717c0 105 19 204 58 296c39 93 92 172 158 237c67 66 146 118 238 155c92 38 190 57 293 57s201 -19 293 -57c92 -37 171 -89 238 -155c67 -65 119 -144 158 -237c39 -92 59 -191 59 -296c0 -140 -33 -267 -100 -382c-66 -114 -156 -203 -270 -268
c-114 -64 -240 -96 -378 -96s-264 32 -378 96c-114 65 -204 154 -270 268c-66 115 -99 242 -99 382zM829 127c105 0 199 23 284 69c85 47 152 115 203 206s77 196 77 315s-26 224 -77 315c-101 181 -278 275 -487 275c-156 0 -296 -57 -399 -156
c-101 -99 -164 -254 -164 -434s63 -335 164 -434c103 -99 243 -156 399 -156zM813 1575l-291 280h242l188 -280h-139z" />
    <glyph glyph-name="Oacute" unicode="&#xd3;" horiz-adv-x="1658" 
d="M82 717c0 105 19 204 58 296c39 93 92 172 158 237c67 66 146 118 238 155c92 38 190 57 293 57s201 -19 293 -57c92 -37 171 -89 238 -155c67 -65 119 -144 158 -237c39 -92 59 -191 59 -296c0 -140 -33 -267 -100 -382c-66 -114 -156 -203 -270 -268
c-114 -64 -240 -96 -378 -96s-264 32 -378 96c-114 65 -204 154 -270 268c-66 115 -99 242 -99 382zM829 127c105 0 199 23 284 69c85 47 152 115 203 206s77 196 77 315s-26 224 -77 315c-101 181 -278 275 -487 275c-156 0 -296 -57 -399 -156
c-101 -99 -164 -254 -164 -434s63 -335 164 -434c103 -99 243 -156 399 -156zM846 1575h-139l188 280h242z" />
    <glyph glyph-name="Ocircumflex" unicode="&#xd4;" horiz-adv-x="1658" 
d="M82 717c0 105 19 204 58 296c39 93 92 172 158 237c67 66 146 118 238 155c92 38 190 57 293 57s201 -19 293 -57c92 -37 171 -89 238 -155c67 -65 119 -144 158 -237c39 -92 59 -191 59 -296c0 -140 -33 -267 -100 -382c-66 -114 -156 -203 -270 -268
c-114 -64 -240 -96 -378 -96s-264 32 -378 96c-114 65 -204 154 -270 268c-66 115 -99 242 -99 382zM829 127c105 0 199 23 284 69c85 47 152 115 203 206s77 196 77 315s-26 224 -77 315c-101 181 -278 275 -487 275c-156 0 -296 -57 -399 -156
c-101 -99 -164 -254 -164 -434s63 -335 164 -434c103 -99 243 -156 399 -156zM641 1575h-123l205 280h215l205 -280h-123l-191 182z" />
    <glyph glyph-name="Otilde" unicode="&#xd5;" horiz-adv-x="1658" 
d="M82 717c0 105 19 204 58 296c39 93 92 172 158 237c67 66 146 118 238 155c92 38 190 57 293 57s201 -19 293 -57c92 -37 171 -89 238 -155c67 -65 119 -144 158 -237c39 -92 59 -191 59 -296c0 -140 -33 -267 -100 -382c-66 -114 -156 -203 -270 -268
c-114 -64 -240 -96 -378 -96s-264 32 -378 96c-114 65 -204 154 -270 268c-66 115 -99 242 -99 382zM829 127c105 0 199 23 284 69c85 47 152 115 203 206s77 196 77 315s-26 224 -77 315c-101 181 -278 275 -487 275c-156 0 -296 -57 -399 -156
c-101 -99 -164 -254 -164 -434s63 -335 164 -434c103 -99 243 -156 399 -156zM479 1602h-10l14 147c61 57 129 86 203 86c65 0 133 -30 173 -59c40 -28 96 -58 145 -58c59 0 118 33 178 99h10l-14 -148c-61 -57 -129 -86 -203 -86c-65 0 -133 30 -173 58
c-40 29 -96 59 -145 59c-59 0 -119 -33 -178 -98z" />
    <glyph glyph-name="Odieresis" unicode="&#xd6;" horiz-adv-x="1658" 
d="M82 717c0 105 19 204 58 296c39 93 92 172 158 237c67 66 146 118 238 155c92 38 190 57 293 57s201 -19 293 -57c92 -37 171 -89 238 -155c67 -65 119 -144 158 -237c39 -92 59 -191 59 -296c0 -140 -33 -267 -100 -382c-66 -114 -156 -203 -270 -268
c-114 -64 -240 -96 -378 -96s-264 32 -378 96c-114 65 -204 154 -270 268c-66 115 -99 242 -99 382zM829 127c105 0 199 23 284 69c85 47 152 115 203 206s77 196 77 315s-26 224 -77 315c-101 181 -278 275 -487 275c-156 0 -296 -57 -399 -156
c-101 -99 -164 -254 -164 -434s63 -335 164 -434c103 -99 243 -156 399 -156zM537 1706c0 31 11 57 32 79c21 23 47 34 76 34c31 0 57 -11 79 -34c23 -22 34 -48 34 -79c0 -29 -11 -55 -34 -77c-22 -21 -48 -32 -79 -32c-29 0 -55 11 -76 32c-21 22 -32 48 -32 77zM903 1706
c0 31 11 57 32 79c22 23 48 34 77 34c31 0 57 -11 79 -34c22 -22 33 -48 33 -79c0 -29 -11 -55 -33 -77c-22 -21 -48 -32 -79 -32c-29 0 -55 11 -77 32c-21 22 -32 48 -32 77z" />
    <glyph glyph-name="multiply" unicode="&#xd7;" horiz-adv-x="868" 
d="M195 416l-97 96l240 240l-240 239l97 96l239 -239l240 239l96 -96l-240 -239l240 -240l-96 -96l-240 239z" />
    <glyph glyph-name="Oslash" unicode="&#xd8;" horiz-adv-x="1658" 
d="M82 717c0 105 19 204 58 296c39 93 92 172 158 237c67 66 146 118 238 155c92 38 190 57 293 57c105 0 206 -20 304 -59l59 104l135 -73l-59 -107c96 -67 171 -153 226 -260c55 -106 83 -223 83 -350c0 -140 -33 -267 -100 -382c-66 -114 -156 -203 -270 -268
c-114 -64 -240 -96 -378 -96c-103 0 -204 20 -303 60l-59 -105l-135 74l59 106c-96 67 -172 153 -227 259c-55 107 -82 224 -82 352zM266 717c0 -204 76 -368 205 -471l584 1020c-71 27 -146 41 -226 41c-156 0 -296 -57 -399 -156c-101 -99 -164 -254 -164 -434zM1188 1188
l-584 -1020c71 -27 146 -41 225 -41c105 0 199 23 284 69c85 47 152 115 203 206s77 196 77 315c0 204 -76 368 -205 471z" />
    <glyph glyph-name="Ugrave" unicode="&#xd9;" horiz-adv-x="1306" 
d="M123 535v899h184v-930c0 -131 43 -234 110 -291c68 -57 148 -86 236 -86s168 29 235 86c68 57 111 160 111 291v930h185v-899c0 -179 -49 -317 -146 -416s-226 -148 -385 -148s-287 49 -384 147c-97 99 -146 238 -146 417zM688 1575l-291 280h242l188 -280h-139z" />
    <glyph glyph-name="Uacute" unicode="&#xda;" horiz-adv-x="1306" 
d="M123 535v899h184v-930c0 -131 43 -234 110 -291c68 -57 148 -86 236 -86s168 29 235 86c68 57 111 160 111 291v930h185v-899c0 -179 -49 -317 -146 -416s-226 -148 -385 -148s-287 49 -384 147c-97 99 -146 238 -146 417zM618 1575h-139l189 280h241z" />
    <glyph glyph-name="Ucircumflex" unicode="&#xdb;" horiz-adv-x="1306" 
d="M123 535v899h184v-930c0 -131 43 -234 110 -291c68 -57 148 -86 236 -86s168 29 235 86c68 57 111 160 111 291v930h185v-899c0 -179 -49 -317 -146 -416s-226 -148 -385 -148s-287 49 -384 147c-97 99 -146 238 -146 417zM465 1575h-123l205 280h215l205 -280h-123
l-191 182z" />
    <glyph glyph-name="Udieresis" unicode="&#xdc;" horiz-adv-x="1306" 
d="M123 535v899h184v-930c0 -131 43 -234 110 -291c68 -57 148 -86 236 -86s168 29 235 86c68 57 111 160 111 291v930h185v-899c0 -179 -49 -317 -146 -416s-226 -148 -385 -148s-287 49 -384 147c-97 99 -146 238 -146 417zM360 1706c0 31 11 57 32 79c22 23 48 34 77 34
c31 0 57 -11 79 -34c23 -22 34 -48 34 -79c0 -29 -11 -55 -34 -77c-22 -21 -48 -32 -79 -32c-29 0 -55 11 -77 32c-21 22 -32 48 -32 77zM727 1706c0 31 11 57 32 79c22 23 48 34 77 34c31 0 57 -11 79 -34c22 -22 33 -48 33 -79c0 -29 -11 -55 -33 -77
c-22 -21 -48 -32 -79 -32c-29 0 -55 11 -77 32c-21 22 -32 48 -32 77z" />
    <glyph glyph-name="Yacute" unicode="&#xdd;" horiz-adv-x="1200" 
d="M508 623l-479 811h196l375 -652l375 652h196l-479 -811v-623h-184v623zM565 1575h-139l188 280h242z" />
    <glyph glyph-name="Thorn" unicode="&#xde;" horiz-adv-x="1028" 
d="M307 0h-184v1434h184v-271h180c157 0 292 -54 373 -138c83 -83 129 -192 129 -308s-46 -225 -129 -309c-81 -84 -216 -138 -373 -138h-180v-270zM307 1008v-582h182c94 0 170 26 228 77c59 51 88 123 88 214s-29 163 -88 214c-58 51 -134 77 -228 77h-182z" />
    <glyph glyph-name="germandbls" unicode="&#xdf;" horiz-adv-x="1198" 
d="M207 864h-137v148h137v78c0 75 18 141 53 198c72 116 189 174 320 174c113 0 204 -31 271 -94s101 -143 101 -242c0 -159 -94 -277 -235 -340c109 -25 202 -69 282 -137c80 -67 129 -169 129 -289c0 -116 -35 -210 -105 -282c-70 -71 -158 -107 -265 -107
c-111 0 -226 38 -305 99l39 159h12c29 -31 65 -55 110 -74s88 -28 127 -28c66 0 120 22 161 65c42 43 63 102 63 177c0 93 -44 169 -131 228s-196 93 -328 101v148c176 15 282 111 282 270c0 57 -19 106 -58 146c-38 41 -88 61 -150 61c-61 0 -112 -20 -151 -61
s-58 -96 -58 -166v-1096h-164v864z" />
    <glyph glyph-name="agrave" unicode="&#xe0;" horiz-adv-x="1255" 
d="M606 1040c149 0 278 -66 355 -155v127h163v-1012h-163v127c-77 -89 -206 -156 -355 -156c-99 0 -189 24 -270 72s-144 113 -190 194c-45 82 -68 172 -68 269s23 187 68 268c46 82 109 147 190 194c81 48 171 72 270 72zM342 781c-67 -75 -100 -166 -100 -275
s33 -200 100 -275s155 -112 264 -112s197 37 264 112s101 166 101 275s-34 200 -101 275s-155 112 -264 112s-197 -37 -264 -112zM641 1153l-291 281h242l188 -281h-139z" />
    <glyph glyph-name="aacute" unicode="&#xe1;" horiz-adv-x="1255" 
d="M606 1040c149 0 278 -66 355 -155v127h163v-1012h-163v127c-77 -89 -206 -156 -355 -156c-99 0 -189 24 -270 72s-144 113 -190 194c-45 82 -68 172 -68 269s23 187 68 268c46 82 109 147 190 194c81 48 171 72 270 72zM342 781c-67 -75 -100 -166 -100 -275
s33 -200 100 -275s155 -112 264 -112s197 37 264 112s101 166 101 275s-34 200 -101 275s-155 112 -264 112s-197 -37 -264 -112zM571 1153h-139l189 281h241z" />
    <glyph glyph-name="acircumflex" unicode="&#xe2;" horiz-adv-x="1255" 
d="M606 1040c149 0 278 -66 355 -155v127h163v-1012h-163v127c-77 -89 -206 -156 -355 -156c-99 0 -189 24 -270 72s-144 113 -190 194c-45 82 -68 172 -68 269s23 187 68 268c46 82 109 147 190 194c81 48 171 72 270 72zM342 781c-67 -75 -100 -166 -100 -275
s33 -200 100 -275s155 -112 264 -112s197 37 264 112s101 166 101 275s-34 200 -101 275s-155 112 -264 112s-197 -37 -264 -112zM418 1153h-123l205 281h215l205 -281h-123l-191 182z" />
    <glyph glyph-name="atilde" unicode="&#xe3;" horiz-adv-x="1255" 
d="M606 1040c149 0 278 -66 355 -155v127h163v-1012h-163v127c-77 -89 -206 -156 -355 -156c-99 0 -189 24 -270 72s-144 113 -190 194c-45 82 -68 172 -68 269s23 187 68 268c46 82 109 147 190 194c81 48 171 72 270 72zM342 781c-67 -75 -100 -166 -100 -275
s33 -200 100 -275s155 -112 264 -112s197 37 264 112s101 166 101 275s-34 200 -101 275s-155 112 -264 112s-197 -37 -264 -112zM266 1180h-10l14 147c61 57 129 86 203 86c65 0 133 -30 173 -59c40 -28 96 -58 145 -58c59 0 118 33 178 99h10l-14 -148
c-61 -57 -129 -86 -203 -86c-65 0 -133 30 -173 58c-40 29 -96 59 -145 59c-59 0 -119 -33 -178 -98z" />
    <glyph glyph-name="adieresis" unicode="&#xe4;" horiz-adv-x="1255" 
d="M606 1040c149 0 278 -66 355 -155v127h163v-1012h-163v127c-77 -89 -206 -156 -355 -156c-99 0 -189 24 -270 72s-144 113 -190 194c-45 82 -68 172 -68 269s23 187 68 268c46 82 109 147 190 194c81 48 171 72 270 72zM342 781c-67 -75 -100 -166 -100 -275
s33 -200 100 -275s155 -112 264 -112s197 37 264 112s101 166 101 275s-34 200 -101 275s-155 112 -264 112s-197 -37 -264 -112zM313 1284c0 31 11 57 32 79c22 23 48 34 77 34c31 0 57 -11 79 -34c23 -22 34 -48 34 -79c0 -29 -11 -55 -34 -76c-22 -21 -48 -32 -79 -32
c-29 0 -55 11 -77 32c-21 21 -32 47 -32 76zM680 1284c0 31 11 57 32 79c21 23 47 34 76 34c31 0 57 -11 79 -34c23 -22 34 -48 34 -79c0 -29 -11 -55 -34 -76c-22 -21 -48 -32 -79 -32c-29 0 -55 11 -76 32s-32 47 -32 76z" />
    <glyph glyph-name="aring" unicode="&#xe5;" horiz-adv-x="1255" 
d="M606 1040c149 0 278 -66 355 -155v127h163v-1012h-163v127c-77 -89 -206 -156 -355 -156c-99 0 -189 24 -270 72s-144 113 -190 194c-45 82 -68 172 -68 269s23 187 68 268c46 82 109 147 190 194c81 48 171 72 270 72zM342 781c-67 -75 -100 -166 -100 -275
s33 -200 100 -275s155 -112 264 -112s197 37 264 112s101 166 101 275s-34 200 -101 275s-155 112 -264 112s-197 -37 -264 -112zM456 1174c-41 40 -61 89 -61 147s20 107 61 147s91 60 150 60s109 -20 150 -60s61 -89 61 -147s-20 -107 -61 -147s-91 -60 -150 -60
s-109 20 -150 60zM513 1412c-24 -25 -36 -55 -36 -91s12 -67 36 -92s55 -37 93 -37s69 12 93 37s36 56 36 92s-12 66 -36 91s-55 38 -93 38s-69 -13 -93 -38z" />
    <glyph glyph-name="ae" unicode="&#xe6;" horiz-adv-x="1775" 
d="M78 250c0 254 252 348 477 348h141c0 108 -29 193 -76 238c-45 47 -101 69 -161 69c-102 0 -195 -44 -279 -133h-22l16 170c35 26 81 49 136 68c55 20 110 30 165 30c73 0 140 -18 200 -53s105 -82 134 -141c96 121 238 194 391 194c143 0 261 -45 352 -136
c92 -90 138 -210 138 -359v-82h-830c6 -72 28 -135 65 -188c75 -107 183 -156 298 -156c72 0 136 12 193 36c57 25 119 67 186 128h16l-6 -179c-120 -89 -236 -133 -387 -133c-185 0 -346 88 -439 232c-43 -71 -98 -127 -166 -169c-67 -42 -139 -63 -214 -63
c-98 0 -177 27 -238 82c-60 55 -90 121 -90 197zM250 268c0 -92 68 -149 172 -149c65 0 130 29 183 82c55 53 91 149 91 262c-297 0 -446 -65 -446 -195zM868 598h672c-10 91 -46 165 -108 222s-139 85 -232 85c-78 0 -149 -27 -212 -81c-63 -53 -103 -129 -120 -226z" />
    <glyph glyph-name="ccedilla" unicode="&#xe7;" horiz-adv-x="1011" 
d="M78 506c0 107 25 202 74 284c100 165 266 250 454 250c117 0 214 -30 293 -90l6 -164h-18c-45 38 -88 65 -131 82s-93 25 -150 25c-107 0 -195 -36 -263 -109c-67 -73 -101 -165 -101 -278c0 -114 32 -207 97 -279s154 -108 267 -108c112 0 189 30 277 106h18l-6 -164
c-77 -60 -173 -90 -287 -90l-63 -98c39 15 80 23 121 23c52 0 93 -17 124 -52s46 -78 46 -131c0 -59 -22 -108 -67 -147c-44 -39 -104 -58 -181 -58c-66 0 -123 11 -172 33l-17 103l15 6c53 -30 104 -45 151 -45c64 0 121 39 121 108c0 68 -53 99 -121 99
c-36 0 -76 -10 -119 -29l-10 12l82 185c-128 18 -233 74 -316 168s-124 213 -124 358z" />
    <glyph glyph-name="egrave" unicode="&#xe8;" horiz-adv-x="1157" 
d="M78 506c0 149 58 289 149 382c92 93 220 152 355 152c143 0 261 -45 352 -136c91 -90 137 -210 137 -359v-82h-829c6 -72 28 -135 65 -188c75 -107 182 -156 297 -156c72 0 136 12 193 36c57 25 119 67 186 128h16l-6 -179c-120 -89 -236 -133 -387 -133
c-99 0 -189 24 -270 71s-144 112 -190 193c-45 82 -68 172 -68 271zM250 598h672c-10 91 -46 165 -108 222s-139 85 -232 85c-78 0 -149 -27 -212 -81c-63 -53 -103 -129 -120 -226zM592 1153l-291 281h242l188 -281h-139z" />
    <glyph glyph-name="eacute" unicode="&#xe9;" horiz-adv-x="1157" 
d="M78 506c0 149 58 289 149 382c92 93 220 152 355 152c143 0 261 -45 352 -136c91 -90 137 -210 137 -359v-82h-829c6 -72 28 -135 65 -188c75 -107 182 -156 297 -156c72 0 136 12 193 36c57 25 119 67 186 128h16l-6 -179c-120 -89 -236 -133 -387 -133
c-99 0 -189 24 -270 71s-144 112 -190 193c-45 82 -68 172 -68 271zM250 598h672c-10 91 -46 165 -108 222s-139 85 -232 85c-78 0 -149 -27 -212 -81c-63 -53 -103 -129 -120 -226zM563 1153h-139l188 281h242z" />
    <glyph glyph-name="ecircumflex" unicode="&#xea;" horiz-adv-x="1157" 
d="M78 506c0 149 58 289 149 382c92 93 220 152 355 152c143 0 261 -45 352 -136c91 -90 137 -210 137 -359v-82h-829c6 -72 28 -135 65 -188c75 -107 182 -156 297 -156c72 0 136 12 193 36c57 25 119 67 186 128h16l-6 -179c-120 -89 -236 -133 -387 -133
c-99 0 -189 24 -270 71s-144 112 -190 193c-45 82 -68 172 -68 271zM250 598h672c-10 91 -46 165 -108 222s-139 85 -232 85c-78 0 -149 -27 -212 -81c-63 -53 -103 -129 -120 -226zM389 1153h-123l205 281h215l205 -281h-123l-190 182z" />
    <glyph glyph-name="edieresis" unicode="&#xeb;" horiz-adv-x="1157" 
d="M78 506c0 149 58 289 149 382c92 93 220 152 355 152c143 0 261 -45 352 -136c91 -90 137 -210 137 -359v-82h-829c6 -72 28 -135 65 -188c75 -107 182 -156 297 -156c72 0 136 12 193 36c57 25 119 67 186 128h16l-6 -179c-120 -89 -236 -133 -387 -133
c-99 0 -189 24 -270 71s-144 112 -190 193c-45 82 -68 172 -68 271zM250 598h672c-10 91 -46 165 -108 222s-139 85 -232 85c-78 0 -149 -27 -212 -81c-63 -53 -103 -129 -120 -226zM285 1284c0 31 11 57 32 79c21 23 47 34 76 34c31 0 57 -11 79 -34c23 -22 34 -48 34 -79
c0 -29 -11 -55 -34 -76c-22 -21 -48 -32 -79 -32c-29 0 -55 11 -76 32s-32 47 -32 76zM651 1284c0 31 11 57 32 79c22 23 48 34 77 34c31 0 57 -11 79 -34c22 -22 33 -48 33 -79c0 -29 -11 -55 -33 -76s-48 -32 -79 -32c-29 0 -55 11 -77 32c-21 21 -32 47 -32 76z" />
    <glyph glyph-name="igrave" unicode="&#xec;" horiz-adv-x="446" 
d="M227 1153l-290 281h241l189 -281h-140zM305 0h-164v1012h164v-1012z" />
    <glyph glyph-name="iacute" unicode="&#xed;" horiz-adv-x="446" 
d="M209 1153h-139l188 281h242zM305 0h-164v1012h164v-1012z" />
    <glyph glyph-name="icircumflex" unicode="&#xee;" horiz-adv-x="446" 
d="M35 1153h-123l205 281h215l205 -281h-123l-191 182zM305 0h-164v1012h164v-1012z" />
    <glyph glyph-name="idieresis" unicode="&#xef;" horiz-adv-x="446" 
d="M-70 1284c0 31 11 57 33 79c21 23 47 34 76 34c31 0 57 -11 79 -34c23 -22 34 -48 34 -79c0 -29 -11 -55 -34 -76c-22 -21 -48 -32 -79 -32c-29 0 -55 11 -76 32c-22 21 -33 47 -33 76zM305 0h-164v1012h164v-1012zM297 1284c0 31 11 57 32 79c22 23 48 34 77 34
c31 0 57 -11 79 -34c22 -22 33 -48 33 -79c0 -29 -11 -55 -33 -76s-48 -32 -79 -32c-29 0 -55 11 -77 32c-21 21 -32 47 -32 76z" />
    <glyph glyph-name="eth" unicode="&#xf0;" horiz-adv-x="1169" 
d="M78 455c0 136 59 262 147 343c88 83 209 132 330 132c69 0 133 -15 191 -45c59 -30 106 -68 143 -115c-21 147 -88 275 -201 383l-334 -137l-32 82l292 119c-71 55 -157 100 -258 137v32l146 68c107 -45 199 -101 278 -168l181 76l32 -82l-145 -59
c157 -171 235 -386 235 -646c0 -113 -21 -216 -64 -308c-43 -91 -104 -164 -183 -217s-170 -79 -271 -79c-260 -6 -493 226 -487 484zM352 684c-60 -59 -90 -136 -90 -229s30 -170 90 -230s133 -90 219 -90s159 30 220 90c61 61 92 137 92 230s-31 169 -92 229
s-134 90 -220 90s-159 -30 -219 -90z" />
    <glyph glyph-name="ntilde" unicode="&#xf1;" 
d="M295 0h-164v1012h164v-152c37 53 87 97 150 130s129 50 200 50c106 0 192 -32 257 -96c66 -64 99 -150 99 -258v-686h-163v651c0 75 -22 134 -67 177s-104 65 -177 65c-84 0 -155 -32 -213 -95c-57 -63 -86 -141 -86 -235v-563zM229 1180h-10l14 147c61 57 129 86 203 86
c65 0 133 -30 173 -59c40 -28 96 -58 145 -58c59 0 118 33 178 99h10l-14 -148c-61 -57 -129 -86 -203 -86c-65 0 -132 30 -172 58c-40 29 -96 59 -145 59c-60 0 -120 -33 -179 -98z" />
    <glyph glyph-name="ograve" unicode="&#xf2;" horiz-adv-x="1216" 
d="M230 122c-101 101 -152 229 -152 384s51 282 152 383c102 101 228 151 378 151s276 -50 378 -151s153 -228 153 -383s-51 -283 -153 -384s-228 -151 -378 -151s-276 50 -378 151zM608 119c106 0 194 36 263 108s104 165 104 279s-35 207 -104 279s-157 108 -263 108
c-105 0 -193 -36 -262 -108s-104 -165 -104 -279s35 -207 104 -279s157 -108 262 -108zM623 1153l-291 281h241l189 -281h-139z" />
    <glyph glyph-name="oacute" unicode="&#xf3;" horiz-adv-x="1216" 
d="M230 122c-101 101 -152 229 -152 384s51 282 152 383c102 101 228 151 378 151s276 -50 378 -151s153 -228 153 -383s-51 -283 -153 -384s-228 -151 -378 -151s-276 50 -378 151zM608 119c106 0 194 36 263 108s104 165 104 279s-35 207 -104 279s-157 108 -263 108
c-105 0 -193 -36 -262 -108s-104 -165 -104 -279s35 -207 104 -279s157 -108 262 -108zM594 1153h-139l188 281h242z" />
    <glyph glyph-name="ocircumflex" unicode="&#xf4;" horiz-adv-x="1216" 
d="M230 122c-101 101 -152 229 -152 384s51 282 152 383c102 101 228 151 378 151s276 -50 378 -151s153 -228 153 -383s-51 -283 -153 -384s-228 -151 -378 -151s-276 50 -378 151zM608 119c106 0 194 36 263 108s104 165 104 279s-35 207 -104 279s-157 108 -263 108
c-105 0 -193 -36 -262 -108s-104 -165 -104 -279s35 -207 104 -279s157 -108 262 -108zM420 1153h-123l205 281h215l205 -281h-123l-191 182z" />
    <glyph glyph-name="otilde" unicode="&#xf5;" horiz-adv-x="1216" 
d="M230 122c-101 101 -152 229 -152 384s51 282 152 383c102 101 228 151 378 151s276 -50 378 -151s153 -228 153 -383s-51 -283 -153 -384s-228 -151 -378 -151s-276 50 -378 151zM608 119c106 0 194 36 263 108s104 165 104 279s-35 207 -104 279s-157 108 -263 108
c-105 0 -193 -36 -262 -108s-104 -165 -104 -279s35 -207 104 -279s157 -108 262 -108zM258 1180h-10l14 147c61 57 129 86 203 86c65 0 132 -30 172 -59c40 -28 96 -58 145 -58c59 0 119 33 179 99h10l-15 -148c-61 -57 -129 -86 -202 -86c-65 0 -133 30 -173 58
c-40 29 -96 59 -145 59c-59 0 -119 -33 -178 -98z" />
    <glyph glyph-name="odieresis" unicode="&#xf6;" horiz-adv-x="1216" 
d="M230 122c-101 101 -152 229 -152 384s51 282 152 383c102 101 228 151 378 151s276 -50 378 -151s153 -228 153 -383s-51 -283 -153 -384s-228 -151 -378 -151s-276 50 -378 151zM608 119c106 0 194 36 263 108s104 165 104 279s-35 207 -104 279s-157 108 -263 108
c-105 0 -193 -36 -262 -108s-104 -165 -104 -279s35 -207 104 -279s157 -108 262 -108zM315 1284c0 31 11 57 32 79c22 23 48 34 77 34c31 0 57 -11 79 -34c23 -22 34 -48 34 -79c0 -29 -11 -55 -34 -76c-22 -21 -48 -32 -79 -32c-29 0 -55 11 -77 32c-21 21 -32 47 -32 76z
M682 1284c0 31 11 57 32 79c22 23 48 34 77 34c31 0 57 -11 79 -34c22 -22 33 -48 33 -79c0 -29 -11 -55 -33 -76s-48 -32 -79 -32c-29 0 -55 11 -77 32c-21 21 -32 47 -32 76z" />
    <glyph glyph-name="divide" unicode="&#xf7;" horiz-adv-x="1011" 
d="M913 614h-815v136h815v-136zM389 307c0 33 11 61 34 84s50 35 81 35c33 0 61 -12 84 -35s35 -51 35 -84c0 -31 -12 -58 -35 -81c-23 -22 -51 -33 -84 -33c-31 0 -58 11 -81 33c-23 23 -34 50 -34 81zM389 1061c0 33 11 61 34 84s50 35 81 35c33 0 61 -12 84 -35
s35 -51 35 -84c0 -31 -12 -58 -35 -81s-51 -34 -84 -34c-31 0 -58 11 -81 34s-34 50 -34 81z" />
    <glyph glyph-name="oslash" unicode="&#xf8;" horiz-adv-x="1216" 
d="M78 506c0 155 51 282 152 383c102 101 228 151 378 151c73 0 139 -11 197 -34l45 79l135 -73l-45 -80c124 -96 199 -250 199 -426c0 -155 -51 -283 -153 -384s-228 -151 -378 -151c-71 0 -136 12 -196 35l-45 -80l-136 74l45 80c-124 96 -198 249 -198 426zM242 506
c0 -120 37 -216 112 -289l377 657c-41 13 -82 19 -123 19c-105 0 -193 -36 -262 -108s-104 -165 -104 -279zM862 795l-377 -658c39 -12 80 -18 123 -18c106 0 194 36 263 108s104 165 104 279c0 119 -38 216 -113 289z" />
    <glyph glyph-name="ugrave" unicode="&#xf9;" 
d="M119 326v686h164v-652c0 -75 22 -134 66 -177c45 -43 104 -64 177 -64c84 0 155 31 212 94c58 63 87 142 87 236v563h164v-1012h-164v152c-37 -53 -87 -97 -150 -131c-63 -33 -129 -50 -200 -50c-106 0 -192 32 -258 96c-65 65 -98 151 -98 259zM553 1153l-291 281h242
l188 -281h-139z" />
    <glyph glyph-name="uacute" unicode="&#xfa;" 
d="M119 326v686h164v-652c0 -75 22 -134 66 -177c45 -43 104 -64 177 -64c84 0 155 31 212 94c58 63 87 142 87 236v563h164v-1012h-164v152c-37 -53 -87 -97 -150 -131c-63 -33 -129 -50 -200 -50c-106 0 -192 32 -258 96c-65 65 -98 151 -98 259zM545 1153h-139l188 281
h242z" />
    <glyph glyph-name="ucircumflex" unicode="&#xfb;" 
d="M119 326v686h164v-652c0 -75 22 -134 66 -177c45 -43 104 -64 177 -64c84 0 155 31 212 94c58 63 87 142 87 236v563h164v-1012h-164v152c-37 -53 -87 -97 -150 -131c-63 -33 -129 -50 -200 -50c-106 0 -192 32 -258 96c-65 65 -98 151 -98 259zM371 1153h-123l205 281
h215l204 -281h-122l-191 182z" />
    <glyph glyph-name="udieresis" unicode="&#xfc;" 
d="M119 326v686h164v-652c0 -75 22 -134 66 -177c45 -43 104 -64 177 -64c84 0 155 31 212 94c58 63 87 142 87 236v563h164v-1012h-164v152c-37 -53 -87 -97 -150 -131c-63 -33 -129 -50 -200 -50c-106 0 -192 32 -258 96c-65 65 -98 151 -98 259zM266 1284
c0 31 11 57 32 79c22 23 48 34 77 34c31 0 57 -11 79 -34c22 -22 33 -48 33 -79c0 -29 -11 -55 -33 -76s-48 -32 -79 -32c-29 0 -55 11 -77 32c-21 21 -32 47 -32 76zM633 1284c0 31 11 57 32 79c21 23 47 34 76 34c31 0 57 -11 79 -34c23 -22 34 -48 34 -79
c0 -29 -11 -55 -34 -76c-22 -21 -48 -32 -79 -32c-29 0 -55 11 -76 32s-32 47 -32 76z" />
    <glyph glyph-name="yacute" unicode="&#xfd;" horiz-adv-x="1038" 
d="M438 182l-403 830h184l305 -650l314 650h166l-713 -1475h-164zM504 1153h-139l188 281h242z" />
    <glyph glyph-name="thorn" unicode="&#xfe;" horiz-adv-x="1263" 
d="M295 -463h-164v1897h164v-574c46 51 101 94 164 128c64 35 134 52 211 52c146 0 268 -50 367 -151c99 -100 149 -228 149 -383s-58 -294 -150 -387c-92 -92 -221 -148 -360 -148c-81 0 -155 16 -222 49s-120 76 -159 127v-610zM390 780c-70 -75 -105 -167 -105 -274
s35 -199 105 -274s158 -113 263 -113s193 38 263 113c71 76 106 167 106 274s-35 198 -106 273c-70 76 -158 114 -263 114s-193 -38 -263 -113z" />
    <glyph glyph-name="ydieresis" unicode="&#xff;" horiz-adv-x="1038" 
d="M438 182l-403 830h184l305 -650l314 650h166l-713 -1475h-164zM225 1284c0 31 11 57 32 79c22 23 48 34 77 34c31 0 57 -11 79 -34c22 -22 33 -48 33 -79c0 -29 -11 -55 -33 -76s-48 -32 -79 -32c-29 0 -55 11 -77 32c-21 21 -32 47 -32 76zM592 1284c0 31 11 57 32 79
c21 23 47 34 76 34c31 0 57 -11 79 -34c23 -22 34 -48 34 -79c0 -29 -11 -55 -34 -76c-22 -21 -48 -32 -79 -32c-29 0 -55 11 -76 32s-32 47 -32 76z" />
    <glyph glyph-name="Amacron" unicode="&#x100;" horiz-adv-x="1368" 
d="M219 0h-184l622 1434h54l622 -1434h-184l-123 291h-684zM684 1090l-274 -644h548zM920 1630h-471v131h471v-131z" />
    <glyph glyph-name="amacron" unicode="&#x101;" horiz-adv-x="1255" 
d="M606 1040c149 0 278 -66 355 -155v127h163v-1012h-163v127c-77 -89 -206 -156 -355 -156c-99 0 -189 24 -270 72s-144 113 -190 194c-45 82 -68 172 -68 269s23 187 68 268c46 82 109 147 190 194c81 48 171 72 270 72zM342 781c-67 -75 -100 -166 -100 -275
s33 -200 100 -275s155 -112 264 -112s197 37 264 112s101 166 101 275s-34 200 -101 275s-155 112 -264 112s-197 -37 -264 -112zM862 1208h-471v131h471v-131z" />
    <glyph glyph-name="Abreve" unicode="&#x102;" horiz-adv-x="1368" 
d="M219 0h-184l622 1434h54l622 -1434h-184l-123 291h-684zM684 1090l-274 -644h548zM444 1774h127c0 -83 38 -136 113 -136s113 53 113 136h127c0 -70 -22 -127 -67 -172c-44 -44 -102 -66 -173 -66s-129 22 -174 66c-44 45 -66 102 -66 172z" />
    <glyph glyph-name="abreve" unicode="&#x103;" horiz-adv-x="1255" 
d="M606 1040c149 0 278 -66 355 -155v127h163v-1012h-163v127c-77 -89 -206 -156 -355 -156c-99 0 -189 24 -270 72s-144 113 -190 194c-45 82 -68 172 -68 269s23 187 68 268c46 82 109 147 190 194c81 48 171 72 270 72zM342 781c-67 -75 -100 -166 -100 -275
s33 -200 100 -275s155 -112 264 -112s197 37 264 112s101 166 101 275s-34 200 -101 275s-155 112 -264 112s-197 -37 -264 -112zM387 1393h127c0 -83 38 -136 113 -136s112 53 112 136h127c0 -70 -22 -127 -66 -172c-44 -44 -102 -66 -173 -66s-129 22 -174 66
c-44 45 -66 102 -66 172z" />
    <glyph glyph-name="Aogonek" unicode="&#x104;" horiz-adv-x="1394" 
d="M219 0h-184l622 1434h54l622 -1434c-96 -80 -149 -155 -149 -244c0 -85 63 -145 151 -145c62 0 115 16 158 49l14 -6l-16 -107c-55 -26 -115 -39 -178 -39c-75 0 -138 22 -187 66c-49 43 -73 100 -73 170c0 104 58 197 161 256h-65l-123 291h-684zM684 1090l-274 -644
h548z" />
    <glyph glyph-name="aogonek" unicode="&#x105;" horiz-adv-x="1255" 
d="M606 1040c149 0 278 -66 355 -155v127h163v-1012c-96 -80 -149 -155 -149 -244c0 -85 63 -145 151 -145c62 0 115 16 158 49l14 -6l-16 -107c-55 -26 -115 -39 -178 -39c-75 0 -138 22 -187 66c-49 43 -73 100 -73 170c0 104 59 197 162 256h-45v127
c-77 -89 -206 -156 -355 -156c-99 0 -189 24 -270 72s-144 113 -190 194c-45 82 -68 172 -68 269s23 187 68 268c46 82 109 147 190 194c81 48 171 72 270 72zM342 781c-67 -75 -100 -166 -100 -275s33 -200 100 -275s155 -112 264 -112s197 37 264 112s101 166 101 275
s-34 200 -101 275s-155 112 -264 112s-197 -37 -264 -112z" />
    <glyph glyph-name="Cacute" unicode="&#x106;" horiz-adv-x="1353" 
d="M817 1462c158 0 297 -41 418 -123l12 -202h-20c-123 113 -262 170 -418 170c-145 0 -280 -57 -380 -156s-163 -254 -163 -434s63 -335 163 -434s235 -156 380 -156c156 0 295 57 418 170h20l-12 -203c-121 -82 -262 -123 -424 -123c-201 0 -387 80 -518 209
c-65 65 -116 144 -154 237s-57 193 -57 300c0 213 82 406 214 535c66 65 144 117 234 154c91 37 186 56 287 56zM805 1575h-139l188 280h242z" />
    <glyph glyph-name="cacute" unicode="&#x107;" horiz-adv-x="1011" 
d="M606 1040c119 0 216 -30 293 -90l6 -164h-18c-45 38 -88 65 -131 82s-93 25 -150 25c-107 0 -195 -36 -263 -109c-67 -73 -101 -165 -101 -278c0 -114 32 -207 97 -279s154 -108 267 -108c112 0 189 30 277 106h18l-6 -164c-74 -60 -170 -90 -289 -90
c-97 0 -185 21 -264 63c-79 43 -143 105 -192 187c-48 83 -72 178 -72 285s25 202 74 284c100 165 266 250 454 250zM573 1153h-139l189 281h241z" />
    <glyph glyph-name="Ccircumflex" unicode="&#x108;" horiz-adv-x="1353" 
d="M817 1462c158 0 297 -41 418 -123l12 -202h-20c-123 113 -262 170 -418 170c-145 0 -280 -57 -380 -156s-163 -254 -163 -434s63 -335 163 -434s235 -156 380 -156c156 0 295 57 418 170h20l-12 -203c-121 -82 -262 -123 -424 -123c-201 0 -387 80 -518 209
c-65 65 -116 144 -154 237s-57 193 -57 300c0 213 82 406 214 535c66 65 144 117 234 154c91 37 186 56 287 56zM610 1575h-123l205 280h215l205 -280h-123l-190 182z" />
    <glyph glyph-name="ccircumflex" unicode="&#x109;" horiz-adv-x="1011" 
d="M606 1040c119 0 216 -30 293 -90l6 -164h-18c-45 38 -88 65 -131 82s-93 25 -150 25c-107 0 -195 -36 -263 -109c-67 -73 -101 -165 -101 -278c0 -114 32 -207 97 -279s154 -108 267 -108c112 0 189 30 277 106h18l-6 -164c-74 -60 -170 -90 -289 -90
c-97 0 -185 21 -264 63c-79 43 -143 105 -192 187c-48 83 -72 178 -72 285s25 202 74 284c100 165 266 250 454 250zM399 1153h-123l205 281h215l205 -281h-123l-190 182z" />
    <glyph glyph-name="Cdotaccent" unicode="&#x10a;" horiz-adv-x="1353" 
d="M817 1462c158 0 297 -41 418 -123l12 -202h-20c-123 113 -262 170 -418 170c-145 0 -280 -57 -380 -156s-163 -254 -163 -434s63 -335 163 -434s235 -156 380 -156c156 0 295 57 418 170h20l-12 -203c-121 -82 -262 -123 -424 -123c-201 0 -387 80 -518 209
c-65 65 -116 144 -154 237s-57 193 -57 300c0 213 82 406 214 535c66 65 144 117 234 154c91 37 186 56 287 56zM718 1660c-23 23 -34 50 -34 81s11 58 34 80c23 23 50 34 81 34s58 -11 80 -34c23 -22 34 -49 34 -80s-11 -58 -34 -81c-22 -23 -49 -34 -80 -34s-58 11 -81 34
z" />
    <glyph glyph-name="cdotaccent" unicode="&#x10b;" horiz-adv-x="1011" 
d="M606 1040c119 0 216 -30 293 -90l6 -164h-18c-45 38 -88 65 -131 82s-93 25 -150 25c-107 0 -195 -36 -263 -109c-67 -73 -101 -165 -101 -278c0 -114 32 -207 97 -279s154 -108 267 -108c112 0 189 30 277 106h18l-6 -164c-74 -60 -170 -90 -289 -90
c-97 0 -185 21 -264 63c-79 43 -143 105 -192 187c-48 83 -72 178 -72 285s25 202 74 284c100 165 266 250 454 250zM507 1238c-45 45 -45 117 0 162c23 23 50 34 81 34s58 -11 80 -34c45 -45 45 -117 0 -162c-22 -23 -49 -34 -80 -34s-58 11 -81 34z" />
    <glyph glyph-name="Ccaron" unicode="&#x10c;" horiz-adv-x="1353" 
d="M817 1462c158 0 297 -41 418 -123l12 -202h-20c-123 113 -262 170 -418 170c-145 0 -280 -57 -380 -156s-163 -254 -163 -434s63 -335 163 -434s235 -156 380 -156c156 0 295 57 418 170h20l-12 -203c-121 -82 -262 -123 -424 -123c-201 0 -387 80 -518 209
c-65 65 -116 144 -154 237s-57 193 -57 300c0 213 82 406 214 535c66 65 144 117 234 154c91 37 186 56 287 56zM692 1575l-205 280h123l189 -182l190 182h123l-205 -280h-215z" />
    <glyph glyph-name="ccaron" unicode="&#x10d;" horiz-adv-x="1011" 
d="M606 1040c119 0 216 -30 293 -90l6 -164h-18c-45 38 -88 65 -131 82s-93 25 -150 25c-107 0 -195 -36 -263 -109c-67 -73 -101 -165 -101 -278c0 -114 32 -207 97 -279s154 -108 267 -108c112 0 189 30 277 106h18l-6 -164c-74 -60 -170 -90 -289 -90
c-97 0 -185 21 -264 63c-79 43 -143 105 -192 187c-48 83 -72 178 -72 285s25 202 74 284c100 165 266 250 454 250zM481 1153l-205 281h123l189 -183l190 183h123l-205 -281h-215z" />
    <glyph glyph-name="Dcaron" unicode="&#x10e;" horiz-adv-x="1280" 
d="M463 0h-320v1434h320c196 0 379 -69 514 -189c67 -60 121 -136 161 -227s60 -192 60 -301s-20 -210 -60 -301s-94 -167 -161 -227c-135 -120 -318 -189 -514 -189zM432 1575l-205 280h123l189 -182l190 182h123l-205 -280h-215zM328 1278v-1122h139c152 0 288 52 387 144
c100 93 160 241 160 417s-60 324 -160 416c-99 93 -235 145 -387 145h-139z" />
    <glyph glyph-name="dcaron" unicode="&#x10f;" horiz-adv-x="1552" 
d="M78 506c0 152 51 279 153 381s228 153 379 153c75 0 144 -15 207 -46c64 -30 115 -68 152 -115v596h164v-1475h-164v137c-97 -111 -220 -166 -371 -166c-145 0 -268 51 -369 154s-151 230 -151 381zM343 781c-67 -75 -101 -166 -101 -275s34 -200 101 -275
c68 -75 157 -112 267 -112s199 37 267 112s102 166 102 275s-34 200 -102 275s-157 112 -267 112s-199 -37 -267 -112zM1245 1333c0 68 50 121 115 121c68 0 119 -55 119 -123c0 -131 -76 -240 -183 -313l-34 33c62 51 95 107 98 170c-31 0 -58 11 -81 32s-34 48 -34 80z
" />
    <glyph glyph-name="Dcroat" unicode="&#x110;" horiz-adv-x="1296" 
d="M160 647h-160v135h160v652h319c196 0 379 -69 514 -189c67 -60 121 -136 161 -227s60 -192 60 -301s-20 -210 -60 -301s-94 -167 -161 -227c-135 -120 -318 -189 -514 -189h-319v647zM344 647v-491h139c152 0 288 52 387 144c100 93 160 241 160 417s-60 324 -160 416
c-99 93 -235 145 -387 145h-139v-496h287v-135h-287z" />
    <glyph glyph-name="dslash" unicode="&#x111;" horiz-adv-x="1263" 
d="M78 506c0 152 51 279 153 381s228 153 379 153c75 0 144 -15 207 -46c64 -30 115 -68 152 -115v305h-332v119h332v172h164v-172h135v-119h-135v-1184h-164v137c-97 -111 -220 -166 -371 -166c-145 0 -268 51 -369 154s-151 230 -151 381zM343 781
c-67 -75 -101 -166 -101 -275s34 -200 101 -275c68 -75 157 -112 267 -112s199 37 267 112s102 166 102 275s-34 200 -102 275s-157 112 -267 112s-199 -37 -267 -112z" />
    <glyph glyph-name="Emacron" unicode="&#x112;" horiz-adv-x="1062" 
d="M971 0h-828v1434h820v-156h-635v-463h612v-156h-612v-503h643v-156zM827 1630h-471v131h471v-131z" />
    <glyph glyph-name="emacron" unicode="&#x113;" horiz-adv-x="1157" 
d="M78 506c0 149 58 289 149 382c92 93 220 152 355 152c143 0 261 -45 352 -136c91 -90 137 -210 137 -359v-82h-829c6 -72 28 -135 65 -188c75 -107 182 -156 297 -156c72 0 136 12 193 36c57 25 119 67 186 128h16l-6 -179c-120 -89 -236 -133 -387 -133
c-99 0 -189 24 -270 71s-144 112 -190 193c-45 82 -68 172 -68 271zM250 598h672c-10 91 -46 165 -108 222s-139 85 -232 85c-78 0 -149 -27 -212 -81c-63 -53 -103 -129 -120 -226zM813 1208h-471v131h471v-131z" />
    <glyph glyph-name="Ebreve" unicode="&#x114;" horiz-adv-x="1062" 
d="M971 0h-828v1434h820v-156h-635v-463h612v-156h-612v-503h643v-156zM352 1774h127c0 -83 38 -136 113 -136s113 53 113 136h126c0 -70 -22 -127 -66 -172c-44 -44 -102 -66 -173 -66s-129 22 -174 66c-44 45 -66 102 -66 172z" />
    <glyph glyph-name="ebreve" unicode="&#x115;" horiz-adv-x="1157" 
d="M78 506c0 149 58 289 149 382c92 93 220 152 355 152c143 0 261 -45 352 -136c91 -90 137 -210 137 -359v-82h-829c6 -72 28 -135 65 -188c75 -107 182 -156 297 -156c72 0 136 12 193 36c57 25 119 67 186 128h16l-6 -179c-120 -89 -236 -133 -387 -133
c-99 0 -189 24 -270 71s-144 112 -190 193c-45 82 -68 172 -68 271zM250 598h672c-10 91 -46 165 -108 222s-139 85 -232 85c-78 0 -149 -27 -212 -81c-63 -53 -103 -129 -120 -226zM338 1393h127c0 -83 38 -136 113 -136s112 53 112 136h127c0 -70 -22 -127 -66 -172
c-44 -44 -102 -66 -173 -66s-129 22 -174 66c-44 45 -66 102 -66 172z" />
    <glyph glyph-name="Edotaccent" unicode="&#x116;" horiz-adv-x="1062" 
d="M971 0h-828v1434h820v-156h-635v-463h612v-156h-612v-503h643v-156zM490 1660c-22 23 -33 50 -33 81s11 58 33 80c45 45 117 45 162 0c23 -22 34 -49 34 -80s-11 -58 -34 -81c-45 -45 -117 -45 -162 0z" />
    <glyph glyph-name="edotaccent" unicode="&#x117;" horiz-adv-x="1157" 
d="M78 506c0 149 58 289 149 382c92 93 220 152 355 152c143 0 261 -45 352 -136c91 -90 137 -210 137 -359v-82h-829c6 -72 28 -135 65 -188c75 -107 182 -156 297 -156c72 0 136 12 193 36c57 25 119 67 186 128h16l-6 -179c-120 -89 -236 -133 -387 -133
c-99 0 -189 24 -270 71s-144 112 -190 193c-45 82 -68 172 -68 271zM250 598h672c-10 91 -46 165 -108 222s-139 85 -232 85c-78 0 -149 -27 -212 -81c-63 -53 -103 -129 -120 -226zM517 1238c-45 45 -45 117 0 162s117 45 162 0s45 -117 0 -162s-117 -45 -162 0z" />
    <glyph glyph-name="Eogonek" unicode="&#x118;" horiz-adv-x="1062" 
d="M852 0h-709v1434h820v-156h-635v-463h612v-156h-612v-503h643v-156c-96 -80 -150 -155 -150 -244c0 -85 64 -145 152 -145c61 0 114 16 157 49l15 -6l-17 -107c-55 -26 -115 -39 -178 -39c-75 0 -138 22 -187 66c-49 43 -73 100 -73 170c0 104 59 197 162 256z" />
    <glyph glyph-name="eogonek" unicode="&#x119;" horiz-adv-x="1157" 
d="M78 506c0 149 58 289 149 382c92 93 220 152 355 152c143 0 261 -45 352 -136c91 -90 137 -210 137 -359v-82h-829c6 -72 28 -135 65 -188c75 -107 182 -156 297 -156c72 0 136 12 193 36c57 25 119 67 186 128h16l-6 -179c-64 -48 -129 -83 -194 -104
c-96 -80 -150 -155 -150 -244c0 -85 64 -145 152 -145c61 0 114 16 157 49l15 -6l-17 -107c-55 -26 -115 -39 -178 -39c-75 0 -138 22 -187 66c-49 43 -73 100 -73 170c0 89 40 164 121 227h-33c-99 0 -189 24 -270 71s-144 112 -190 193c-45 82 -68 172 -68 271zM250 598
h672c-10 91 -46 165 -108 222s-139 85 -232 85c-78 0 -149 -27 -212 -81c-63 -53 -103 -129 -120 -226z" />
    <glyph glyph-name="Ecaron" unicode="&#x11a;" horiz-adv-x="1062" 
d="M971 0h-828v1434h820v-156h-635v-463h612v-156h-612v-503h643v-156zM465 1575l-205 280h123l188 -182l191 182h123l-205 -280h-215z" />
    <glyph glyph-name="ecaron" unicode="&#x11b;" horiz-adv-x="1157" 
d="M78 506c0 149 58 289 149 382c92 93 220 152 355 152c143 0 261 -45 352 -136c91 -90 137 -210 137 -359v-82h-829c6 -72 28 -135 65 -188c75 -107 182 -156 297 -156c72 0 136 12 193 36c57 25 119 67 186 128h16l-6 -179c-120 -89 -236 -133 -387 -133
c-99 0 -189 24 -270 71s-144 112 -190 193c-45 82 -68 172 -68 271zM250 598h672c-10 91 -46 165 -108 222s-139 85 -232 85c-78 0 -149 -27 -212 -81c-63 -53 -103 -129 -120 -226zM471 1153l-205 281h123l189 -183l190 183h123l-205 -281h-215z" />
    <glyph glyph-name="Gcircumflex" unicode="&#x11c;" horiz-adv-x="1499" 
d="M836 1462c183 0 336 -44 458 -133l13 -188h-25c-76 61 -149 104 -218 129s-145 37 -226 37c-144 0 -282 -51 -391 -146s-181 -253 -181 -444s67 -349 171 -444s236 -146 376 -146c151 0 282 53 391 158v362h-454v156h639v-576c-171 -171 -365 -256 -582 -256
c-197 0 -380 77 -512 205c-65 65 -117 144 -156 237c-38 94 -57 195 -57 304s20 210 60 303c41 94 95 173 164 237c137 128 327 205 530 205zM647 1575h-123l205 280h215l205 -280h-123l-190 182z" />
    <glyph glyph-name="gcircumflex" unicode="&#x11d;" horiz-adv-x="1241" 
d="M78 520c0 156 62 294 158 381c96 88 224 139 360 139c148 0 278 -61 350 -153v125h164v-920c0 -202 -47 -350 -141 -443c-94 -94 -226 -141 -396 -141c-114 0 -220 30 -319 89l-6 163h26c47 -34 95 -60 144 -77c49 -18 109 -27 178 -27c103 0 187 30 252 90
s98 146 98 258v156c-84 -105 -216 -160 -360 -160c-136 0 -263 51 -356 138c-93 88 -152 225 -152 382zM281 702c-26 -55 -39 -116 -39 -182c0 -132 50 -247 162 -319c56 -36 122 -54 198 -54s142 18 198 53c56 36 97 82 123 137c27 56 40 117 40 183
c0 132 -51 248 -163 319c-56 36 -122 54 -198 54s-142 -18 -198 -54s-97 -82 -123 -137zM424 1153h-123l205 281h215l205 -281h-123l-191 182z" />
    <glyph glyph-name="Gbreve" unicode="&#x11e;" horiz-adv-x="1499" 
d="M836 1462c183 0 336 -44 458 -133l13 -188h-25c-76 61 -149 104 -218 129s-145 37 -226 37c-144 0 -282 -51 -391 -146s-181 -253 -181 -444s67 -349 171 -444s236 -146 376 -146c151 0 282 53 391 158v362h-454v156h639v-576c-171 -171 -365 -256 -582 -256
c-197 0 -380 77 -512 205c-65 65 -117 144 -156 237c-38 94 -57 195 -57 304s20 210 60 303c41 94 95 173 164 237c137 128 327 205 530 205zM592 1815h127c0 -83 37 -136 112 -136s113 53 113 136h127c0 -70 -22 -127 -67 -172c-44 -44 -102 -66 -173 -66s-129 22 -173 66
c-44 45 -66 102 -66 172z" />
    <glyph glyph-name="gbreve" unicode="&#x11f;" horiz-adv-x="1241" 
d="M78 520c0 156 62 294 158 381c96 88 224 139 360 139c148 0 278 -61 350 -153v125h164v-920c0 -202 -47 -350 -141 -443c-94 -94 -226 -141 -396 -141c-114 0 -220 30 -319 89l-6 163h26c47 -34 95 -60 144 -77c49 -18 109 -27 178 -27c103 0 187 30 252 90
s98 146 98 258v156c-84 -105 -216 -160 -360 -160c-136 0 -263 51 -356 138c-93 88 -152 225 -152 382zM281 702c-26 -55 -39 -116 -39 -182c0 -132 50 -247 162 -319c56 -36 122 -54 198 -54s142 18 198 53c56 36 97 82 123 137c27 56 40 117 40 183
c0 132 -51 248 -163 319c-56 36 -122 54 -198 54s-142 -18 -198 -54s-97 -82 -123 -137zM360 1393h127c0 -83 38 -136 113 -136s113 53 113 136h127c0 -70 -22 -127 -67 -172c-44 -44 -102 -66 -173 -66s-129 22 -174 66c-44 45 -66 102 -66 172z" />
    <glyph glyph-name="Gdotaccent" unicode="&#x120;" horiz-adv-x="1499" 
d="M836 1462c183 0 336 -44 458 -133l13 -188h-25c-76 61 -149 104 -218 129s-145 37 -226 37c-144 0 -282 -51 -391 -146s-181 -253 -181 -444s67 -349 171 -444s236 -146 376 -146c151 0 282 53 391 158v362h-454v156h639v-576c-171 -171 -365 -256 -582 -256
c-197 0 -380 77 -512 205c-65 65 -117 144 -156 237c-38 94 -57 195 -57 304s20 210 60 303c41 94 95 173 164 237c137 128 327 205 530 205zM730 1660c-23 23 -34 50 -34 81s11 58 34 80c45 45 117 45 162 0c23 -22 34 -49 34 -80s-11 -58 -34 -81c-45 -45 -117 -45 -162 0
z" />
    <glyph glyph-name="gdotaccent" unicode="&#x121;" horiz-adv-x="1241" 
d="M78 520c0 156 62 294 158 381c96 88 224 139 360 139c148 0 278 -61 350 -153v125h164v-920c0 -202 -47 -350 -141 -443c-94 -94 -226 -141 -396 -141c-114 0 -220 30 -319 89l-6 163h26c47 -34 95 -60 144 -77c49 -18 109 -27 178 -27c103 0 187 30 252 90
s98 146 98 258v156c-84 -105 -216 -160 -360 -160c-136 0 -263 51 -356 138c-93 88 -152 225 -152 382zM281 702c-26 -55 -39 -116 -39 -182c0 -132 50 -247 162 -319c56 -36 122 -54 198 -54s142 18 198 53c56 36 97 82 123 137c27 56 40 117 40 183
c0 132 -51 248 -163 319c-56 36 -122 54 -198 54s-142 -18 -198 -54s-97 -82 -123 -137zM519 1238c-45 45 -45 117 0 162s117 45 162 0s45 -117 0 -162s-117 -45 -162 0z" />
    <glyph glyph-name="uni0122" unicode="&#x122;" horiz-adv-x="1499" 
d="M836 1462c183 0 336 -44 458 -133l13 -188h-25c-76 61 -149 104 -218 129s-145 37 -226 37c-144 0 -282 -51 -391 -146s-181 -253 -181 -444s67 -349 171 -444s236 -146 376 -146c151 0 282 53 391 158v362h-454v156h639v-576c-171 -171 -365 -256 -582 -256
c-197 0 -380 77 -512 205c-65 65 -117 144 -156 237c-38 94 -57 195 -57 304s20 210 60 303c41 94 95 173 164 237c137 128 327 205 530 205zM674 -268c0 68 49 121 114 121c68 0 119 -55 119 -123c0 -71 -19 -135 -57 -190c-37 -55 -86 -99 -145 -130l-15 39
c61 41 94 97 98 170c-31 0 -57 11 -80 33c-23 21 -34 48 -34 80z" />
    <glyph glyph-name="uni0123" unicode="&#x123;" horiz-adv-x="1241" 
d="M78 520c0 156 62 294 158 381c96 88 224 139 360 139c148 0 278 -61 350 -153v125h164v-920c0 -202 -47 -350 -141 -443c-94 -94 -226 -141 -396 -141c-114 0 -220 30 -319 89l-6 163h26c47 -34 95 -60 144 -77c49 -18 109 -27 178 -27c103 0 187 30 252 90
s98 146 98 258v156c-84 -105 -216 -160 -360 -160c-136 0 -263 51 -356 138c-93 88 -152 225 -152 382zM281 702c-26 -55 -39 -116 -39 -182c0 -132 50 -247 162 -319c56 -36 122 -54 198 -54s142 18 198 53c56 36 97 82 123 137c27 56 40 117 40 183
c0 132 -51 248 -163 319c-56 36 -122 54 -198 54s-142 -18 -198 -54s-97 -82 -123 -137zM483 1407c0 131 76 240 183 313l34 -32c-62 -51 -95 -107 -98 -170c31 0 57 -11 80 -33c23 -21 35 -48 35 -80c0 -68 -50 -121 -115 -121c-68 0 -119 55 -119 123z" />
    <glyph glyph-name="Hcircumflex" unicode="&#x124;" horiz-adv-x="1331" 
d="M328 0h-185v1434h185v-600h676v600h184v-1434h-184v678h-676v-678zM477 1575h-123l205 280h215l205 -280h-123l-190 182z" />
    <glyph glyph-name="hcircumflex" unicode="&#x125;" horiz-adv-x="1136" 
d="M295 0h-164v1475h164v-619c37 53 88 97 154 132c67 35 135 52 204 52c109 0 197 -32 264 -96c67 -63 101 -149 101 -258v-686h-164v651c0 75 -24 134 -71 177s-107 65 -181 65c-85 0 -157 -32 -217 -95s-90 -142 -90 -235v-563zM369 1575h-123l205 280h215l204 -280h-122
l-191 182z" />
    <glyph glyph-name="Hbar" unicode="&#x126;" horiz-adv-x="1372" 
d="M164 1073h-164v131h164v230h184v-230h676v230h184v-230h164v-131h-164v-1073h-184v678h-676v-678h-184v1073zM348 1073v-239h676v239h-676z" />
    <glyph glyph-name="hbar" unicode="&#x127;" horiz-adv-x="1150" 
d="M145 1184h-135v119h135v172h164v-172h332v-119h-332v-328c37 53 88 96 155 131s135 53 204 53c109 0 197 -32 264 -96c67 -63 100 -149 100 -258v-686h-164v651c0 75 -24 134 -71 177s-107 65 -181 65c-85 0 -157 -32 -217 -95s-90 -142 -90 -235v-563h-164v1184z" />
    <glyph glyph-name="Itilde" unicode="&#x128;" horiz-adv-x="471" 
d="M-115 1602h-10l14 147c61 57 129 86 203 86c65 0 133 -30 173 -59c40 -28 96 -58 145 -58c59 0 118 33 178 99h10l-14 -148c-61 -57 -129 -86 -203 -86c-65 0 -133 30 -173 58c-40 29 -96 59 -145 59c-59 0 -119 -33 -178 -98zM328 0h-185v1434h185v-1434z" />
    <glyph glyph-name="itilde" unicode="&#x129;" horiz-adv-x="446" 
d="M-127 1180h-10l14 147c61 57 129 86 203 86c65 0 132 -30 172 -59c40 -28 96 -58 145 -58c59 0 118 33 178 99h11l-15 -148c-61 -57 -129 -86 -202 -86c-65 0 -133 30 -173 58c-40 29 -96 59 -145 59c-59 0 -119 -33 -178 -98zM305 0h-164v1012h164v-1012z" />
    <glyph glyph-name="Imacron" unicode="&#x12a;" horiz-adv-x="471" 
d="M471 1630h-471v131h471v-131zM328 0h-185v1434h185v-1434z" />
    <glyph glyph-name="imacron" unicode="&#x12b;" horiz-adv-x="446" 
d="M459 1208h-471v131h471v-131zM305 0h-164v1012h164v-1012z" />
    <glyph glyph-name="Ibreve" unicode="&#x12c;" horiz-adv-x="471" 
d="M-4 1815h127c0 -83 38 -136 113 -136s112 53 112 136h127c0 -70 -22 -127 -66 -172c-44 -44 -102 -66 -173 -66s-129 22 -174 66c-44 45 -66 102 -66 172zM328 0h-185v1434h185v-1434z" />
    <glyph glyph-name="ibreve" unicode="&#x12d;" horiz-adv-x="446" 
d="M-16 1393h127c0 -83 37 -136 112 -136s113 53 113 136h127c0 -70 -22 -127 -67 -172c-44 -44 -102 -66 -173 -66s-129 22 -173 66c-44 45 -66 102 -66 172zM305 0h-164v1012h164v-1012z" />
    <glyph glyph-name="Iogonek" unicode="&#x12e;" horiz-adv-x="471" 
d="M47 -256c0 104 59 197 162 256h-66v1434h185v-1434c-96 -80 -150 -155 -150 -244c0 -85 64 -145 152 -145c61 0 114 16 157 49l15 -6l-17 -107c-55 -26 -115 -39 -178 -39c-75 0 -138 22 -187 66c-49 43 -73 100 -73 170z" />
    <glyph glyph-name="iogonek" unicode="&#x12f;" horiz-adv-x="446" 
d="M25 -256c0 104 58 197 161 256h-45v1012h164v-1012c-96 -80 -149 -155 -149 -244c0 -85 63 -145 151 -145c62 0 115 16 158 49l14 -6l-16 -107c-55 -26 -115 -39 -178 -39c-75 0 -138 22 -187 66c-49 43 -73 100 -73 170zM142 1238c-44 45 -44 117 0 162
c45 45 117 45 162 0s45 -117 0 -162s-117 -45 -162 0z" />
    <glyph glyph-name="Idot" unicode="&#x130;" horiz-adv-x="471" 
d="M155 1660c-23 23 -34 50 -34 81s11 58 34 80c23 23 50 34 81 34s58 -11 80 -34c23 -22 34 -49 34 -80s-11 -58 -34 -81c-22 -23 -49 -34 -80 -34s-58 11 -81 34zM328 0h-185v1434h185v-1434z" />
    <glyph glyph-name="dotlessi" unicode="&#x131;" horiz-adv-x="446" 
d="M305 0h-164v1012h164v-1012z" />
    <glyph glyph-name="IJ" unicode="&#x132;" horiz-adv-x="1161" 
d="M123 893v541h184v-535c0 -87 24 -155 72 -206c49 -50 111 -75 188 -75c81 0 147 23 199 70s78 117 78 211v535h184v-1002c0 -139 -44 -250 -132 -335c-88 -84 -200 -126 -337 -126c-69 0 -126 4 -170 11c-43 7 -92 19 -147 38l-23 189h23c87 -55 190 -82 309 -82
c77 0 143 19 200 60s93 119 93 223v186c-31 -41 -74 -74 -129 -98c-55 -23 -113 -35 -174 -35c-111 0 -211 38 -290 107c-79 71 -128 186 -128 323z" />
    <glyph glyph-name="ij" unicode="&#x133;" horiz-adv-x="1060" 
d="M86 1317c0 31 11 59 33 82c23 23 49 35 80 35s58 -12 81 -35s35 -51 35 -82s-12 -57 -35 -80c-23 -22 -50 -33 -81 -33s-57 11 -80 33c-22 23 -33 49 -33 80zM117 326v686h164v-652c0 -75 22 -134 65 -177s100 -64 170 -64c81 0 144 29 190 88c47 59 70 139 70 242v563
h164v-989c0 -159 -43 -284 -129 -376c-86 -93 -197 -139 -334 -139c-115 0 -222 27 -323 80l-7 172h27c52 -36 99 -61 142 -75s94 -21 151 -21c200 0 309 117 309 342v107c-73 -95 -174 -142 -303 -142c-61 0 -118 14 -172 42c-53 28 -97 70 -132 125s-52 118 -52 188z
M745 1317c0 31 11 59 33 82c23 23 49 35 80 35s59 -12 82 -35s35 -51 35 -82s-12 -57 -35 -80c-23 -22 -51 -33 -82 -33s-57 11 -80 33c-22 23 -33 49 -33 80z" />
    <glyph glyph-name="Jcircumflex" unicode="&#x134;" horiz-adv-x="774" 
d="M111 0l-19 174h27c59 -31 116 -47 170 -47c112 0 168 63 168 190v1117h184v-1096c0 -111 -30 -200 -89 -267s-142 -100 -249 -100c-61 0 -125 10 -192 29zM362 1575h-122l204 280h215l205 -280h-123l-190 182z" />
    <glyph glyph-name="jcircumflex" unicode="&#x135;" horiz-adv-x="460" 
d="M-78 -457l-16 152h20c39 -26 76 -39 109 -39c82 0 123 49 123 147v1209h164v-1178c0 -211 -92 -326 -263 -326c-54 0 -100 12 -137 35zM59 1153h-122l204 281h215l205 -281h-123l-190 182z" />
    <glyph glyph-name="uni0136" unicode="&#x136;" horiz-adv-x="1161" 
d="M328 0h-185v1434h185v-699l542 699h215l-561 -705l611 -729h-215l-592 707v-707zM479 -268c0 68 50 121 115 121c68 0 119 -55 119 -123c0 -143 -83 -256 -203 -320l-14 39c61 41 94 97 98 170c-31 0 -58 11 -81 33c-23 21 -34 48 -34 80z" />
    <glyph glyph-name="uni0137" unicode="&#x137;" horiz-adv-x="909" 
d="M295 0h-164v1475h164v-928l395 465h174l-405 -475l415 -537h-176l-403 518v-518zM338 -268c0 68 50 121 115 121c68 0 118 -54 118 -123c0 -71 -19 -135 -57 -190c-37 -55 -86 -99 -145 -130l-15 39c62 41 95 98 99 170c-31 0 -58 11 -81 33c-23 21 -34 48 -34 80z" />
    <glyph glyph-name="kgreenlandic" unicode="&#x138;" horiz-adv-x="909" 
d="M295 0h-164v1012h164v-465l395 465h174l-405 -475l415 -537h-176l-403 518v-518z" />
    <glyph glyph-name="Lacute" unicode="&#x139;" horiz-adv-x="1138" 
d="M1065 0h-922v1434h185v-1278h737v-156zM289 1575h-139l188 280h242z" />
    <glyph glyph-name="lacute" unicode="&#x13a;" horiz-adv-x="425" 
d="M240 1575h-140l189 280h241zM295 0h-164v1475h164v-1475z" />
    <glyph glyph-name="uni013B" unicode="&#x13b;" horiz-adv-x="1138" 
d="M1065 0h-922v1434h185v-1278h737v-156zM492 -268c0 68 49 121 114 121c68 0 119 -55 119 -123c0 -143 -83 -256 -203 -320l-14 39c61 41 94 97 98 170c-31 0 -57 11 -80 33c-23 21 -34 48 -34 80z" />
    <glyph glyph-name="uni013C" unicode="&#x13c;" horiz-adv-x="425" 
d="M88 -268c0 68 50 121 115 121c68 0 119 -55 119 -123c0 -143 -83 -256 -203 -320l-15 39c62 41 95 98 99 170c-31 0 -58 11 -81 33c-23 21 -34 48 -34 80zM295 0h-164v1475h164v-1475z" />
    <glyph glyph-name="Lcaron" unicode="&#x13d;" horiz-adv-x="1138" 
d="M1065 0h-922v1434h185v-1278h737v-156zM848 1333c0 68 50 121 115 121c68 0 118 -54 118 -123c0 -132 -75 -240 -182 -313l-35 33c63 51 96 108 99 170c-31 0 -58 11 -81 32s-34 48 -34 80z" />
    <glyph glyph-name="lcaron" unicode="&#x13e;" horiz-adv-x="733" 
d="M295 0h-164v1475h164v-1475zM459 1333c0 68 49 121 114 121c68 0 119 -55 119 -123c0 -132 -75 -240 -182 -313l-35 33c62 51 95 107 98 170c-31 0 -57 11 -80 32s-34 48 -34 80z" />
    <glyph glyph-name="Ldot" unicode="&#x13f;" horiz-adv-x="1138" 
d="M1065 0h-922v1434h185v-1278h737v-156zM684 729c0 33 11 61 34 84s50 35 81 35c33 0 61 -12 84 -35s35 -51 35 -84c0 -31 -12 -58 -35 -81s-51 -34 -84 -34c-31 0 -58 11 -81 34s-34 50 -34 81z" />
    <glyph glyph-name="ldot" unicode="&#x140;" horiz-adv-x="675" 
d="M295 0h-164v1475h164v-1475zM438 729c0 33 11 61 34 84s50 35 81 35c33 0 61 -12 84 -35s35 -51 35 -84c0 -31 -12 -58 -35 -81s-51 -34 -84 -34c-31 0 -58 11 -81 34s-34 50 -34 81z" />
    <glyph glyph-name="Lslash" unicode="&#x141;" horiz-adv-x="1171" 
d="M176 418l-176 -103v166l176 103v850h184v-744l345 201v-166l-345 -201v-368h738v-156h-922v418z" />
    <glyph glyph-name="lslash" unicode="&#x142;" horiz-adv-x="536" 
d="M186 496l-174 -101v166l174 101v813h164v-717l174 102v-166l-174 -102v-592h-164v496z" />
    <glyph glyph-name="Nacute" unicode="&#x143;" horiz-adv-x="1382" 
d="M328 0h-185v1434h70l842 -1008v1008h184v-1434h-70l-841 1012v-1012zM676 1575h-139l188 280h242z" />
    <glyph glyph-name="nacute" unicode="&#x144;" 
d="M295 0h-164v1012h164v-152c37 53 87 97 150 130s129 50 200 50c106 0 192 -32 257 -96c66 -64 99 -150 99 -258v-686h-163v651c0 75 -22 134 -67 177s-104 65 -177 65c-84 0 -155 -32 -213 -95c-57 -63 -86 -141 -86 -235v-563zM565 1153h-139l188 281h242z" />
    <glyph glyph-name="uni0145" unicode="&#x145;" horiz-adv-x="1382" 
d="M328 0h-185v1434h70l842 -1008v1008h184v-1434h-70l-841 1012v-1012zM573 -268c0 68 50 121 115 121c68 0 119 -55 119 -123c0 -143 -83 -256 -203 -320l-14 39c61 41 94 97 98 170c-31 0 -58 11 -81 33c-23 21 -34 48 -34 80z" />
    <glyph glyph-name="uni0146" unicode="&#x146;" 
d="M295 0h-164v1012h164v-152c37 53 87 97 150 130s129 50 200 50c106 0 192 -32 257 -96c66 -64 99 -150 99 -258v-686h-163v651c0 75 -22 134 -67 177s-104 65 -177 65c-84 0 -155 -32 -213 -95c-57 -63 -86 -141 -86 -235v-563zM434 -268c0 68 50 121 115 121
c68 0 119 -55 119 -123c0 -143 -83 -256 -203 -320l-14 39c61 41 94 97 98 170c-31 0 -58 11 -81 33c-23 21 -34 48 -34 80z" />
    <glyph glyph-name="Ncaron" unicode="&#x147;" horiz-adv-x="1382" 
d="M328 0h-185v1434h70l842 -1008v1008h184v-1434h-70l-841 1012v-1012zM584 1575l-205 280h123l188 -182l191 182h123l-205 -280h-215z" />
    <glyph glyph-name="ncaron" unicode="&#x148;" 
d="M295 0h-164v1012h164v-152c37 53 87 97 150 130s129 50 200 50c106 0 192 -32 257 -96c66 -64 99 -150 99 -258v-686h-163v651c0 75 -22 134 -67 177s-104 65 -177 65c-84 0 -155 -32 -213 -95c-57 -63 -86 -141 -86 -235v-563zM483 1153l-204 281h122l189 -183l190 183
h123l-205 -281h-215z" />
    <glyph glyph-name="napostrophe" unicode="&#x149;" horiz-adv-x="1296" 
d="M25 1333c0 68 49 121 114 121c68 0 119 -55 119 -123c0 -132 -75 -240 -182 -313l-35 33c62 51 95 107 98 170c-31 0 -57 11 -80 32s-34 48 -34 80zM471 0h-164v1012h164v-152c37 53 87 97 150 130s129 50 200 50c106 0 192 -32 258 -96s99 -150 99 -258v-686h-164v651
c0 75 -22 134 -67 177s-104 65 -177 65c-84 0 -155 -32 -213 -95c-57 -63 -86 -141 -86 -235v-563z" />
    <glyph glyph-name="Eng" unicode="&#x14a;" horiz-adv-x="1382" 
d="M328 0h-185v1434h70l842 -1141v1141h184v-1559c0 -111 -30 -200 -89 -267s-142 -100 -249 -100c-61 0 -125 10 -192 29l-19 174h27c59 -31 116 -47 170 -47c112 0 168 64 168 191v145l-727 971v-971z" />
    <glyph glyph-name="eng" unicode="&#x14b;" 
d="M295 0h-164v1012h164v-152c37 53 87 97 150 130s129 50 200 50c106 0 192 -32 257 -96c66 -64 99 -150 99 -258v-852c0 -211 -91 -326 -262 -326c-54 0 -100 12 -137 35l-16 152h20c39 -26 76 -39 109 -39c82 0 123 49 123 147v848c0 75 -22 134 -67 177s-104 65 -177 65
c-84 0 -155 -32 -213 -95c-57 -63 -86 -141 -86 -235v-563z" />
    <glyph glyph-name="Omacron" unicode="&#x14c;" horiz-adv-x="1658" 
d="M82 717c0 105 19 204 58 296c39 93 92 172 158 237c67 66 146 118 238 155c92 38 190 57 293 57s201 -19 293 -57c92 -37 171 -89 238 -155c67 -65 119 -144 158 -237c39 -92 59 -191 59 -296c0 -140 -33 -267 -100 -382c-66 -114 -156 -203 -270 -268
c-114 -64 -240 -96 -378 -96s-264 32 -378 96c-114 65 -204 154 -270 268c-66 115 -99 242 -99 382zM829 127c105 0 199 23 284 69c85 47 152 115 203 206s77 196 77 315s-26 224 -77 315c-101 181 -278 275 -487 275c-156 0 -296 -57 -399 -156
c-101 -99 -164 -254 -164 -434s63 -335 164 -434c103 -99 243 -156 399 -156zM1065 1630h-471v131h471v-131z" />
    <glyph glyph-name="omacron" unicode="&#x14d;" horiz-adv-x="1216" 
d="M230 122c-101 101 -152 229 -152 384s51 282 152 383c102 101 228 151 378 151s276 -50 378 -151s153 -228 153 -383s-51 -283 -153 -384s-228 -151 -378 -151s-276 50 -378 151zM608 119c106 0 194 36 263 108s104 165 104 279s-35 207 -104 279s-157 108 -263 108
c-105 0 -193 -36 -262 -108s-104 -165 -104 -279s35 -207 104 -279s157 -108 262 -108zM844 1208h-471v131h471v-131z" />
    <glyph glyph-name="Obreve" unicode="&#x14e;" horiz-adv-x="1658" 
d="M82 717c0 105 19 204 58 296c39 93 92 172 158 237c67 66 146 118 238 155c92 38 190 57 293 57s201 -19 293 -57c92 -37 171 -89 238 -155c67 -65 119 -144 158 -237c39 -92 59 -191 59 -296c0 -140 -33 -267 -100 -382c-66 -114 -156 -203 -270 -268
c-114 -64 -240 -96 -378 -96s-264 32 -378 96c-114 65 -204 154 -270 268c-66 115 -99 242 -99 382zM829 127c105 0 199 23 284 69c85 47 152 115 203 206s77 196 77 315s-26 224 -77 315c-101 181 -278 275 -487 275c-156 0 -296 -57 -399 -156
c-101 -99 -164 -254 -164 -434s63 -335 164 -434c103 -99 243 -156 399 -156zM590 1815h127c0 -83 37 -136 112 -136s113 53 113 136h127c0 -70 -22 -127 -67 -172c-44 -44 -102 -66 -173 -66s-129 22 -173 66c-44 45 -66 102 -66 172z" />
    <glyph glyph-name="obreve" unicode="&#x14f;" horiz-adv-x="1216" 
d="M230 122c-101 101 -152 229 -152 384s51 282 152 383c102 101 228 151 378 151s276 -50 378 -151s153 -228 153 -383s-51 -283 -153 -384s-228 -151 -378 -151s-276 50 -378 151zM608 119c106 0 194 36 263 108s104 165 104 279s-35 207 -104 279s-157 108 -263 108
c-105 0 -193 -36 -262 -108s-104 -165 -104 -279s35 -207 104 -279s157 -108 262 -108zM369 1393h127c0 -83 37 -136 112 -136s113 53 113 136h127c0 -70 -22 -127 -67 -172c-44 -44 -102 -66 -173 -66s-129 22 -173 66c-44 45 -66 102 -66 172z" />
    <glyph glyph-name="Ohungarumlaut" unicode="&#x150;" horiz-adv-x="1658" 
d="M82 717c0 105 19 204 58 296c39 93 92 172 158 237c67 66 146 118 238 155c92 38 190 57 293 57s201 -19 293 -57c92 -37 171 -89 238 -155c67 -65 119 -144 158 -237c39 -92 59 -191 59 -296c0 -140 -33 -267 -100 -382c-66 -114 -156 -203 -270 -268
c-114 -64 -240 -96 -378 -96s-264 32 -378 96c-114 65 -204 154 -270 268c-66 115 -99 242 -99 382zM829 127c105 0 199 23 284 69c85 47 152 115 203 206s77 196 77 315s-26 224 -77 315c-101 181 -278 275 -487 275c-156 0 -296 -57 -399 -156
c-101 -99 -164 -254 -164 -434s63 -335 164 -434c103 -99 243 -156 399 -156zM651 1575h-139l188 280h242zM1004 1575h-140l189 280h241z" />
    <glyph glyph-name="ohungarumlaut" unicode="&#x151;" horiz-adv-x="1216" 
d="M230 122c-101 101 -152 229 -152 384s51 282 152 383c102 101 228 151 378 151s276 -50 378 -151s153 -228 153 -383s-51 -283 -153 -384s-228 -151 -378 -151s-276 50 -378 151zM608 119c106 0 194 36 263 108s104 165 104 279s-35 207 -104 279s-157 108 -263 108
c-105 0 -193 -36 -262 -108s-104 -165 -104 -279s35 -207 104 -279s157 -108 262 -108zM422 1153h-139l188 281h242zM774 1153h-139l188 281h242z" />
    <glyph glyph-name="OE" unicode="&#x152;" horiz-adv-x="2312" 
d="M82 717c0 105 19 204 58 296c39 93 92 172 158 237c67 66 146 118 238 155c92 38 190 57 293 57c111 0 216 -22 313 -65c98 -43 182 -103 251 -180v217h819v-156h-635v-463h612v-156h-612v-503h643v-156h-827v217c-139 -156 -341 -246 -564 -246c-138 0 -264 32 -378 96
c-114 65 -204 154 -270 268c-66 115 -99 242 -99 382zM829 127c105 0 199 23 284 69c85 47 152 115 203 206s77 196 77 315s-26 224 -77 315c-101 181 -278 275 -487 275c-156 0 -296 -57 -399 -156c-101 -99 -164 -254 -164 -434s63 -335 164 -434
c103 -99 243 -156 399 -156z" />
    <glyph glyph-name="oe" unicode="&#x153;" horiz-adv-x="2054" 
d="M608 1040c95 0 181 -21 260 -64s142 -102 189 -177c45 74 105 133 180 176s156 65 242 65c143 0 261 -45 352 -136c91 -90 137 -210 137 -359v-82h-829c6 -72 28 -135 65 -188c75 -107 182 -156 297 -156c73 0 137 12 194 36c57 25 118 67 185 128h16l-6 -179
c-120 -89 -236 -133 -387 -133c-95 0 -181 22 -259 65s-140 102 -187 177c-46 -75 -109 -135 -188 -178s-166 -64 -261 -64c-150 0 -276 50 -378 151c-101 101 -152 229 -152 384s51 282 152 383c102 101 228 151 378 151zM608 119c106 0 194 36 263 108s104 165 104 279
s-35 207 -104 279s-157 108 -263 108c-105 0 -193 -36 -262 -108s-104 -165 -104 -279s35 -207 104 -279s157 -108 262 -108zM1147 598h672c-10 91 -46 165 -108 222s-139 85 -232 85c-78 0 -149 -27 -212 -81c-63 -53 -103 -129 -120 -226z" />
    <glyph glyph-name="Racute" unicode="&#x154;" horiz-adv-x="1124" 
d="M328 0h-185v1434h379c142 0 258 -36 347 -108c90 -72 135 -170 135 -294c0 -204 -149 -328 -308 -377l396 -655h-201l-381 631h-182v-631zM328 1278v-492h198c187 0 293 87 293 246s-106 246 -293 246h-198zM526 1575h-139l188 280h242z" />
    <glyph glyph-name="racute" unicode="&#x155;" horiz-adv-x="806" 
d="M295 0h-164v1012h164v-148c33 57 76 101 128 131c53 30 106 45 161 45c60 0 112 -16 155 -47l11 -166h-19c-46 44 -103 66 -172 66c-65 0 -125 -23 -178 -71c-52 -47 -86 -133 -86 -244v-578zM430 1153h-139l188 281h242z" />
    <glyph glyph-name="uni0156" unicode="&#x156;" horiz-adv-x="1124" 
d="M328 0h-185v1434h379c142 0 258 -36 347 -108c90 -72 135 -170 135 -294c0 -204 -149 -328 -308 -377l396 -655h-201l-381 631h-182v-631zM328 1278v-492h198c187 0 293 87 293 246s-106 246 -293 246h-198zM492 -268c0 68 49 121 114 121c68 0 119 -55 119 -123
c0 -143 -83 -256 -203 -320l-14 39c61 41 94 97 98 170c-31 0 -57 11 -80 33c-23 21 -34 48 -34 80z" />
    <glyph glyph-name="uni0157" unicode="&#x157;" horiz-adv-x="806" 
d="M92 -268c0 68 50 121 115 121c68 0 119 -55 119 -123c0 -143 -83 -256 -203 -320l-14 39c61 41 94 97 98 170c-31 0 -58 11 -81 33c-23 21 -34 48 -34 80zM295 0h-164v1012h164v-148c33 57 76 101 128 131c53 30 106 45 161 45c60 0 112 -16 155 -47l11 -166h-19
c-46 44 -103 66 -172 66c-65 0 -125 -23 -178 -71c-52 -47 -86 -133 -86 -244v-578z" />
    <glyph glyph-name="Rcaron" unicode="&#x158;" horiz-adv-x="1124" 
d="M328 0h-185v1434h379c142 0 258 -36 347 -108c90 -72 135 -170 135 -294c0 -204 -149 -328 -308 -377l396 -655h-201l-381 631h-182v-631zM434 1575l-205 280h123l189 -182l190 182h123l-205 -280h-215zM328 1278v-492h198c187 0 293 87 293 246s-106 246 -293 246h-198z
" />
    <glyph glyph-name="rcaron" unicode="&#x159;" horiz-adv-x="804" 
d="M315 1153l-204 281h122l189 -183l190 183h123l-205 -281h-215zM295 0h-164v1012h164v-148c33 57 76 101 128 131c53 30 106 45 161 45c60 0 112 -16 155 -47l11 -166h-19c-46 44 -103 66 -172 66c-65 0 -125 -23 -178 -71c-52 -47 -86 -133 -86 -244v-578z" />
    <glyph glyph-name="Sacute" unicode="&#x15a;" horiz-adv-x="1060" 
d="M109 135l12 213h20c52 -66 108 -119 168 -160c61 -41 130 -61 209 -61c84 0 150 23 199 68s74 106 74 182c0 75 -28 137 -87 188c-57 51 -122 86 -219 129c-109 47 -196 105 -261 176s-97 151 -97 242c0 105 39 190 118 254s175 96 290 96c133 0 244 -38 333 -114l9 -197
h-27c-93 109 -200 164 -322 164c-69 0 -126 -19 -171 -56c-44 -37 -66 -84 -66 -141c0 -121 107 -208 307 -293c244 -103 377 -237 377 -424c0 -123 -43 -225 -130 -307c-86 -82 -195 -123 -327 -123c-161 0 -297 55 -409 164zM516 1575h-139l188 280h242z" />
    <glyph glyph-name="sacute" unicode="&#x15b;" horiz-adv-x="864" 
d="M82 74l39 155h12c94 -73 190 -110 289 -110c128 0 205 60 205 151c0 49 -19 86 -56 113s-97 54 -180 82c-80 27 -139 57 -195 104c-55 48 -87 116 -87 199c0 74 32 138 95 191c64 54 142 81 234 81c101 0 195 -26 281 -77l6 -156h-14c-85 65 -176 98 -273 98
c-104 0 -182 -48 -182 -133c0 -44 19 -80 58 -107s99 -56 182 -85c97 -33 160 -65 215 -113c55 -47 80 -109 80 -188c0 -88 -36 -161 -109 -220s-160 -88 -262 -88c-121 0 -233 34 -338 103zM418 1153h-139l188 281h242z" />
    <glyph glyph-name="Scircumflex" unicode="&#x15c;" horiz-adv-x="1060" 
d="M109 135l12 213h20c52 -66 108 -119 168 -160c61 -41 130 -61 209 -61c84 0 150 23 199 68s74 106 74 182c0 75 -28 137 -87 188c-57 51 -122 86 -219 129c-109 47 -196 105 -261 176s-97 151 -97 242c0 105 39 190 118 254s175 96 290 96c133 0 244 -38 333 -114l9 -197
h-27c-93 109 -200 164 -322 164c-69 0 -126 -19 -171 -56c-44 -37 -66 -84 -66 -141c0 -121 107 -208 307 -293c244 -103 377 -237 377 -424c0 -123 -43 -225 -130 -307c-86 -82 -195 -123 -327 -123c-161 0 -297 55 -409 164zM342 1575h-123l205 280h215l205 -280h-123
l-191 182z" />
    <glyph glyph-name="scircumflex" unicode="&#x15d;" horiz-adv-x="864" 
d="M82 74l39 155h12c94 -73 190 -110 289 -110c128 0 205 60 205 151c0 49 -19 86 -56 113s-97 54 -180 82c-80 27 -139 57 -195 104c-55 48 -87 116 -87 199c0 74 32 138 95 191c64 54 142 81 234 81c101 0 195 -26 281 -77l6 -156h-14c-85 65 -176 98 -273 98
c-104 0 -182 -48 -182 -133c0 -44 19 -80 58 -107s99 -56 182 -85c97 -33 160 -65 215 -113c55 -47 80 -109 80 -188c0 -88 -36 -161 -109 -220s-160 -88 -262 -88c-121 0 -233 34 -338 103zM244 1153h-123l205 281h215l204 -281h-122l-191 182z" />
    <glyph glyph-name="Scedilla" unicode="&#x15e;" horiz-adv-x="1060" 
d="M109 135l12 213h20c52 -66 108 -119 168 -160c61 -41 130 -61 209 -61c84 0 150 23 199 68s74 106 74 182c0 75 -28 137 -87 188c-57 51 -122 86 -219 129c-109 47 -196 105 -261 176s-97 151 -97 242c0 105 40 190 119 254s176 96 289 96c133 0 244 -38 333 -114l9 -197
h-27c-93 109 -200 164 -322 164c-69 0 -126 -19 -171 -56c-44 -37 -66 -84 -66 -141c0 -121 107 -208 307 -293c244 -103 377 -237 377 -424c0 -118 -41 -218 -122 -299s-185 -125 -310 -131l-64 -98c39 15 80 23 121 23c49 0 90 -18 122 -53s48 -79 48 -130
c0 -59 -23 -108 -69 -147s-108 -58 -185 -58c-62 0 -117 11 -166 33l-16 103l14 6c53 -30 104 -45 152 -45c68 0 121 36 121 104s-52 103 -117 103c-39 0 -80 -10 -123 -29l-10 12l80 180c-132 13 -246 67 -342 160z" />
    <glyph glyph-name="scedilla" unicode="&#x15f;" horiz-adv-x="864" 
d="M82 74l39 155h12c94 -73 190 -110 289 -110c128 0 205 60 205 151c0 49 -19 86 -56 113s-97 54 -180 82c-80 27 -139 57 -195 104c-55 48 -87 116 -87 199c0 74 32 138 95 191c64 54 142 81 234 81c101 0 195 -26 281 -77l6 -156h-14c-85 65 -176 98 -273 98
c-104 0 -182 -48 -182 -133c0 -44 19 -80 58 -107s99 -56 182 -85c97 -33 160 -65 215 -113c55 -47 80 -109 80 -188c0 -85 -35 -157 -104 -216c-69 -58 -153 -89 -251 -92l-63 -98c39 15 80 23 121 23c49 0 90 -18 122 -53s48 -79 48 -130c0 -59 -23 -108 -69 -147
s-108 -58 -185 -58c-62 0 -117 11 -166 33l-17 103l15 6c53 -30 104 -45 151 -45c68 0 121 36 121 104s-52 103 -117 103c-39 0 -80 -10 -123 -29l-10 12l80 180c-91 11 -178 44 -262 99z" />
    <glyph glyph-name="Scaron" unicode="&#x160;" horiz-adv-x="1060" 
d="M109 135l12 213h20c52 -66 108 -119 168 -160c61 -41 130 -61 209 -61c84 0 150 23 199 68s74 106 74 182c0 75 -28 137 -87 188c-57 51 -122 86 -219 129c-109 47 -196 105 -261 176s-97 151 -97 242c0 105 39 190 118 254s175 96 290 96c133 0 244 -38 333 -114l9 -197
h-27c-93 109 -200 164 -322 164c-69 0 -126 -19 -171 -56c-44 -37 -66 -84 -66 -141c0 -121 107 -208 307 -293c244 -103 377 -237 377 -424c0 -123 -43 -225 -130 -307c-86 -82 -195 -123 -327 -123c-161 0 -297 55 -409 164zM424 1575l-205 280h123l188 -182l191 182h123
l-205 -280h-215z" />
    <glyph glyph-name="scaron" unicode="&#x161;" horiz-adv-x="864" 
d="M82 74l39 155h12c94 -73 190 -110 289 -110c128 0 205 60 205 151c0 49 -19 86 -56 113s-97 54 -180 82c-80 27 -139 57 -195 104c-55 48 -87 116 -87 199c0 74 32 138 95 191c64 54 142 81 234 81c101 0 195 -26 281 -77l6 -156h-14c-85 65 -176 98 -273 98
c-104 0 -182 -48 -182 -133c0 -44 19 -80 58 -107s99 -56 182 -85c97 -33 160 -65 215 -113c55 -47 80 -109 80 -188c0 -88 -36 -161 -109 -220s-160 -88 -262 -88c-121 0 -233 34 -338 103zM326 1153l-205 281h123l188 -183l191 183h122l-204 -281h-215z" />
    <glyph glyph-name="uni0162" unicode="&#x162;" horiz-adv-x="1101" 
d="M459 1278h-377v156h938v-156h-377v-1278h-184v1278zM428 -268c0 68 50 121 115 121c68 0 119 -55 119 -123c0 -143 -83 -256 -203 -320l-15 39c62 41 95 98 99 170c-31 0 -58 11 -81 33c-23 21 -34 48 -34 80z" />
    <glyph glyph-name="uni0163" unicode="&#x163;" horiz-adv-x="763" 
d="M229 864h-194v148h194v213l164 78v-291h289v-148h-289v-620c0 -41 13 -73 39 -94c27 -21 57 -31 92 -31c49 0 99 20 152 59h18l-12 -155c-37 -19 -68 -33 -95 -40c-26 -8 -58 -12 -95 -12c-80 0 -144 24 -192 73c-47 49 -71 117 -71 204v616zM334 -268
c0 68 50 121 115 121c68 0 118 -54 118 -123c0 -71 -19 -135 -57 -190c-37 -55 -86 -99 -145 -130l-15 39c62 41 95 98 99 170c-31 0 -58 11 -81 33c-23 21 -34 48 -34 80z" />
    <glyph glyph-name="Tcaron" unicode="&#x164;" horiz-adv-x="1101" 
d="M459 1278h-377v156h938v-156h-377v-1278h-184v1278zM444 1575l-204 280h122l189 -182l190 182h123l-205 -280h-215z" />
    <glyph glyph-name="tcaron" unicode="&#x165;" horiz-adv-x="1032" 
d="M229 864h-194v148h194v213l164 78v-291h289v-148h-289v-620c0 -41 13 -73 39 -94c27 -21 57 -31 92 -31c49 0 99 20 152 59h18l-12 -155c-37 -19 -68 -33 -95 -40c-26 -8 -58 -12 -95 -12c-80 0 -144 24 -192 73c-47 49 -71 117 -71 204v616zM762 1333
c0 68 50 121 115 121c68 0 118 -54 118 -123c0 -132 -75 -240 -182 -313l-35 33c63 51 96 108 99 170c-31 0 -58 11 -81 32s-34 48 -34 80z" />
    <glyph glyph-name="Tbar" unicode="&#x166;" horiz-adv-x="1101" 
d="M459 1278h-377v156h938v-156h-377v-389h291v-131h-291v-758h-184v758h-291v131h291v389z" />
    <glyph glyph-name="tbar" unicode="&#x167;" horiz-adv-x="763" 
d="M229 864h-194v148h194v213l164 78v-291h289v-148h-289v-278h273v-119h-273v-223c0 -41 13 -73 39 -94c27 -21 57 -31 92 -31c49 0 99 20 152 59h18l-12 -155c-37 -19 -68 -33 -95 -40c-26 -8 -58 -12 -95 -12c-80 0 -144 24 -192 73c-47 49 -71 117 -71 204v219h-170v119
h170v278z" />
    <glyph glyph-name="Utilde" unicode="&#x168;" horiz-adv-x="1306" 
d="M123 535v899h184v-930c0 -131 43 -234 110 -291c68 -57 148 -86 236 -86s168 29 235 86c68 57 111 160 111 291v930h185v-899c0 -179 -49 -317 -146 -416s-226 -148 -385 -148s-287 49 -384 147c-97 99 -146 238 -146 417zM303 1602h-10l14 147c61 57 129 86 203 86
c65 0 132 -30 172 -59c40 -28 96 -58 145 -58c59 0 119 33 179 99h10l-15 -148c-61 -57 -129 -86 -202 -86c-65 0 -133 30 -173 58c-40 29 -96 59 -145 59c-59 0 -119 -33 -178 -98z" />
    <glyph glyph-name="utilde" unicode="&#x169;" 
d="M119 326v686h164v-652c0 -75 22 -134 66 -177c45 -43 104 -64 177 -64c84 0 155 31 212 94c58 63 87 142 87 236v563h164v-1012h-164v152c-37 -53 -87 -97 -150 -131c-63 -33 -129 -50 -200 -50c-106 0 -192 32 -258 96c-65 65 -98 151 -98 259zM209 1180h-10l14 147
c61 57 129 86 203 86c65 0 132 -30 172 -59c40 -28 96 -58 145 -58c59 0 118 33 178 99h11l-15 -148c-61 -57 -129 -86 -202 -86c-65 0 -133 30 -173 58c-40 29 -96 59 -145 59c-59 0 -119 -33 -178 -98z" />
    <glyph glyph-name="Umacron" unicode="&#x16a;" horiz-adv-x="1306" 
d="M123 535v899h184v-930c0 -131 43 -234 110 -291c68 -57 148 -86 236 -86s168 29 235 86c68 57 111 160 111 291v930h185v-899c0 -179 -49 -317 -146 -416s-226 -148 -385 -148s-287 49 -384 147c-97 99 -146 238 -146 417zM889 1630h-471v131h471v-131z" />
    <glyph glyph-name="umacron" unicode="&#x16b;" 
d="M119 326v686h164v-652c0 -75 22 -134 66 -177c45 -43 104 -64 177 -64c84 0 155 31 212 94c58 63 87 142 87 236v563h164v-1012h-164v152c-37 -53 -87 -97 -150 -131c-63 -33 -129 -50 -200 -50c-106 0 -192 32 -258 96c-65 65 -98 151 -98 259zM793 1208h-471v131h471
v-131z" />
    <glyph glyph-name="Ubreve" unicode="&#x16c;" horiz-adv-x="1306" 
d="M123 535v899h184v-930c0 -131 43 -234 110 -291c68 -57 148 -86 236 -86s168 29 235 86c68 57 111 160 111 291v930h185v-899c0 -179 -49 -317 -146 -416s-226 -148 -385 -148s-287 49 -384 147c-97 99 -146 238 -146 417zM414 1815h127c0 -83 37 -136 112 -136
s113 53 113 136h127c0 -70 -22 -127 -67 -172c-44 -44 -102 -66 -173 -66s-129 22 -173 66c-44 45 -66 102 -66 172z" />
    <glyph glyph-name="ubreve" unicode="&#x16d;" 
d="M119 326v686h164v-652c0 -75 22 -134 66 -177c45 -43 104 -64 177 -64c84 0 155 31 212 94c58 63 87 142 87 236v563h164v-1012h-164v152c-37 -53 -87 -97 -150 -131c-63 -33 -129 -50 -200 -50c-106 0 -192 32 -258 96c-65 65 -98 151 -98 259zM319 1393h127
c0 -83 38 -136 113 -136s113 53 113 136h127c0 -70 -22 -127 -67 -172c-44 -44 -102 -66 -173 -66s-129 22 -174 66c-44 45 -66 102 -66 172z" />
    <glyph glyph-name="Uring" unicode="&#x16e;" horiz-adv-x="1306" 
d="M123 535v899h184v-930c0 -131 43 -234 110 -291c68 -57 148 -86 236 -86s168 29 235 86c68 57 111 160 111 291v930h185v-899c0 -179 -49 -317 -146 -416s-226 -148 -385 -148s-287 49 -384 147c-97 99 -146 238 -146 417zM503 1596c-41 40 -61 89 -61 147s20 107 61 147
s91 60 150 60s109 -20 150 -60s61 -89 61 -147s-20 -107 -61 -147s-91 -60 -150 -60s-109 20 -150 60zM560 1834c-24 -25 -36 -55 -36 -91s12 -67 36 -92s55 -37 93 -37s69 12 93 37s36 56 36 92s-12 66 -36 91s-55 38 -93 38s-69 -13 -93 -38z" />
    <glyph glyph-name="uring" unicode="&#x16f;" 
d="M119 326v686h164v-652c0 -75 22 -134 66 -177c45 -43 104 -64 177 -64c84 0 155 31 212 94c58 63 87 142 87 236v563h164v-1012h-164v152c-37 -53 -87 -97 -150 -131c-63 -33 -129 -50 -200 -50c-106 0 -192 32 -258 96c-65 65 -98 151 -98 259zM409 1174
c-41 40 -61 89 -61 147s20 107 61 147s91 60 150 60s109 -20 150 -60s61 -89 61 -147s-20 -107 -61 -147s-91 -60 -150 -60s-109 20 -150 60zM466 1412c-24 -25 -36 -55 -36 -91s12 -67 36 -92s55 -37 93 -37s69 12 93 37s36 56 36 92s-12 66 -36 91s-55 38 -93 38
s-69 -13 -93 -38z" />
    <glyph glyph-name="Uhungarumlaut" unicode="&#x170;" horiz-adv-x="1306" 
d="M123 535v899h184v-930c0 -131 43 -234 110 -291c68 -57 148 -86 236 -86s168 29 235 86c68 57 111 160 111 291v930h185v-899c0 -179 -49 -317 -146 -416s-226 -148 -385 -148s-287 49 -384 147c-97 99 -146 238 -146 417zM481 1575h-139l188 280h242zM834 1575h-140
l189 280h241z" />
    <glyph glyph-name="uhungarumlaut" unicode="&#x171;" 
d="M119 326v686h164v-652c0 -75 22 -134 66 -177c45 -43 104 -64 177 -64c84 0 155 31 212 94c58 63 87 142 87 236v563h164v-1012h-164v152c-37 -53 -87 -97 -150 -131c-63 -33 -129 -50 -200 -50c-106 0 -192 32 -258 96c-65 65 -98 151 -98 259zM348 1153h-139l188 281
h242zM700 1153h-139l189 281h241z" />
    <glyph glyph-name="Uogonek" unicode="&#x172;" horiz-adv-x="1306" 
d="M123 535v899h184v-930c0 -131 43 -234 110 -291c68 -57 148 -86 236 -86s168 29 235 86c68 57 111 160 111 291v930h185v-899c0 -140 -30 -256 -91 -347s-144 -154 -249 -188c-96 -80 -150 -155 -150 -244c0 -85 64 -145 152 -145c62 0 115 16 158 49l14 -6l-17 -107
c-55 -26 -115 -39 -178 -39c-75 0 -138 22 -187 66c-49 43 -73 100 -73 170c0 90 40 166 119 227h-29c-159 0 -287 49 -384 147c-97 99 -146 238 -146 417z" />
    <glyph glyph-name="uogonek" unicode="&#x173;" 
d="M119 326v686h164v-652c0 -75 22 -134 66 -177c45 -43 104 -64 177 -64c84 0 155 31 212 94c58 63 87 142 87 236v563h164v-1012c-96 -80 -149 -155 -149 -244c0 -85 63 -145 151 -145c62 0 115 16 158 49l14 -6l-16 -107c-55 -26 -115 -39 -178 -39
c-75 0 -138 22 -187 66c-49 43 -73 100 -73 170c0 104 58 197 161 256h-45v152c-37 -53 -87 -97 -150 -131c-63 -33 -129 -50 -200 -50c-106 0 -192 32 -258 96c-65 65 -98 151 -98 259z" />
    <glyph glyph-name="Wcircumflex" unicode="&#x174;" horiz-adv-x="1933" 
d="M524 0l-479 1434h184l322 -1012l387 1012h57l387 -1012l322 1012h184l-479 -1434h-45l-397 1051l-398 -1051h-45zM778 1575h-123l205 280h215l205 -280h-123l-190 182z" />
    <glyph glyph-name="wcircumflex" unicode="&#x175;" horiz-adv-x="1568" 
d="M473 0l-440 1012h172l287 -676l268 676h49l268 -676l287 676h172l-440 -1012h-45l-267 692l-266 -692h-45zM596 1153h-123l205 281h215l205 -281h-123l-191 182z" />
    <glyph glyph-name="Ycircumflex" unicode="&#x176;" horiz-adv-x="1200" 
d="M508 623l-479 811h196l375 -652l375 652h196l-479 -811v-623h-184v623zM412 1575h-123l205 280h215l204 -280h-122l-191 182z" />
    <glyph glyph-name="ycircumflex" unicode="&#x177;" horiz-adv-x="1021" 
d="M410 182l-404 830h184l306 -650l313 650h166l-713 -1475h-164zM322 1153h-123l204 281h215l205 -281h-123l-190 182z" />
    <glyph glyph-name="Ydieresis" unicode="&#x178;" horiz-adv-x="1200" 
d="M508 623l-479 811h196l375 -652l375 652h196l-479 -811v-623h-184v623zM307 1706c0 31 11 57 32 79c22 23 48 34 77 34c31 0 57 -11 79 -34c22 -22 33 -48 33 -79c0 -29 -11 -55 -33 -77c-22 -21 -48 -32 -79 -32c-29 0 -55 11 -77 32c-21 22 -32 48 -32 77zM674 1706
c0 31 11 57 32 79c21 23 47 34 76 34c31 0 57 -11 79 -34c23 -22 34 -48 34 -79c0 -29 -11 -55 -34 -77c-22 -21 -48 -32 -79 -32c-29 0 -55 11 -76 32c-21 22 -32 48 -32 77z" />
    <glyph glyph-name="Zacute" unicode="&#x179;" horiz-adv-x="1218" 
d="M1147 0h-1090v20l779 1258h-717v156h995v-21l-786 -1257h819v-156zM573 1575h-139l189 280h241z" />
    <glyph glyph-name="zacute" unicode="&#x17a;" horiz-adv-x="976" 
d="M889 0h-817v20l546 844h-507v148h763v-21l-540 -844h555v-147zM473 1153h-139l188 281h242z" />
    <glyph glyph-name="Zdotaccent" unicode="&#x17b;" horiz-adv-x="1218" 
d="M1147 0h-1090v20l779 1258h-717v156h995v-21l-786 -1257h819v-156zM544 1660c-23 23 -34 50 -34 81s11 58 34 80c23 23 50 34 81 34s58 -11 80 -34c23 -22 34 -49 34 -80s-11 -58 -34 -81c-22 -23 -49 -34 -80 -34s-58 11 -81 34z" />
    <glyph glyph-name="zdotaccent" unicode="&#x17c;" horiz-adv-x="976" 
d="M889 0h-817v20l546 844h-507v148h763v-21l-540 -844h555v-147zM406 1238c-44 45 -44 117 0 162c45 45 117 45 162 0s45 -117 0 -162s-117 -45 -162 0z" />
    <glyph glyph-name="Zcaron" unicode="&#x17d;" horiz-adv-x="1218" 
d="M1147 0h-1090v20l779 1258h-717v156h995v-21l-786 -1257h819v-156zM508 1575l-205 280h123l188 -182l191 182h123l-205 -280h-215z" />
    <glyph glyph-name="zcaron" unicode="&#x17e;" horiz-adv-x="976" 
d="M889 0h-817v20l546 844h-507v148h763v-21l-540 -844h555v-147zM381 1153l-205 281h123l188 -183l191 183h123l-205 -281h-215z" />
    <glyph glyph-name="longs" unicode="&#x17f;" horiz-adv-x="708" 
d="M223 864h-133v148h133v151c0 85 27 156 81 213s119 86 196 86c61 0 117 -14 170 -43l6 -157h-17c-35 35 -90 53 -131 53c-89 0 -141 -57 -141 -160v-1155h-164v864z" />
    <glyph glyph-name="uni018E" unicode="&#x18e;" horiz-adv-x="1062" 
d="M735 1278h-643v156h828v-1434h-820v156h635v462h-612v156h612v504z" />
    <glyph glyph-name="uni018F" unicode="&#x18f;" horiz-adv-x="1157" 
d="M86 467v82h829c-6 72 -28 135 -65 188c-75 107 -182 156 -297 156c-73 0 -137 -12 -194 -37c-57 -24 -118 -66 -185 -127h-16l6 178c120 89 236 133 387 133c300 0 528 -235 528 -534c0 -99 -23 -190 -69 -273c-46 -82 -108 -146 -185 -193c-77 -46 -160 -69 -250 -69
c-143 0 -261 45 -352 136s-137 211 -137 360zM907 414h-671c10 -91 46 -166 107 -223c62 -57 139 -85 232 -85c77 0 148 27 211 81c64 54 104 130 121 227z" />
    <glyph glyph-name="florin" unicode="&#x192;" horiz-adv-x="790" 
d="M-285 -399l25 155h16c34 -34 74 -51 121 -51c87 0 144 53 160 137l205 1022h-133l30 148h133l35 174c17 84 53 151 108 201s124 75 206 75c67 0 123 -14 170 -43l-25 -155h-16c-34 34 -74 51 -121 51c-87 0 -144 -53 -160 -137l-33 -166h180l-30 -148h-180l-207 -1030
c-17 -84 -53 -151 -108 -201s-124 -75 -206 -75c-67 0 -123 14 -170 43z" />
    <glyph glyph-name="uni01B5" unicode="&#x1b5;" horiz-adv-x="1218" 
d="M1147 0h-1090v20l394 635h-312v131h391l306 492h-717v156h995v-21l-393 -627h348v-131h-430l-311 -499h819v-156z" />
    <glyph glyph-name="uni01B6" unicode="&#x1b6;" horiz-adv-x="976" 
d="M889 0h-817v20l280 435h-213v118h291l188 291h-507v148h763v-21l-268 -418h238v-118h-314l-196 -308h555v-147z" />
    <glyph glyph-name="Aringacute" unicode="&#x1fa;" horiz-adv-x="1368" 
d="M219 0h-184l596 1370c-47 13 -85 37 -114 74s-44 80 -44 127c0 58 20 107 61 147s91 60 150 60s109 -20 150 -60s61 -89 61 -147c0 -47 -15 -90 -44 -127s-67 -61 -114 -74l596 -1370h-184l-123 291h-684zM684 1090l-274 -644h548zM670 1853h-140l189 281h242zM591 1662
c-24 -25 -36 -55 -36 -91s12 -67 36 -92s55 -37 93 -37s69 12 93 37s36 56 36 92s-12 66 -36 91s-55 38 -93 38s-69 -13 -93 -38z" />
    <glyph glyph-name="aringacute" unicode="&#x1fb;" horiz-adv-x="1255" 
d="M606 1040c149 0 278 -66 355 -155v127h163v-1012h-163v127c-77 -89 -206 -156 -355 -156c-99 0 -189 24 -270 72s-144 113 -190 194c-45 82 -68 172 -68 269s23 187 68 268c46 82 109 147 190 194c81 48 171 72 270 72zM342 781c-67 -75 -100 -166 -100 -275
s33 -200 100 -275s155 -112 264 -112s197 37 264 112s101 166 101 275s-34 200 -101 275s-155 112 -264 112s-197 -37 -264 -112zM450 1174c-41 40 -61 89 -61 147s20 107 61 147s91 60 150 60s109 -20 150 -60s61 -89 61 -147s-20 -107 -61 -147s-91 -60 -150 -60
s-109 20 -150 60zM507 1412c-24 -25 -36 -55 -36 -91s12 -67 36 -92s55 -37 93 -37s69 12 93 37s36 56 36 92s-12 66 -36 91s-55 38 -93 38s-69 -13 -93 -38zM612 1604h-139l189 280h241z" />
    <glyph glyph-name="AEacute" unicode="&#x1fc;" horiz-adv-x="1994" 
d="M219 0h-184l622 1434h666l70 -156h-623l207 -463h571l66 -156h-570l222 -503h626l68 -156h-811l-123 291h-684zM684 1090l-272 -644h546zM942 1575h-139l188 280h242z" />
    <glyph glyph-name="aeacute" unicode="&#x1fd;" horiz-adv-x="1775" 
d="M78 250c0 254 252 348 477 348h141c0 108 -29 193 -76 238c-45 47 -101 69 -161 69c-102 0 -195 -44 -279 -133h-22l16 170c35 26 81 49 136 68c55 20 110 30 165 30c73 0 140 -18 200 -53s105 -82 134 -141c96 121 238 194 391 194c143 0 261 -45 352 -136
c92 -90 138 -210 138 -359v-82h-830c6 -72 28 -135 65 -188c75 -107 183 -156 298 -156c72 0 136 12 193 36c57 25 119 67 186 128h16l-6 -179c-120 -89 -236 -133 -387 -133c-185 0 -346 88 -439 232c-43 -71 -98 -127 -166 -169c-67 -42 -139 -63 -214 -63
c-98 0 -177 27 -238 82c-60 55 -90 121 -90 197zM250 268c0 -92 68 -149 172 -149c65 0 130 29 183 82c55 53 91 149 91 262c-297 0 -446 -65 -446 -195zM893 1153h-139l188 281h242zM868 598h672c-10 91 -46 165 -108 222s-139 85 -232 85c-78 0 -149 -27 -212 -81
c-63 -53 -103 -129 -120 -226z" />
    <glyph glyph-name="circumflex" unicode="&#x2c6;" horiz-adv-x="780" 
d="M201 1153h-123l205 281h215l204 -281h-122l-191 182z" />
    <glyph glyph-name="caron" unicode="&#x2c7;" horiz-adv-x="780" 
d="M283 1153l-205 281h123l188 -183l191 183h122l-204 -281h-215z" />
    <glyph glyph-name="breve" unicode="&#x2d8;" horiz-adv-x="577" 
d="M49 1393h127c0 -83 38 -136 113 -136s112 53 112 136h127c0 -70 -22 -127 -66 -172c-44 -44 -102 -66 -173 -66s-129 22 -174 66c-44 45 -66 102 -66 172z" />
    <glyph glyph-name="dotaccent" unicode="&#x2d9;" horiz-adv-x="409" 
d="M124 1238c-45 45 -45 117 0 162c23 23 50 34 81 34s58 -11 80 -34c45 -45 45 -117 0 -162c-22 -23 -49 -34 -80 -34s-58 11 -81 34z" />
    <glyph glyph-name="ring" unicode="&#x2da;" horiz-adv-x="995" 
d="M348 1174c-41 40 -61 89 -61 147s20 107 61 147s91 60 150 60s109 -20 150 -60s61 -89 61 -147s-20 -107 -61 -147s-91 -60 -150 -60s-109 20 -150 60zM405 1412c-24 -25 -36 -55 -36 -91s12 -67 36 -92s55 -37 93 -37s69 12 93 37s36 56 36 92s-12 66 -36 91
s-55 38 -93 38s-69 -13 -93 -38z" />
    <glyph glyph-name="ogonek" unicode="&#x2db;" horiz-adv-x="659" 
d="M131 -256c0 123 84 230 223 287l58 -31c-96 -80 -150 -155 -150 -244c0 -85 64 -145 152 -145c61 0 114 16 157 49l15 -6l-17 -107c-55 -26 -115 -39 -178 -39c-75 0 -138 22 -187 66c-49 43 -73 100 -73 170z" />
    <glyph glyph-name="tilde" unicode="&#x2dc;" horiz-adv-x="1071" 
d="M184 1180h-10l14 147c61 57 129 86 203 86c65 0 133 -30 173 -59c40 -28 96 -58 145 -58c59 0 118 33 178 99h10l-14 -148c-61 -57 -129 -86 -203 -86c-65 0 -133 30 -173 58c-40 29 -96 59 -145 59c-59 0 -119 -33 -178 -98z" />
    <glyph glyph-name="hungarumlaut" unicode="&#x2dd;" horiz-adv-x="929" 
d="M213 1153h-139l188 281h242zM565 1153h-139l188 281h242z" />
    <glyph glyph-name="pi" unicode="&#x3c0;" horiz-adv-x="1193" 
d="M197 868h-174v144h1148v-144h-174v-868h-163v868h-474v-868h-163v868z" />
    <glyph glyph-name="uni2000" unicode="&#x2000;" horiz-adv-x="1067" 
 />
    <glyph glyph-name="uni2001" unicode="&#x2001;" horiz-adv-x="2134" 
 />
    <glyph glyph-name="uni2002" unicode="&#x2002;" horiz-adv-x="1067" 
 />
    <glyph glyph-name="uni2003" unicode="&#x2003;" horiz-adv-x="2134" 
 />
    <glyph glyph-name="uni2004" unicode="&#x2004;" horiz-adv-x="711" 
 />
    <glyph glyph-name="uni2005" unicode="&#x2005;" horiz-adv-x="533" 
 />
    <glyph glyph-name="uni2006" unicode="&#x2006;" horiz-adv-x="355" 
 />
    <glyph glyph-name="uni2007" unicode="&#x2007;" horiz-adv-x="355" 
 />
    <glyph glyph-name="uni2008" unicode="&#x2008;" horiz-adv-x="266" 
 />
    <glyph glyph-name="uni2009" unicode="&#x2009;" horiz-adv-x="426" 
 />
    <glyph glyph-name="uni200A" unicode="&#x200a;" horiz-adv-x="118" 
 />
    <glyph glyph-name="uni2010" unicode="&#x2010;" horiz-adv-x="802" 
d="M717 582h-631v135h631v-135z" />
    <glyph glyph-name="uni2011" unicode="&#x2011;" horiz-adv-x="802" 
d="M717 582h-631v135h631v-135z" />
    <glyph glyph-name="figuredash" unicode="&#x2012;" horiz-adv-x="802" 
d="M717 582h-631v135h631v-135z" />
    <glyph glyph-name="endash" unicode="&#x2013;" horiz-adv-x="1110" 
d="M1024 582h-938v135h938v-135z" />
    <glyph glyph-name="emdash" unicode="&#x2014;" horiz-adv-x="1785" 
d="M1700 582h-1614v135h1614v-135z" />
    <glyph glyph-name="quoteleft" unicode="&#x2018;" horiz-adv-x="397" 
d="M82 1141c0 132 75 240 182 313l35 -33c-62 -51 -95 -107 -98 -170c31 0 57 -11 80 -32s34 -48 34 -80c0 -68 -49 -121 -114 -121c-68 0 -119 55 -119 123z" />
    <glyph glyph-name="quoteright" unicode="&#x2019;" horiz-adv-x="397" 
d="M82 1333c0 68 50 121 115 121c68 0 118 -54 118 -123c0 -132 -75 -240 -182 -313l-35 33c63 51 96 108 99 170c-31 0 -58 11 -81 32s-34 48 -34 80z" />
    <glyph glyph-name="quotesinglbase" unicode="&#x201a;" horiz-adv-x="413" 
d="M90 113c0 68 50 120 115 120c68 0 119 -54 119 -122c0 -132 -76 -241 -183 -314l-35 33c63 51 96 108 99 170c-31 0 -58 11 -81 32c-23 22 -34 49 -34 81z" />
    <glyph glyph-name="quotedblleft" unicode="&#x201c;" horiz-adv-x="688" 
d="M82 1141c0 132 75 240 182 313l35 -33c-62 -51 -95 -107 -98 -170c31 0 57 -11 80 -32s34 -48 34 -80c0 -68 -49 -121 -114 -121c-68 0 -119 55 -119 123zM373 1141c0 132 75 240 182 313l35 -33c-62 -51 -95 -107 -98 -170c31 0 57 -11 80 -32s34 -48 34 -80
c0 -68 -49 -121 -114 -121c-68 0 -119 55 -119 123z" />
    <glyph glyph-name="quotedblright" unicode="&#x201d;" horiz-adv-x="688" 
d="M82 1333c0 68 50 121 115 121c68 0 118 -54 118 -123c0 -132 -75 -240 -182 -313l-35 33c63 51 96 108 99 170c-31 0 -58 11 -81 32s-34 48 -34 80zM373 1333c0 68 49 121 114 121c68 0 119 -55 119 -123c0 -132 -75 -240 -182 -313l-35 33c62 51 95 107 98 170
c-31 0 -57 11 -80 32s-34 48 -34 80z" />
    <glyph glyph-name="quotedblbase" unicode="&#x201e;" horiz-adv-x="704" 
d="M90 113c0 68 50 120 115 120c68 0 119 -54 119 -122c0 -132 -76 -241 -183 -314l-35 33c63 51 96 108 99 170c-31 0 -58 11 -81 32c-23 22 -34 49 -34 81zM381 113c0 68 50 120 115 120c68 0 118 -54 118 -122c0 -132 -75 -241 -182 -314l-35 33c63 51 96 108 99 170
c-31 0 -58 11 -81 32c-23 22 -34 49 -34 81z" />
    <glyph glyph-name="dagger" unicode="&#x2020;" horiz-adv-x="778" 
d="M305 864h-272v148h272v422h164v-422h276v-148h-276v-1327h-164v1327z" />
    <glyph glyph-name="daggerdbl" unicode="&#x2021;" horiz-adv-x="778" 
d="M305 0h-272v147h272v717h-272v148h272v422h164v-422h276v-148h-276v-717h276v-147h-276v-463h-164v463z" />
    <glyph glyph-name="bullet" unicode="&#x2022;" horiz-adv-x="585" 
d="M178 622c-31 32 -47 70 -47 115s16 83 47 114c32 32 70 48 115 48s83 -16 114 -48c32 -31 48 -69 48 -114s-16 -83 -48 -115c-31 -31 -69 -47 -114 -47s-83 16 -115 47z" />
    <glyph glyph-name="ellipsis" unicode="&#x2026;" horiz-adv-x="1277" 
d="M90 102c0 33 11 61 34 84s50 35 81 35c33 0 61 -12 84 -35s35 -51 35 -84c0 -31 -12 -58 -35 -81c-23 -22 -51 -33 -84 -33c-31 0 -58 11 -81 33c-23 23 -34 50 -34 81zM522 102c0 33 11 61 34 84s50 35 81 35c33 0 61 -12 84 -35s35 -51 35 -84c0 -31 -12 -58 -35 -81
c-23 -22 -51 -33 -84 -33c-31 0 -58 11 -81 33c-23 23 -34 50 -34 81zM954 102c0 33 11 61 34 84s50 35 81 35c33 0 61 -12 84 -35s35 -51 35 -84c0 -31 -12 -58 -35 -81c-23 -22 -51 -33 -84 -33c-31 0 -58 11 -81 33c-23 23 -34 50 -34 81z" />
    <glyph glyph-name="uni202F" unicode="&#x202f;" horiz-adv-x="426" 
 />
    <glyph glyph-name="perthousand" unicode="&#x2030;" horiz-adv-x="2035" 
d="M172 908c-64 63 -96 140 -96 231s32 168 96 230c65 62 143 93 236 93s171 -31 235 -93s96 -139 96 -230s-32 -168 -96 -231c-64 -62 -142 -93 -235 -93s-171 31 -236 93zM190 418l-51 100l961 498l51 -101zM265 1287c-39 -37 -58 -87 -58 -148s19 -111 58 -149
c39 -37 86 -56 143 -56s104 19 142 56c39 38 58 88 58 149s-19 111 -58 148c-38 37 -85 56 -142 56s-104 -19 -143 -56zM663 64c-64 63 -96 140 -96 231s32 168 96 230c65 62 143 93 236 93s171 -31 235 -93c65 -62 97 -139 97 -230s-32 -168 -97 -231
c-64 -62 -142 -93 -235 -93s-171 31 -236 93zM756 443c-39 -37 -58 -87 -58 -148s19 -111 58 -149c39 -37 86 -56 143 -56s104 19 143 56c39 38 58 88 58 149s-19 111 -58 148c-39 38 -86 57 -143 57s-104 -19 -143 -57zM1401 64c-64 63 -96 140 -96 231s32 168 96 230
s142 93 235 93s171 -31 235 -93c65 -62 97 -139 97 -230s-32 -168 -97 -231c-64 -62 -142 -93 -235 -93s-171 31 -235 93zM1493 443c-38 -37 -57 -87 -57 -148s19 -111 57 -149c39 -37 86 -56 143 -56s104 19 143 56c39 38 58 88 58 149s-19 111 -58 148
c-39 38 -86 57 -143 57s-104 -19 -143 -57z" />
    <glyph glyph-name="guilsinglleft" unicode="&#x2039;" horiz-adv-x="638" 
d="M535 262l-469 406v86l469 405h22v-168l-330 -280l330 -281v-168h-22z" />
    <glyph glyph-name="guilsinglright" unicode="&#x203a;" horiz-adv-x="638" 
d="M104 262h-22v168l330 281l-330 280v168h22l469 -405v-86z" />
    <glyph glyph-name="fraction" unicode="&#x2044;" horiz-adv-x="1298" 
d="M195 418l-52 100l961 498l51 -101z" />
    <glyph glyph-name="uni205F" unicode="&#x205f;" horiz-adv-x="533" 
 />
    <glyph glyph-name="zerosuperior" unicode="&#x2070;" horiz-adv-x="724" 
d="M134 807c-58 70 -87 159 -87 268s29 198 87 268s134 105 228 105s170 -35 228 -105c59 -70 88 -159 88 -268s-29 -198 -88 -268c-58 -70 -134 -105 -228 -105s-170 35 -228 105zM223 1273c-35 -49 -53 -115 -53 -198s18 -149 53 -198c36 -48 82 -72 139 -72
s103 24 139 72c36 49 54 115 54 198s-18 149 -54 198s-82 73 -139 73s-103 -24 -139 -73z" />
    <glyph glyph-name="foursuperior" unicode="&#x2074;" horiz-adv-x="591" 
d="M344 881h-324v67l396 486h51v-451h98v-102h-98v-164h-123v164zM344 1192l-172 -209h172v209z" />
    <glyph glyph-name="fivesuperior" unicode="&#x2075;" horiz-adv-x="565" 
d="M72 741l-25 131h14c63 -45 127 -67 193 -67c93 0 154 58 154 153s-59 148 -152 148c-59 0 -117 -16 -176 -47l-25 6l45 369h385v-103h-295l-26 -157c36 17 78 26 127 26c71 0 128 -22 172 -65c45 -43 67 -102 67 -177c0 -77 -27 -139 -80 -186s-117 -70 -192 -70
c-65 0 -127 13 -186 39z" />
    <glyph glyph-name="sixsuperior" unicode="&#x2076;" horiz-adv-x="595" 
d="M41 1049c0 71 12 136 35 196s59 109 106 146c47 38 102 57 164 57c54 0 100 -13 137 -39l13 -115h-13c-37 35 -84 52 -141 52c-99 0 -166 -81 -174 -232c40 40 107 66 162 66c67 0 123 -22 166 -66c43 -43 65 -99 65 -166s-26 -124 -77 -173s-110 -73 -177 -73
c-81 0 -158 39 -203 103c-42 57 -63 139 -63 244zM174 944c0 -39 12 -72 37 -99s56 -40 94 -40s70 13 97 40s40 60 40 99c0 38 -13 70 -40 95s-59 38 -97 38c-76 0 -131 -57 -131 -133z" />
    <glyph glyph-name="sevensuperior" unicode="&#x2077;" horiz-adv-x="569" 
d="M389 1331h-354v103h514v-19l-342 -698h-129z" />
    <glyph glyph-name="eightsuperior" unicode="&#x2078;" horiz-adv-x="573" 
d="M41 926c0 41 11 78 33 111c23 33 49 56 80 71c-56 42 -84 92 -84 149c0 53 20 98 61 135s93 56 156 56s115 -19 156 -56s61 -82 61 -135c0 -57 -28 -107 -84 -149c31 -15 57 -38 79 -71s33 -70 33 -111c0 -61 -23 -113 -68 -158c-45 -44 -104 -66 -177 -66
s-133 22 -178 67s-68 97 -68 157zM191 1026c-26 -24 -39 -55 -39 -92s13 -68 39 -93c27 -24 59 -36 96 -36s69 12 95 36c27 25 40 56 40 93s-13 68 -40 92c-26 25 -58 37 -95 37s-69 -12 -96 -37zM208 1326c-21 -19 -32 -43 -32 -73s11 -54 32 -73c21 -18 48 -27 79 -27
s57 9 78 27c21 19 32 43 32 73s-11 54 -32 73s-47 28 -78 28s-58 -9 -79 -28z" />
    <glyph glyph-name="ninesuperior" unicode="&#x2079;" horiz-adv-x="595" 
d="M35 1206c0 65 25 122 75 170c51 48 110 72 179 72c87 0 154 -34 203 -102c42 -57 63 -139 63 -244c0 -71 -12 -136 -35 -196s-59 -109 -106 -147s-102 -57 -164 -57c-54 0 -100 13 -137 39l-13 115h13c35 -34 82 -51 141 -51c99 0 166 82 174 231
c-40 -40 -103 -65 -162 -65c-64 0 -119 22 -164 66c-45 45 -67 101 -67 169zM154 1206c0 -38 13 -70 40 -95s59 -38 97 -38c76 0 131 57 131 133c0 39 -13 72 -38 99s-56 41 -93 41c-38 0 -70 -14 -97 -41s-40 -60 -40 -99z" />
    <glyph glyph-name="zeroinferior" unicode="&#x2080;" horiz-adv-x="724" 
d="M134 -372c-58 70 -87 159 -87 268s29 198 87 267c58 70 134 105 228 105s170 -35 228 -105c59 -69 88 -158 88 -267s-29 -198 -88 -268c-58 -70 -134 -105 -228 -105s-170 35 -228 105zM223 93c-35 -48 -53 -114 -53 -197s18 -149 53 -198c36 -49 82 -73 139 -73
s103 24 139 73s54 115 54 198s-18 149 -54 197c-36 49 -82 73 -139 73s-103 -24 -139 -73z" />
    <glyph glyph-name="oneinferior" unicode="&#x2081;" horiz-adv-x="245" 
d="M61 -463v649l97 68h26v-717h-123z" />
    <glyph glyph-name="twoinferior" unicode="&#x2082;" horiz-adv-x="575" 
d="M29 -463v17l284 335c49 59 74 115 74 168c0 61 -54 109 -123 109s-130 -38 -184 -113h-19l9 129c52 52 128 86 200 86c68 0 124 -20 168 -59s66 -90 66 -152c0 -71 -40 -152 -121 -243l-152 -174h301v-103h-503z" />
    <glyph glyph-name="threeinferior" unicode="&#x2083;" horiz-adv-x="581" 
d="M68 -424l-13 127h15c60 -52 123 -78 190 -78c43 0 79 13 109 40s45 63 45 110s-16 84 -47 112c-31 27 -68 41 -111 41c-27 0 -53 -4 -78 -12l-16 33l153 203h-256v102h445v-12l-178 -232c59 -7 109 -31 150 -71s61 -90 61 -150c0 -83 -27 -148 -80 -195
s-118 -71 -193 -71c-73 0 -139 18 -196 53z" />
    <glyph glyph-name="fourinferior" unicode="&#x2084;" horiz-adv-x="591" 
d="M20 -299v68l396 485h51v-451h98v-102h-98v-164h-123v164h-324zM344 12l-172 -209h172v209z" />
    <glyph glyph-name="fiveinferior" unicode="&#x2085;" horiz-adv-x="565" 
d="M72 -438l-25 131h14c64 -45 128 -68 193 -68c93 0 154 59 154 154s-59 147 -152 147c-59 0 -117 -16 -176 -47l-25 6l45 369h385v-102h-295l-26 -158c36 17 78 26 127 26c71 0 128 -21 172 -64c45 -43 67 -102 67 -177c0 -77 -27 -138 -80 -185s-117 -71 -192 -71
c-65 0 -127 13 -186 39z" />
    <glyph glyph-name="sixinferior" unicode="&#x2086;" horiz-adv-x="595" 
d="M41 -131c0 71 12 136 35 196s59 109 106 146c47 38 102 57 164 57c54 0 100 -13 137 -39l13 -114h-13c-35 34 -82 51 -141 51c-99 0 -166 -81 -174 -232c40 40 107 66 162 66c67 0 123 -22 166 -65s65 -99 65 -166s-26 -124 -77 -173s-110 -73 -177 -73
c-81 0 -158 39 -203 102c-42 57 -63 139 -63 244zM174 -236c0 -39 12 -72 37 -99s56 -40 94 -40s70 14 97 41s40 59 40 98c0 38 -13 70 -40 96c-27 25 -59 38 -97 38c-76 0 -131 -58 -131 -134z" />
    <glyph glyph-name="seveninferior" unicode="&#x2087;" horiz-adv-x="569" 
d="M389 152h-354v102h514v-18l-342 -699h-129z" />
    <glyph glyph-name="eightinferior" unicode="&#x2088;" horiz-adv-x="573" 
d="M41 -254c0 41 11 78 33 111c23 33 49 56 80 71c-56 42 -84 92 -84 150c0 52 20 97 61 134s93 56 156 56s115 -19 156 -56s61 -82 61 -134c0 -58 -28 -108 -84 -150c31 -15 57 -38 79 -71s33 -70 33 -111c0 -60 -23 -112 -68 -156c-45 -45 -104 -67 -177 -67
s-133 22 -178 67c-45 44 -68 96 -68 156zM191 -153c-26 -25 -39 -56 -39 -93s13 -68 39 -92c27 -25 59 -37 96 -37s69 12 95 37c27 24 40 55 40 92s-13 68 -40 93c-26 24 -58 36 -95 36s-69 -12 -96 -36zM208 146c-21 -18 -32 -42 -32 -72s11 -54 32 -73s48 -28 79 -28
s57 9 78 28s32 43 32 73s-11 54 -32 72c-21 19 -47 28 -78 28s-58 -9 -79 -28z" />
    <glyph glyph-name="nineinferior" unicode="&#x2089;" horiz-adv-x="595" 
d="M35 27c0 65 25 122 75 169c51 48 110 72 179 72c87 0 154 -34 203 -102c42 -57 63 -139 63 -244c0 -71 -12 -136 -35 -196s-59 -109 -106 -146c-47 -38 -102 -57 -164 -57c-54 0 -100 13 -137 39l-13 114h13c35 -34 82 -51 141 -51c99 0 166 81 174 232
c-40 -40 -105 -66 -162 -66c-64 0 -119 22 -164 67s-67 101 -67 169zM154 27c0 -38 13 -70 40 -95s59 -38 97 -38c76 0 131 57 131 133c0 39 -12 72 -37 99s-56 40 -94 40s-70 -14 -97 -41s-40 -59 -40 -98z" />
    <glyph glyph-name="Euro" unicode="&#x20ac;" horiz-adv-x="1286" 
d="M172 504h-147l45 127h80c-3 24 -5 53 -5 86s2 62 5 86h-125l45 127h102c41 155 120 283 237 382c117 100 255 150 416 150c137 0 249 -32 334 -96l15 -176h-21c-52 43 -103 74 -154 91c-50 17 -109 26 -178 26c-104 0 -198 -34 -283 -103c-84 -68 -143 -159 -178 -274
h601l-46 -127h-581c-3 -36 -4 -65 -4 -86s1 -50 4 -86h627l-46 -127h-555c35 -115 94 -207 178 -275s178 -102 283 -102c69 0 128 9 178 26c51 17 102 48 154 91h21l-15 -176c-86 -65 -197 -97 -334 -97c-161 0 -299 50 -416 150s-196 228 -237 383z" />
    <glyph glyph-name="trademark" unicode="&#x2122;" horiz-adv-x="1433" 
d="M225 1331h-184v103h491v-103h-184v-614h-123v614zM643 717h-115l199 717h21l213 -478l213 478h20l199 -717h-115l-115 436l-194 -436h-17l-194 436z" />
    <glyph glyph-name="Omega" unicode="&#x2126;" horiz-adv-x="1626" 
d="M111 797c0 188 79 360 204 476c125 117 305 189 498 189c129 0 247 -29 354 -86s192 -136 255 -238s94 -216 94 -341c0 -117 -31 -235 -94 -355c-62 -120 -141 -215 -238 -286h305v-156h-571v119c81 53 148 107 224 191c38 43 70 87 97 132c53 92 92 216 92 344
c0 149 -49 273 -146 372s-221 149 -372 149s-275 -50 -372 -149s-146 -223 -146 -372c0 -157 54 -304 139 -415c87 -109 171 -184 275 -252v-119h-572v156h305c-97 71 -176 166 -238 286s-93 238 -93 355z" />
    <glyph glyph-name="onethird" unicode="&#x2153;" horiz-adv-x="1064" 
d="M78 213l-51 100l960 498l51 -100zM389 717h-123v649l96 68h27v-717zM477 -424l-12 127h14c60 -52 124 -78 191 -78c85 0 153 57 153 150c0 47 -15 84 -46 112c-31 27 -68 41 -111 41c-27 0 -53 -4 -78 -12l-17 33l154 203h-256v102h444v-12l-178 -232
c59 -7 109 -31 150 -71s61 -90 61 -150c0 -84 -27 -149 -80 -196s-117 -70 -192 -70c-74 0 -140 18 -197 53z" />
    <glyph glyph-name="twothirds" unicode="&#x2154;" horiz-adv-x="1099" 
d="M530 717h-503v16l284 336c49 59 74 115 74 168c0 61 -54 109 -123 109s-130 -38 -184 -113h-19l9 129c52 52 128 86 200 86c68 0 124 -20 168 -59s66 -90 66 -152c0 -71 -40 -153 -121 -244l-152 -174h301v-102zM113 213l-52 100l961 498l51 -100zM512 -424l-12 127h14
c60 -52 124 -78 191 -78c85 0 153 57 153 150c0 47 -16 84 -47 112c-31 27 -68 41 -111 41c-27 0 -52 -4 -77 -12l-17 33l154 203h-256v102h444v-12l-178 -232c59 -7 109 -31 150 -71s61 -90 61 -150c0 -84 -27 -149 -80 -196s-117 -70 -192 -70c-74 0 -140 18 -197 53z" />
    <glyph glyph-name="oneeighth" unicode="&#x215b;" horiz-adv-x="1064" 
d="M78 213l-51 100l960 498l51 -100zM389 717h-123v649l96 68h27v-717zM430 -254c0 41 11 78 33 111c23 33 49 56 80 71c-56 42 -84 92 -84 150c0 52 20 97 61 134s93 56 156 56s115 -19 156 -56s61 -82 61 -134c0 -58 -28 -108 -84 -150c31 -15 57 -38 79 -71
c23 -33 34 -70 34 -111c0 -60 -23 -112 -68 -156c-45 -45 -105 -67 -178 -67s-133 22 -178 67c-45 44 -68 96 -68 156zM580 -153c-26 -25 -39 -56 -39 -93s13 -68 39 -92c27 -25 59 -37 96 -37s69 12 95 37c27 24 40 55 40 92s-13 68 -40 93c-26 24 -58 36 -95 36
s-69 -12 -96 -36zM597 146c-21 -18 -32 -42 -32 -72s11 -54 32 -73s48 -28 79 -28s57 9 78 28s32 43 32 73s-11 54 -32 72c-21 19 -47 28 -78 28s-58 -9 -79 -28z" />
    <glyph glyph-name="threeeighths" unicode="&#x215c;" horiz-adv-x="1064" 
d="M78 213l-51 100l960 498l51 -100zM68 756l-13 127h15c60 -52 123 -78 190 -78c43 0 79 13 109 39c30 27 45 63 45 110s-16 84 -47 112s-68 42 -111 42c-27 0 -53 -4 -78 -12l-16 32l153 203h-256v103h445v-13l-178 -231c59 -7 109 -31 150 -71s61 -90 61 -150
c0 -84 -27 -150 -80 -197s-118 -70 -193 -70c-72 0 -137 18 -196 54zM430 -254c0 41 11 78 33 111c23 33 49 56 80 71c-56 42 -84 92 -84 150c0 52 20 97 61 134s93 56 156 56s115 -19 156 -56s61 -82 61 -134c0 -58 -28 -108 -84 -150c31 -15 57 -38 79 -71
c23 -33 34 -70 34 -111c0 -60 -23 -112 -68 -156c-45 -45 -105 -67 -178 -67s-133 22 -178 67c-45 44 -68 96 -68 156zM580 -153c-26 -25 -39 -56 -39 -93s13 -68 39 -92c27 -25 59 -37 96 -37s69 12 95 37c27 24 40 55 40 92s-13 68 -40 93c-26 24 -58 36 -95 36
s-69 -12 -96 -36zM597 146c-21 -18 -32 -42 -32 -72s11 -54 32 -73s48 -28 79 -28s57 9 78 28s32 43 32 73s-11 54 -32 72c-21 19 -47 28 -78 28s-58 -9 -79 -28z" />
    <glyph glyph-name="fiveeighths" unicode="&#x215d;" horiz-adv-x="1064" 
d="M78 213l-51 100l960 498l51 -100zM72 741l-25 131h14c63 -45 127 -67 193 -67c93 0 154 58 154 153s-59 148 -152 148c-59 0 -117 -16 -176 -47l-25 6l45 369h385v-103h-295l-26 -157c36 17 78 26 127 26c71 0 128 -22 172 -65c45 -43 67 -102 67 -177
c0 -77 -27 -139 -80 -186s-117 -70 -192 -70c-65 0 -127 13 -186 39zM430 -254c0 41 11 78 33 111c23 33 49 56 80 71c-56 42 -84 92 -84 150c0 52 20 97 61 134s93 56 156 56s115 -19 156 -56s61 -82 61 -134c0 -58 -28 -108 -84 -150c31 -15 57 -38 79 -71
c23 -33 34 -70 34 -111c0 -60 -23 -112 -68 -156c-45 -45 -105 -67 -178 -67s-133 22 -178 67c-45 44 -68 96 -68 156zM580 -153c-26 -25 -39 -56 -39 -93s13 -68 39 -92c27 -25 59 -37 96 -37s69 12 95 37c27 24 40 55 40 92s-13 68 -40 93c-26 24 -58 36 -95 36
s-69 -12 -96 -36zM597 146c-21 -18 -32 -42 -32 -72s11 -54 32 -73s48 -28 79 -28s57 9 78 28s32 43 32 73s-11 54 -32 72c-21 19 -47 28 -78 28s-58 -9 -79 -28z" />
    <glyph glyph-name="seveneighths" unicode="&#x215e;" horiz-adv-x="1064" 
d="M78 213l-51 100l960 498l51 -100zM492 1331h-355v103h514v-19l-342 -698h-129zM430 -254c0 41 11 78 33 111c23 33 49 56 80 71c-56 42 -84 92 -84 150c0 52 20 97 61 134s93 56 156 56s115 -19 156 -56s61 -82 61 -134c0 -58 -28 -108 -84 -150c31 -15 57 -38 79 -71
c23 -33 34 -70 34 -111c0 -60 -23 -112 -68 -156c-45 -45 -105 -67 -178 -67s-133 22 -178 67c-45 44 -68 96 -68 156zM580 -153c-26 -25 -39 -56 -39 -93s13 -68 39 -92c27 -25 59 -37 96 -37s69 12 95 37c27 24 40 55 40 92s-13 68 -40 93c-26 24 -58 36 -95 36
s-69 -12 -96 -36zM597 146c-21 -18 -32 -42 -32 -72s11 -54 32 -73s48 -28 79 -28s57 9 78 28s32 43 32 73s-11 54 -32 72c-21 19 -47 28 -78 28s-58 -9 -79 -28z" />
    <glyph glyph-name="partialdiff" unicode="&#x2202;" horiz-adv-x="1161" 
d="M78 455c0 136 59 262 147 343c88 83 209 132 330 132c128 0 244 -55 328 -139c-6 97 -30 184 -71 262c-81 157 -215 247 -359 247c-45 0 -83 -4 -115 -13c-31 -8 -65 -21 -100 -38l-21 13l41 172c79 19 148 28 207 28c99 0 188 -24 267 -71c80 -47 145 -112 195 -193
c101 -161 156 -375 156 -608c0 -185 -48 -335 -143 -449c-95 -113 -220 -170 -375 -170c-90 0 -173 22 -248 65c-75 44 -133 103 -176 177c-42 74 -63 155 -63 242zM571 135c85 0 159 31 220 92c61 62 92 138 92 228s-31 166 -92 227s-135 92 -220 92s-157 -31 -218 -92
s-91 -137 -91 -227s30 -166 91 -228c61 -61 133 -92 218 -92z" />
    <glyph glyph-name="increment" unicode="&#x2206;" horiz-adv-x="1335" 
d="M1278 0h-1221v74l512 1360h199l510 -1360v-74zM668 1260l-408 -1113h815z" />
    <glyph glyph-name="product" unicode="&#x220f;" horiz-adv-x="1253" 
d="M328 -463h-185v1897h967v-1897h-184v1741h-598v-1741z" />
    <glyph glyph-name="summation" unicode="&#x2211;" horiz-adv-x="1179" 
d="M1108 0h-1036v41l477 717l-445 635v41h963v-156h-686l352 -520l-397 -602h772v-156z" />
    <glyph glyph-name="minus" unicode="&#x2212;" horiz-adv-x="987" 
d="M901 684h-815v135h815v-135z" />
    <glyph glyph-name="radical" unicode="&#x221a;" horiz-adv-x="1028" 
d="M205 623h-170v135h287l184 -533l319 1209h156l-391 -1434h-160z" />
    <glyph glyph-name="infinity" unicode="&#x221e;" horiz-adv-x="1163" 
d="M113 410c0 85 21 160 63 225c43 66 98 117 166 153c-113 77 -170 176 -170 297c0 89 27 167 81 233c54 67 126 111 216 132v139h70v-129c27 3 59 3 86 0v129h69v-139c89 -21 161 -65 215 -132c55 -67 82 -144 82 -233c0 -121 -57 -220 -170 -297c68 -36 123 -87 166 -153
c43 -65 64 -140 64 -225c0 -61 -13 -120 -39 -178s-67 -110 -122 -157c-55 -46 -121 -76 -196 -91v-140h-69v129c-9 0 -34 -2 -43 -2s-34 2 -43 2v-129h-70v140c-76 15 -142 45 -197 92c-111 93 -159 213 -159 334zM289 418c0 -131 72 -231 180 -271v541
c-108 -43 -180 -141 -180 -270zM469 879v411c-81 -36 -133 -110 -133 -205s52 -170 133 -206zM539 705v-576c24 -3 62 -3 86 0v576c-27 5 -59 5 -86 0zM539 1311v-453c9 -1 24 -2 43 -2s34 1 43 2v453c-32 5 -54 5 -86 0zM694 688v-541c108 40 180 140 180 271
c0 129 -72 227 -180 270zM694 1290v-411c81 36 133 111 133 206s-52 169 -133 205z" />
    <glyph glyph-name="integral" unicode="&#x222b;" horiz-adv-x="790" 
d="M-285 -399l25 155h16c35 -35 76 -53 121 -53c85 0 144 55 160 139l270 1344c17 84 53 151 108 201s124 75 206 75c67 0 123 -14 170 -43l-25 -155h-16c-35 35 -76 53 -121 53c-85 0 -144 -55 -160 -139l-270 -1344c-17 -84 -53 -151 -108 -201s-124 -75 -206 -75
c-67 0 -123 14 -170 43z" />
    <glyph glyph-name="approxequal" unicode="&#x2248;" horiz-adv-x="983" 
d="M111 440h-13l13 150c57 57 122 86 194 86c73 0 153 -30 202 -61c51 -29 123 -60 183 -60c63 0 123 29 182 88h13l-13 -149c-57 -57 -122 -86 -194 -86c-73 0 -152 31 -203 60c-49 29 -122 60 -182 60c-63 0 -123 -29 -182 -88zM111 748h-13l13 149c57 57 122 86 194 86
c73 0 153 -30 202 -61c51 -29 123 -60 183 -60c63 0 123 29 182 88h13l-13 -149c-57 -57 -122 -86 -194 -86c-73 0 -152 31 -203 60c-49 31 -122 61 -182 61c-63 0 -123 -29 -182 -88z" />
    <glyph glyph-name="notequal" unicode="&#x2260;" horiz-adv-x="1011" 
d="M274 397h-176v135h248l168 316h-416v135h490l102 193h152l-105 -193h176v-135h-247l-168 -316h415v-135h-489l-102 -192h-152z" />
    <glyph glyph-name="lessequal" unicode="&#x2264;" horiz-adv-x="1011" 
d="M913 0h-815v135h815v-135zM776 365l-618 438v143l618 438h21v-165l-490 -345l490 -344v-165h-21z" />
    <glyph glyph-name="greaterequal" unicode="&#x2265;" horiz-adv-x="1011" 
d="M913 0h-815v135h815v-135zM178 365h-20v165l489 344l-489 345v165h20l619 -438v-143z" />
    <glyph glyph-name="lozenge" unicode="&#x25ca;" horiz-adv-x="1110" 
d="M459 0l-434 717l434 717h192l434 -717l-434 -717h-192zM555 1292l-346 -575l346 -576l346 576z" />
    <glyph glyph-name="uniE000" unicode="&#xe000;" horiz-adv-x="1013" 
d="M1014 0h-1014v1014h1014v-1014z" />
    <glyph glyph-name="apple" unicode="&#xf8ff;" horiz-adv-x="1597" 
d="M193 45v1219c0 20 13 38 32 45l553 159c10 3 17 5 21 5c3 0 10 -2 20 -5l553 -159c19 -7 33 -25 33 -45v-1219c0 -24 -18 -45 -45 -45c-4 0 -9 1 -14 2l-547 158l-547 -158c-5 -1 -10 -2 -14 -2c-27 0 -45 21 -45 45zM281 948v-844l473 138v417c-99 8 -191 38 -274 89
s-150 118 -199 200zM754 1370l-471 -137c8 -128 57 -238 146 -329s198 -143 325 -154v620zM844 659v-417l473 -138v844c-51 -82 -117 -149 -200 -200s-174 -81 -273 -89zM844 1370v-620c127 11 236 63 325 154s138 201 146 329z" />
    <glyph glyph-name="zero.tn" horiz-adv-x="1331" 
d="M666 1462c187 0 345 -80 448 -212c104 -132 162 -320 162 -533c0 -287 -97 -518 -284 -649c-93 -65 -202 -97 -326 -97s-233 32 -326 97s-164 154 -213 266c-48 113 -72 240 -72 383s24 270 72 382c49 113 120 201 213 266s202 97 326 97zM359 1148
c-79 -105 -119 -249 -119 -431s40 -326 119 -432c79 -105 182 -158 307 -158s228 53 307 158c79 106 119 250 119 432s-40 326 -119 431c-79 106 -182 159 -307 159s-228 -53 -307 -159z" />
    <glyph glyph-name="one.tn" horiz-adv-x="1331" 
d="M758 0h-185v1337l142 97h43v-1434z" />
    <glyph glyph-name="two.tn" horiz-adv-x="1331" 
d="M1141 0h-948v20l561 685c53 67 92 126 115 179c24 53 36 110 36 171c0 78 -26 139 -77 184s-115 68 -191 68c-71 0 -140 -20 -205 -60s-117 -93 -158 -160h-18l12 213c49 50 106 89 172 118c67 29 134 44 201 44c130 0 236 -38 317 -114c82 -76 123 -170 123 -283
c0 -157 -73 -293 -192 -438l-387 -471h639v-156z" />
    <glyph glyph-name="three.tn" horiz-adv-x="1331" 
d="M762 1278h-563v156h864v-21l-367 -473c117 -15 219 -58 302 -131c84 -73 135 -189 135 -332c0 -152 -49 -274 -146 -367s-224 -139 -381 -139c-74 0 -139 9 -195 26s-112 41 -167 71l-23 194h17c115 -90 240 -135 376 -135c101 0 183 31 246 93c64 63 96 144 96 243
c0 105 -35 188 -106 249s-155 91 -254 91c-49 0 -103 -7 -162 -21l-18 37z" />
    <glyph glyph-name="four.tn" horiz-adv-x="1331" 
d="M823 356h-659v82l801 996h43v-922h159v-156h-159v-356h-185v356zM823 1016l-407 -504h407v504z" />
    <glyph glyph-name="five.tn" horiz-adv-x="1331" 
d="M240 57l-39 203h16c119 -89 248 -133 387 -133c89 0 175 31 242 88s110 153 110 266s-34 200 -101 261s-151 92 -251 92c-115 0 -235 -43 -358 -129l-35 6l88 723h764v-156h-629l-51 -373c88 43 178 64 270 64c139 0 253 -44 344 -133c91 -88 136 -206 136 -355
c0 -151 -50 -273 -151 -368c-100 -95 -227 -142 -380 -142c-66 0 -126 7 -180 20s-115 35 -182 66z" />
    <glyph glyph-name="six.tn" horiz-adv-x="1331" 
d="M152 647c0 421 202 815 612 815c96 0 183 -22 260 -65l18 -185h-24c-93 72 -165 95 -254 95c-123 0 -221 -47 -296 -141s-119 -230 -132 -408c48 56 106 99 175 128s137 44 204 44c140 0 252 -44 337 -132c85 -87 128 -202 128 -343c0 -127 -57 -251 -146 -339
c-88 -88 -219 -145 -356 -145c-152 0 -282 61 -369 160c-105 120 -157 292 -157 516zM442 689c-60 -62 -90 -140 -90 -234s30 -172 90 -235c61 -62 139 -93 234 -93s172 31 231 93s88 140 88 235s-29 173 -88 234c-59 62 -136 93 -231 93s-173 -31 -234 -93z" />
    <glyph glyph-name="seven.tn" horiz-adv-x="1331" 
d="M899 1278h-709v156h953v-21l-711 -1413h-184z" />
    <glyph glyph-name="eight.tn" horiz-adv-x="1331" 
d="M197 410c0 85 21 160 63 225c43 66 98 117 166 153c-113 77 -170 176 -170 297c0 107 38 197 115 269s175 108 295 108s218 -36 294 -108c77 -71 115 -161 115 -269c0 -121 -57 -220 -170 -297c68 -36 123 -87 166 -153c43 -65 64 -140 64 -225
c0 -103 -42 -208 -117 -295c-75 -85 -203 -144 -352 -144s-277 59 -352 144c-75 87 -117 192 -117 295zM458 628c-57 -53 -85 -123 -85 -210s28 -157 85 -211c57 -53 127 -80 208 -80s150 27 207 80c57 54 85 124 85 211s-28 157 -85 210c-57 54 -126 81 -207 81
s-151 -27 -208 -81zM666 856c69 0 127 21 174 64s71 98 71 165s-24 122 -71 165s-105 65 -174 65s-128 -22 -175 -65s-71 -98 -71 -165s23 -122 70 -165s106 -64 176 -64z" />
    <glyph glyph-name="nine.tn" horiz-adv-x="1331" 
d="M152 979c0 85 21 165 64 238c43 74 104 133 181 178s163 67 256 67c152 0 286 -60 373 -159c103 -117 154 -290 154 -517c0 -422 -203 -815 -613 -815c-95 0 -181 22 -260 66l-18 184h24c47 -36 89 -61 128 -74s81 -20 126 -20c123 0 221 47 296 141s119 230 132 408
c-95 -115 -221 -172 -379 -172c-136 0 -247 44 -334 132c-87 89 -130 203 -130 343zM424 1214c-59 -62 -88 -140 -88 -235s29 -173 88 -235s136 -93 231 -93s173 31 233 93c61 63 91 141 91 235s-30 172 -91 234c-60 63 -138 94 -233 94s-172 -31 -231 -93z" />
    </font>
</defs>
</svg>
